  0
SECTION
  2
HEADER
  9
$ACADVER
  1
AC1009
  9
$DWGCODEPAGE
  3
dos932
  9
$INSBASE
 10
0.0
 20
0.0
 30
0.0
  9
$EXTMIN
 10
1420.776342
 20
1675.283333
 30
0.0
  9
$EXTMAX
 10
6465.17886
 20
4494.214355
 30
0.0
  9
$LIMMIN
 10
1378.835606
 20
1393.436497
  9
$LIMMAX
 10
6179.817771
 20
4786.575979
  9
$ORTHOMODE
 70
     0
  9
$REGENMODE
 70
     1
  9
$FILLMODE
 70
     1
  9
$QTEXTMODE
 70
     0
  9
$MIRRTEXT
 70
     0
  9
$DRAGMODE
 70
     2
  9
$LTSCALE
 40
1.0
  9
$OSMODE
 70
     0
  9
$ATTMODE
 70
     1
  9
$TEXTSIZE
 40
0.2
  9
$TRACEWID
 40
0.05
  9
$TEXTSTYLE
  7
STANDARD
  9
$CLAYER
  8
0
  9
$CELTYPE
  6
BYLAYER
  9
$CECOLOR
 62
   256
  9
$DIMSCALE
 40
1.0
  9
$DIMASZ
 40
0.18
  9
$DIMEXO
 40
3.0
  9
$DIMDLI
 40
0.38
  9
$DIMRND
 40
0.0
  9
$DIMDLE
 40
0.0
  9
$DIMEXE
 40
5.0
  9
$DIMTP
 40
0.0
  9
$DIMTM
 40
0.0
  9
$DIMTXT
 40
0.18
  9
$DIMCEN
 40
0.09
  9
$DIMTSZ
 40
0.0
  9
$DIMTOL
 70
     0
  9
$DIMLIM
 70
     0
  9
$DIMTIH
 70
     1
  9
$DIMTOH
 70
     1
  9
$DIMSE1
 70
     0
  9
$DIMSE2
 70
     0
  9
$DIMTAD
 70
     1
  9
$DIMZIN
 70
     0
  9
$DIMBLK
  1

  9
$DIMASO
 70
     1
  9
$DIMSHO
 70
     0
  9
$DIMPOST
  1

  9
$DIMAPOST
  1

  9
$DIMALT
 70
     0
  9
$DIMALTD
 70
     2
  9
$DIMALTF
 40
25.4
  9
$DIMLFAC
 40
1.0
  9
$DIMTOFL
 70
     0
  9
$DIMTVP
 40
1.0
  9
$DIMTIX
 70
     0
  9
$DIMSOXD
 70
     0
  9
$DIMSAH
 70
     0
  9
$DIMBLK1
  1

  9
$DIMBLK2
  1

  9
$DIMSTYLE
  2
STANDARD
  9
$DIMCLRD
 70
     0
  9
$DIMCLRE
 70
     0
  9
$DIMCLRT
 70
     0
  9
$DIMTFAC
 40
1.0
  9
$DIMGAP
 40
0.09
  9
$LUNITS
 70
     2
  9
$LUPREC
 70
     4
  9
$SKETCHINC
 40
0.1
  9
$FILLETRAD
 40
0.05
  9
$AUNITS
 70
     0
  9
$AUPREC
 70
     0
  9
$MENU
  1
acad
  9
$ELEVATION
 40
0.0
  9
$PELEVATION
 40
0.0
  9
$THICKNESS
 40
0.0
  9
$LIMCHECK
 70
     0
  9
$BLIPMODE
 70
     1
  9
$CHAMFERA
 40
0.0
  9
$CHAMFERB
 40
0.0
  9
$SKPOLY
 70
     0
  9
$TDCREATE
 40
0.0
  9
$TDUPDATE
 40
0.0
  9
$TDINDWG
 40
0.0
  9
$TDUSRTIMER
 40
0.0
  9
$USRTIMER
 70
     1
  9
$ANGBASE
 50
0.0
  9
$ANGDIR
 70
     0
  9
$PDMODE
 70
     0
  9
$PDSIZE
 40
0.0
  9
$PLINEWID
 40
0.0
  9
$COORDS
 70
     0
  9
$SPLFRAME
 70
     0
  9
$SPLINETYPE
 70
     6
  9
$SPLINESEGS
 70
     8
  9
$ATTDIA
 70
     1
  9
$ATTREQ
 70
     1
  9
$HANDLING
 70
     1
  9
$HANDSEED
  5
4EB
  9
$SURFTAB1
 70
     6
  9
$SURFTAB2
 70
     6
  9
$SURFTYPE
 70
     6
  9
$SURFU
 70
     6
  9
$SURFV
 70
     6
  9
$UCSNAME
  2

  9
$UCSORG
 10
0.0
 20
0.0
 30
0.0
  9
$UCSXDIR
 10
1.0
 20
0.0
 30
0.0
  9
$UCSYDIR
 10
0.0
 20
1.0
 30
0.0
  9
$PUCSNAME
  2

  9
$PUCSORG
 10
0.0
 20
0.0
 30
0.0
  9
$PUCSXDIR
 10
1.0
 20
0.0
 30
0.0
  9
$PUCSYDIR
 10
0.0
 20
1.0
 30
0.0
  9
$USERI1
 70
     0
  9
$USERI2
 70
     0
  9
$USERI3
 70
     0
  9
$USERI4
 70
     0
  9
$USERI5
 70
     0
  9
$USERR1
 40
0.0
  9
$USERR2
 40
0.0
  9
$USERR3
 40
0.0
  9
$USERR4
 40
0.0
  9
$USERR5
 40
0.0
  9
$WORLDVIEW
 70
     1
  9
$SHADEDGE
 70
     3
  9
$SHADEDIF
 70
    70
  9
$TILEMODE
 70
     1
  9
$MAXACTVP
 70
    16
  9
$PINSBASE
 10
0.0
 20
0.0
 30
0.0
  9
$PLIMCHECK
 70
     0
  9
$PEXTMIN
 10
1.000000E+020
 20
1.000000E+020
 30
1.000000E+020
  9
$PEXTMAX
 10
-1.000000E+020
 20
-1.000000E+020
 30
-1.000000E+020
  9
$PLIMMIN
 10
0.0
 20
0.0
  9
$PLIMMAX
 10
12.0
 20
9.0
  9
$UNITMODE
 70
     0
  9
$VISRETAIN
 70
     0
  9
$PLINEGEN
 70
     0
  9
$PSLTSCALE
 70
     1
  9
$TREEDEPTH
 70
  3020
  0
ENDSEC
  0
SECTION
  2
TABLES
  0
TABLE
  2
VPORT
 70
     2
  0
VPORT
  2
*ACTIVE
 70
     0
 10
0.0
 20
0.0
 11
1.0
 21
1.0
 12
4666.989337
 22
3090.006238
 13
0.0
 23
0.0
 14
1.0
 24
1.0
 15
0.0
 25
0.0
 16
0.0
 26
0.0
 36
1.0
 17
0.0
 27
0.0
 37
0.0
 40
3393.139482
 41
1.938119
 42
50.0
 43
0.0
 44
0.0
 50
0.0
 51
0.0
 71
     0
 72
   100
 73
     1
 74
     1
 75
     0
 76
     0
 77
     0
 78
     0
  0
ENDTAB
  0
TABLE
  2
LTYPE
 70
     5
  0
LTYPE
  2
CONTINUOUS
 70
    64
  3
Solid line
 72
    65
 73
     0
 40
0.0
  0
LTYPE
  2
DASHDOT
 70
    64
  3
__ . __ . __ . __ . __ . __ . __ . __ . __ . __
 72
    65
 73
     4
 40
1.0
 49
0.5
 49
-0.25
 49
0.0
 49
-0.25
  0
LTYPE
  2
DIVIDE
 70
    64
  3
__ . . __ . . __ . . __ . . __ . . __ . . __
 72
    65
 73
     6
 40
1.25
 49
0.5
 49
-0.25
 49
0.0
 49
-0.25
 49
0.0
 49
-0.25
  0
LTYPE
  2
DASHED
 70
    64
  3
__ __ __ __ __ __ __ __ __ __ __ __ __ __ __
 72
    65
 73
     2
 40
0.75
 49
0.5
 49
-0.25
  0
LTYPE
  2
DOT
 70
    64
  3
...............................................
 72
    65
 73
     2
 40
0.25
 49
0.0
 49
-0.25
  0
ENDTAB
  0
TABLE
  2
LAYER
 70
     5
  0
LAYER
  2
0
 70
     0
 62
     7
  6
CONTINUOUS
  0
LAYER
  2
DEFPOINTS
 70
     0
 62
    -7
  6
CONTINUOUS
  0
LAYER
  2
1
 70
     0
 62
     7
  6
CONTINUOUS
  0
LAYER
  2
2
 70
     0
 62
     7
  6
CONTINUOUS
  0
LAYER
  2
3
 70
     0
 62
     7
  6
CONTINUOUS
  0
ENDTAB
  0
TABLE
  2
STYLE
 70
     3
  0
STYLE
  2
STANDARD
 70
    64
 40
100.0
 41
0.8
 50
0.0
 71
     0
 42
0.2
  3
txt
  4

  0
STYLE
  2
MONOTXT
 70
    64
 40
0.0
 41
0.5
 50
0.0
 71
     0
 42
4.191412
  3
monotxt
  4
BIGFONT
  0
STYLE
  2
VERTICAL
 70
    68
 40
0.0
 41
0.5
 50
0.0
 71
     0
 42
4.191412
  3
monotxt
  4
BIGFONT
  0
ENDTAB
  0
TABLE
  2
VIEW
 70
     0
  0
ENDTAB
  0
TABLE
  2
UCS
 70
     0
  0
ENDTAB
  0
TABLE
  2
APPID
 70
     1
  0
APPID
  2
ACAD
 70
     0
  0
ENDTAB
  0
TABLE
  2
DIMSTYLE
 70
     1
  0
DIMSTYLE
  2
STANDARD
 70
     0
  3

  4

  5

  6

  7

 40
1.0
 41
0.18
 42
0.0625
 43
0.38
 44
0.18
 45
0.0
 46
0.0
 47
0.0
 48
0.0
140
0.18
141
0.09
142
0.0
143
25.4
144
1.0
145
0.0
146
1.0
147
0.09
 71
     0
 72
     0
 73
     1
 74
     1
 75
     0
 76
     0
 77
     0
 78
     0
170
     0
171
     2
172
     0
173
     0
174
     0
175
     0
176
     0
177
     0
178
     0
  0
ENDTAB
  0
ENDSEC
  0
SECTION
  2
BLOCKS
  0
BLOCK
  5
4A7
  8
0
  2
$MODEL_SPACE
 70
     0
 10
0.0
 20
0.0
 30
0.0
  3
$MODEL_SPACE
  1

  0
ENDBLK
  5
4A8
  8
0
  0
BLOCK
  5
4A4
 67
     1
  8
0
  2
$PAPER_SPACE
 70
     0
 10
0.0
 20
0.0
 30
0.0
  3
$PAPER_SPACE
  1

  0
ENDBLK
  5
4A5
 67
     1
  8
0
  0
BLOCK
  5
2B
  8
2
  2
*D2
 70
    65
 10
0.0
 20
0.0
 30
0.0
  3
*D2
  1

  0
POINT
  5
2C
  8
DEFPOINTS
 10
4500.292901
 20
2477.35116
 30
0.0
  0
POINT
  5
2D
  8
DEFPOINTS
 10
4500.297801
 20
2607.35216
 30
0.0
  0
POINT
  5
2E
  8
DEFPOINTS
 10
4376.669401
 20
2545.171237
 30
0.0
  0
LINE
  5
2F
  8
2
 10
4497.292901
 20
2477.35116
 30
0.0
 11
4371.669401
 21
2477.35116
 31
0.0
  0
LINE
  5
30
  8
2
 10
4497.297801
 20
2607.35216
 30
0.0
 11
4371.669401
 21
2607.35216
 31
0.0
  0
LINE
  5
31
  8
2
 10
4376.669401
 20
2433.034811
 30
0.0
 11
4376.669401
 21
2651.668509
 31
0.0
  0
LINE
  5
32
  8
2
 10
4381.878846
 20
2447.806928
 30
0.0
 11
4376.669401
 21
2477.35116
 31
0.0
  0
LINE
  5
33
  8
2
 10
4371.459956
 20
2447.806928
 30
0.0
 11
4376.669401
 21
2477.35116
 31
0.0
  0
LINE
  5
34
  8
2
 10
4371.45996
 20
2636.896394
 30
0.0
 11
4376.669401
 21
2607.35216
 31
0.0
  0
LINE
  5
35
  8
2
 10
4381.87885
 20
2636.896392
 30
0.0
 11
4376.669401
 21
2607.35216
 31
0.0
  0
TEXT
  5
36
  8
2
 10
4374.669434
 20
2420.945312
 30
0.0
 40
43.75
  1
２×６５＝１３０
 50
90.000003
 41
0.9
  7
MONOTXT
  0
ENDBLK
  5
37
  8
0
  0
BLOCK
  5
39
  8
2
  2
*D3
 70
    65
 10
0.0
 20
0.0
 30
0.0
  3
*D3
  1

  0
POINT
  5
3A
  8
DEFPOINTS
 10
4521.292901
 20
2377.35096
 30
0.0
  0
POINT
  5
3B
  8
DEFPOINTS
 10
4566.292901
 20
2456.35096
 30
0.0
  0
POINT
  5
3C
  8
DEFPOINTS
 10
4485.244419
 20
2258.60046
 30
0.0
  0
LINE
  5
3D
  8
2
 10
4521.292901
 20
2374.35096
 30
0.0
 11
4521.292901
 21
2253.60046
 31
0.0
  0
LINE
  5
3E
  8
2
 10
4566.292901
 20
2453.35096
 30
0.0
 11
4566.292901
 21
2253.60046
 31
0.0
  0
LINE
  5
3F
  8
2
 10
4418.324746
 20
2258.60046
 30
0.0
 11
4603.223191
 21
2258.60046
 31
0.0
  0
LINE
  5
40
  8
2
 10
4491.748669
 20
2253.391013
 30
0.0
 11
4521.292901
 21
2258.60046
 31
0.0
  0
LINE
  5
41
  8
2
 10
4491.748668
 20
2263.809903
 30
0.0
 11
4521.292901
 21
2258.60046
 31
0.0
  0
CIRCLE
  5
42
  8
2
 10
4566.292901
 20
2258.60046
 30
0.0
 40
6.25
  0
CIRCLE
  5
43
  8
2
 10
4566.292901
 20
2258.60046
 30
0.0
 40
3.75
  0
TEXT
  5
44
  8
2
 10
4447.124512
 20
2260.600342
 30
0.0
 40
48.0
  1
45
 41
0.9
  7
MONOTXT
  0
ENDBLK
  5
45
  8
0
  0
BLOCK
  5
47
  8
2
  2
*D4
 70
    65
 10
0.0
 20
0.0
 30
0.0
  3
*D4
  1

  0
POINT
  5
48
  8
DEFPOINTS
 10
4566.292901
 20
2456.35096
 30
0.0
  0
POINT
  5
49
  8
DEFPOINTS
 10
4612.292901
 20
2511.35096
 30
0.0
  0
POINT
  5
4A
  8
DEFPOINTS
 10
4545.953385
 20
2258.60046
 30
0.0
  0
LINE
  5
4B
  8
2
 10
4566.292901
 20
2453.35096
 30
0.0
 11
4566.292901
 21
2253.60046
 31
0.0
  0
LINE
  5
4C
  8
2
 10
4612.292901
 20
2508.35096
 30
0.0
 11
4612.292901
 21
2253.60046
 31
0.0
  0
LINE
  5
4D
  8
2
 10
4529.362611
 20
2258.60046
 30
0.0
 11
4706.003869
 21
2258.60046
 31
0.0
  0
CIRCLE
  5
4E
  8
2
 10
4566.292901
 20
2258.60046
 30
0.0
 40
6.25
  0
CIRCLE
  5
4F
  8
2
 10
4566.292901
 20
2258.60046
 30
0.0
 40
3.75
  0
LINE
  5
50
  8
2
 10
4641.837132
 20
2263.809911
 30
0.0
 11
4612.292901
 21
2258.60046
 31
0.0
  0
LINE
  5
51
  8
2
 10
4641.837134
 20
2253.39102
 30
0.0
 11
4612.292901
 21
2258.60046
 31
0.0
  0
TEXT
  5
52
  8
2
 10
4619.604004
 20
2260.600342
 30
0.0
 40
48.0
  1
46
 41
0.9
  7
MONOTXT
  0
ENDBLK
  5
53
  8
0
  0
BLOCK
  5
55
  8
2
  2
*D5
 70
    65
 10
0.0
 20
0.0
 30
0.0
  3
*D5
  1

  0
POINT
  5
56
  8
DEFPOINTS
 10
5320.293201
 20
2482.35096
 30
0.0
  0
POINT
  5
57
  8
DEFPOINTS
 10
5321.292901
 20
2677.35096
 30
0.0
  0
POINT
  5
58
  8
DEFPOINTS
 10
5516.374501
 20
2599.223538
 30
0.0
  0
LINE
  5
59
  8
2
 10
5323.293201
 20
2482.35096
 30
0.0
 11
5521.374501
 21
2482.35096
 31
0.0
  0
LINE
  5
5A
  8
2
 10
5324.292901
 20
2677.35096
 30
0.0
 11
5521.374501
 21
2677.35096
 31
0.0
  0
LINE
  5
5B
  8
2
 10
5516.374501
 20
2482.35096
 30
0.0
 11
5516.374501
 21
2677.35096
 31
0.0
  0
LINE
  5
5C
  8
2
 10
5511.165054
 20
2511.895193
 30
0.0
 11
5516.374501
 21
2482.35096
 31
0.0
  0
LINE
  5
5D
  8
2
 10
5521.583945
 20
2511.895193
 30
0.0
 11
5516.374501
 21
2482.35096
 31
0.0
  0
LINE
  5
5E
  8
2
 10
5521.583946
 20
2647.806728
 30
0.0
 11
5516.374501
 21
2677.35096
 31
0.0
  0
LINE
  5
5F
  8
2
 10
5511.165056
 20
2647.806728
 30
0.0
 11
5516.374501
 21
2677.35096
 31
0.0
  0
TEXT
  5
60
  8
2
 10
5514.374512
 20
2536.650879
 30
0.0
 40
48.0
  1
195
 50
90.000003
 41
0.9
  7
MONOTXT
  0
ENDBLK
  5
61
  8
0
  0
BLOCK
  5
63
  8
2
  2
*D6
 70
    65
 10
0.0
 20
0.0
 30
0.0
  3
*D6
  1

  0
POINT
  5
64
  8
DEFPOINTS
 10
4977.542901
 20
2422.35096
 30
0.0
  0
POINT
  5
65
  8
DEFPOINTS
 10
4977.542901
 20
2557.35096
 30
0.0
  0
POINT
  5
66
  8
DEFPOINTS
 10
5238.932301
 20
2500.034122
 30
0.0
  0
LINE
  5
67
  8
2
 10
4980.542901
 20
2422.35096
 30
0.0
 11
5243.932301
 21
2422.35096
 31
0.0
  0
LINE
  5
68
  8
2
 10
4980.542901
 20
2557.35096
 30
0.0
 11
5243.932301
 21
2557.35096
 31
0.0
  0
LINE
  5
69
  8
2
 10
5238.932301
 20
2378.034611
 30
0.0
 11
5238.932301
 21
2601.667309
 31
0.0
  0
LINE
  5
6A
  8
2
 10
5244.141746
 20
2392.806728
 30
0.0
 11
5238.932301
 21
2422.35096
 31
0.0
  0
LINE
  5
6B
  8
2
 10
5233.722856
 20
2392.806728
 30
0.0
 11
5238.932301
 21
2422.35096
 31
0.0
  0
LINE
  5
6C
  8
2
 10
5233.72286
 20
2586.895194
 30
0.0
 11
5238.932301
 21
2557.35096
 31
0.0
  0
LINE
  5
6D
  8
2
 10
5244.14175
 20
2586.895192
 30
0.0
 11
5238.932301
 21
2557.35096
 31
0.0
  0
TEXT
  5
6E
  8
2
 10
5236.932129
 20
2446.650879
 30
0.0
 40
48.0
  1
135
 50
90.000003
 41
0.9
  7
MONOTXT
  0
ENDBLK
  5
6F
  8
0
  0
BLOCK
  5
71
  8
2
  2
*D7
 70
    65
 10
0.0
 20
0.0
 30
0.0
  3
*D7
  1

  0
POINT
  5
72
  8
DEFPOINTS
 10
4977.542901
 20
2557.35096
 30
0.0
  0
POINT
  5
73
  8
DEFPOINTS
 10
5321.292901
 20
2677.35096
 30
0.0
  0
POINT
  5
74
  8
DEFPOINTS
 10
5238.932301
 20
2595.505744
 30
0.0
  0
LINE
  5
75
  8
2
 10
4980.542901
 20
2557.35096
 30
0.0
 11
5243.932301
 21
2557.35096
 31
0.0
  0
LINE
  5
76
  8
2
 10
5318.292901
 20
2677.35096
 30
0.0
 11
5233.932301
 21
2677.35096
 31
0.0
  0
LINE
  5
77
  8
2
 10
5238.932301
 20
2513.034611
 30
0.0
 11
5238.932301
 21
2721.667309
 31
0.0
  0
LINE
  5
78
  8
2
 10
5244.141746
 20
2527.806728
 30
0.0
 11
5238.932301
 21
2557.35096
 31
0.0
  0
LINE
  5
79
  8
2
 10
5233.722856
 20
2527.806728
 30
0.0
 11
5238.932301
 21
2557.35096
 31
0.0
  0
LINE
  5
7A
  8
2
 10
5233.72286
 20
2706.895194
 30
0.0
 11
5238.932301
 21
2677.35096
 31
0.0
  0
LINE
  5
7B
  8
2
 10
5244.14175
 20
2706.895192
 30
0.0
 11
5238.932301
 21
2677.35096
 31
0.0
  0
TEXT
  5
7C
  8
2
 10
5236.932129
 20
2574.150879
 30
0.0
 40
48.0
  1
120
 50
90.000003
 41
0.9
  7
MONOTXT
  0
ENDBLK
  5
7D
  8
0
  0
BLOCK
  5
7F
  8
2
  2
*D8
 70
    65
 10
0.0
 20
0.0
 30
0.0
  3
*D8
  1

  0
POINT
  5
80
  8
DEFPOINTS
 10
4521.292901
 20
2677.35096
 30
0.0
  0
POINT
  5
81
  8
DEFPOINTS
 10
5321.292901
 20
2677.35096
 30
0.0
  0
POINT
  5
82
  8
DEFPOINTS
 10
4561.767925
 20
3068.60046
 30
0.0
  0
LINE
  5
83
  8
2
 10
4521.292901
 20
2680.35096
 30
0.0
 11
4521.292901
 21
3073.60046
 31
0.0
  0
LINE
  5
84
  8
2
 10
5321.292901
 20
2680.35096
 30
0.0
 11
5321.292901
 21
3073.60046
 31
0.0
  0
LINE
  5
85
  8
2
 10
4521.292901
 20
3068.60046
 30
0.0
 11
5321.292901
 21
3068.60046
 31
0.0
  0
LINE
  5
86
  8
2
 10
4550.837133
 20
3073.809906
 30
0.0
 11
4521.292901
 21
3068.60046
 31
0.0
  0
LINE
  5
87
  8
2
 10
4550.837133
 20
3063.391015
 30
0.0
 11
4521.292901
 21
3068.60046
 31
0.0
  0
LINE
  5
88
  8
2
 10
5291.748669
 20
3063.391013
 30
0.0
 11
5321.292901
 21
3068.60046
 31
0.0
  0
LINE
  5
89
  8
2
 10
5291.748668
 20
3073.809903
 30
0.0
 11
5321.292901
 21
3068.60046
 31
0.0
  0
TEXT
  5
8A
  8
2
 10
4878.092773
 20
3070.600342
 30
0.0
 40
48.0
  1
800
 41
0.9
  7
MONOTXT
  0
ENDBLK
  5
8B
  8
0
  0
BLOCK
  5
8D
  8
2
  2
*D9
 70
    65
 10
0.0
 20
0.0
 30
0.0
  3
*D9
  1

  0
POINT
  5
8E
  8
DEFPOINTS
 10
4496.292901
 20
2654.85066
 30
0.0
  0
POINT
  5
8F
  8
DEFPOINTS
 10
4521.292901
 20
2677.35096
 30
0.0
  0
POINT
  5
90
  8
DEFPOINTS
 10
4688.15652
 20
3068.60046
 30
0.0
  0
LINE
  5
91
  8
2
 10
4496.292901
 20
2657.85066
 30
0.0
 11
4496.292901
 21
3073.60046
 31
0.0
  0
LINE
  5
92
  8
2
 10
4521.292901
 20
2680.35096
 30
0.0
 11
4521.292901
 21
3073.60046
 31
0.0
  0
LINE
  5
93
  8
2
 10
4395.020196
 20
3068.60046
 30
0.0
 11
4565.60925
 21
3068.60046
 31
0.0
  0
LINE
  5
94
  8
2
 10
4466.748669
 20
3063.391013
 30
0.0
 11
4496.292901
 21
3068.60046
 31
0.0
  0
LINE
  5
95
  8
2
 10
4466.748668
 20
3073.809903
 30
0.0
 11
4496.292901
 21
3068.60046
 31
0.0
  0
LINE
  5
96
  8
2
 10
4550.837132
 20
3073.809911
 30
0.0
 11
4521.292901
 21
3068.60046
 31
0.0
  0
LINE
  5
97
  8
2
 10
4550.837134
 20
3063.39102
 30
0.0
 11
4521.292901
 21
3068.60046
 31
0.0
  0
TEXT
  5
98
  8
2
 10
4423.820312
 20
3070.600342
 30
0.0
 40
48.0
  1
25
 41
0.9
  7
MONOTXT
  0
ENDBLK
  5
99
  8
0
  0
BLOCK
  5
9B
  8
2
  2
*D10
 70
    65
 10
0.0
 20
0.0
 30
0.0
  3
*D10
  1

  0
POINT
  5
9C
  8
DEFPOINTS
 10
4521.292901
 20
2677.35096
 30
0.0
  0
POINT
  5
9D
  8
DEFPOINTS
 10
4961.292901
 20
2579.35096
 30
0.0
  0
POINT
  5
9E
  8
DEFPOINTS
 10
4830.748781
 20
2884.77746
 30
0.0
  0
LINE
  5
9F
  8
2
 10
4521.292901
 20
2680.35096
 30
0.0
 11
4521.292901
 21
2889.77746
 31
0.0
  0
LINE
  5
A0
  8
2
 10
4961.292901
 20
2582.35096
 30
0.0
 11
4961.292901
 21
2889.77746
 31
0.0
  0
LINE
  5
A1
  8
2
 10
4521.292901
 20
2884.77746
 30
0.0
 11
4961.292901
 21
2884.77746
 31
0.0
  0
LINE
  5
A2
  8
2
 10
4550.837133
 20
2889.986906
 30
0.0
 11
4521.292901
 21
2884.77746
 31
0.0
  0
LINE
  5
A3
  8
2
 10
4550.837133
 20
2879.568015
 30
0.0
 11
4521.292901
 21
2884.77746
 31
0.0
  0
LINE
  5
A4
  8
2
 10
4931.748669
 20
2879.568013
 30
0.0
 11
4961.292901
 21
2884.77746
 31
0.0
  0
LINE
  5
A5
  8
2
 10
4931.748668
 20
2889.986903
 30
0.0
 11
4961.292901
 21
2884.77746
 31
0.0
  0
TEXT
  5
A6
  8
2
 10
4698.092773
 20
2886.777344
 30
0.0
 40
48.0
  1
440
 41
0.9
  7
MONOTXT
  0
ENDBLK
  5
A7
  8
0
  0
BLOCK
  5
A9
  8
2
  2
*D11
 70
    65
 10
0.0
 20
0.0
 30
0.0
  3
*D11
  1

  0
POINT
  5
AA
  8
DEFPOINTS
 10
4521.292901
 20
2677.35096
 30
0.0
  0
POINT
  5
AB
  8
DEFPOINTS
 10
4836.293201
 20
2637.35116
 30
0.0
  0
POINT
  5
AC
  8
DEFPOINTS
 10
4757.292162
 20
2810.04646
 30
0.0
  0
LINE
  5
AD
  8
2
 10
4521.292901
 20
2680.35096
 30
0.0
 11
4521.292901
 21
2815.04646
 31
0.0
  0
LINE
  5
AE
  8
2
 10
4836.293201
 20
2640.35116
 30
0.0
 11
4836.293201
 21
2815.04646
 31
0.0
  0
LINE
  5
AF
  8
2
 10
4521.292901
 20
2810.04646
 30
0.0
 11
4836.293201
 21
2810.04646
 31
0.0
  0
LINE
  5
B0
  8
2
 10
4550.837133
 20
2815.255906
 30
0.0
 11
4521.292901
 21
2810.04646
 31
0.0
  0
LINE
  5
B1
  8
2
 10
4550.837133
 20
2804.837015
 30
0.0
 11
4521.292901
 21
2810.04646
 31
0.0
  0
LINE
  5
B2
  8
2
 10
4806.748969
 20
2804.837013
 30
0.0
 11
4836.293201
 21
2810.04646
 31
0.0
  0
LINE
  5
B3
  8
2
 10
4806.748968
 20
2815.255903
 30
0.0
 11
4836.293201
 21
2810.04646
 31
0.0
  0
TEXT
  5
B4
  8
2
 10
4635.593262
 20
2812.046387
 30
0.0
 40
48.0
  1
315
 41
0.9
  7
MONOTXT
  0
ENDBLK
  5
B5
  8
0
  0
BLOCK
  5
B7
  8
2
  2
*D12
 70
    65
 10
0.0
 20
0.0
 30
0.0
  3
*D12
  1

  0
POINT
  5
B8
  8
DEFPOINTS
 10
2757.169401
 20
2698.60046
 30
0.0
  0
POINT
  5
B9
  8
DEFPOINTS
 10
2822.169301
 20
2698.60046
 30
0.0
  0
POINT
  5
BA
  8
DEFPOINTS
 10
2838.816515
 20
2738.60046
 30
0.0
  0
LINE
  5
BB
  8
2
 10
2757.169401
 20
2701.60046
 30
0.0
 11
2757.169401
 21
2743.60046
 31
0.0
  0
LINE
  5
BC
  8
2
 10
2822.169301
 20
2701.60046
 30
0.0
 11
2822.169301
 21
2743.60046
 31
0.0
  0
LINE
  5
BD
  8
2
 10
2712.853052
 20
2738.60046
 30
0.0
 11
2866.48565
 21
2738.60046
 31
0.0
  0
LINE
  5
BE
  8
2
 10
2727.625169
 20
2733.391013
 30
0.0
 11
2757.169401
 21
2738.60046
 31
0.0
  0
LINE
  5
BF
  8
2
 10
2727.625168
 20
2743.809903
 30
0.0
 11
2757.169401
 21
2738.60046
 31
0.0
  0
LINE
  5
C0
  8
2
 10
2851.713532
 20
2743.809911
 30
0.0
 11
2822.169301
 21
2738.60046
 31
0.0
  0
LINE
  5
C1
  8
2
 10
2851.713534
 20
2733.39102
 30
0.0
 11
2822.169301
 21
2738.60046
 31
0.0
  0
TEXT
  5
C2
  8
2
 10
2760.869385
 20
2740.600342
 30
0.0
 40
48.0
  1
65
 41
0.9
  7
MONOTXT
  0
ENDBLK
  5
C3
  8
0
  0
BLOCK
  5
C5
  8
2
  2
*D13
 70
    65
 10
0.0
 20
0.0
 30
0.0
  3
*D13
  1

  0
POINT
  5
C6
  8
DEFPOINTS
 10
4521.292901
 20
2677.35096
 30
0.0
  0
POINT
  5
C7
  8
DEFPOINTS
 10
5101.295401
 20
2397.35246
 30
0.0
  0
POINT
  5
C8
  8
DEFPOINTS
 10
4715.730691
 20
2978.60046
 30
0.0
  0
LINE
  5
C9
  8
2
 10
4521.292901
 20
2680.35096
 30
0.0
 11
4521.292901
 21
2983.60046
 31
0.0
  0
LINE
  5
CA
  8
2
 10
5101.295401
 20
2400.35246
 30
0.0
 11
5101.295401
 21
2983.60046
 31
0.0
  0
LINE
  5
CB
  8
2
 10
4521.292901
 20
2978.60046
 30
0.0
 11
5101.295401
 21
2978.60046
 31
0.0
  0
LINE
  5
CC
  8
2
 10
4550.837133
 20
2983.809906
 30
0.0
 11
4521.292901
 21
2978.60046
 31
0.0
  0
LINE
  5
CD
  8
2
 10
4550.837133
 20
2973.391015
 30
0.0
 11
4521.292901
 21
2978.60046
 31
0.0
  0
LINE
  5
CE
  8
2
 10
5071.751169
 20
2973.391013
 30
0.0
 11
5101.295401
 21
2978.60046
 31
0.0
  0
LINE
  5
CF
  8
2
 10
5071.751168
 20
2983.809903
 30
0.0
 11
5101.295401
 21
2978.60046
 31
0.0
  0
TEXT
  5
D0
  8
2
 10
4622.632324
 20
2980.600342
 30
0.0
 40
48.0
  1
595
 41
0.9
  7
MONOTXT
  0
ENDBLK
  5
D1
  8
0
  0
BLOCK
  5
D3
  8
2
  2
*D14
 70
    65
 10
0.0
 20
0.0
 30
0.0
  3
*D14
  1

  0
POINT
  5
D4
  8
DEFPOINTS
 10
3097.168901
 20
2239.85116
 30
0.0
  0
POINT
  5
D5
  8
DEFPOINTS
 10
3154.169301
 20
2392.33406
 30
0.0
  0
POINT
  5
D6
  8
DEFPOINTS
 10
3161.826626
 20
2238.60046
 30
0.0
  0
LINE
  5
D7
  8
2
 10
3097.168901
 20
2236.85116
 30
0.0
 11
3097.168901
 21
2233.60046
 31
0.0
  0
LINE
  5
D8
  8
2
 10
3154.169301
 20
2389.33406
 30
0.0
 11
3154.169301
 21
2233.60046
 31
0.0
  0
LINE
  5
D9
  8
2
 10
3052.852552
 20
2238.60046
 30
0.0
 11
3259.368077
 21
2238.60046
 31
0.0
  0
LINE
  5
DA
  8
2
 10
3067.624669
 20
2233.391013
 30
0.0
 11
3097.168901
 21
2238.60046
 31
0.0
  0
LINE
  5
DB
  8
2
 10
3067.624668
 20
2243.809903
 30
0.0
 11
3097.168901
 21
2238.60046
 31
0.0
  0
LINE
  5
DC
  8
2
 10
3183.713532
 20
2243.809911
 30
0.0
 11
3154.169301
 21
2238.60046
 31
0.0
  0
LINE
  5
DD
  8
2
 10
3183.713534
 20
2233.39102
 30
0.0
 11
3154.169301
 21
2238.60046
 31
0.0
  0
TEXT
  5
DE
  8
2
 10
3172.968018
 20
2240.600342
 30
0.0
 40
48.0
  1
57
 41
0.9
  7
MONOTXT
  0
ENDBLK
  5
DF
  8
0
  0
BLOCK
  5
E1
  8
2
  2
*D15
 70
    65
 10
0.0
 20
0.0
 30
0.0
  3
*D15
  1

  0
POINT
  5
E2
  8
DEFPOINTS
 10
2494.169201
 20
2092.35146
 30
0.0
  0
POINT
  5
E3
  8
DEFPOINTS
 10
2547.169201
 20
2137.35116
 30
0.0
  0
POINT
  5
E4
  8
DEFPOINTS
 10
2096.669401
 20
2168.982549
 30
0.0
  0
LINE
  5
E5
  8
2
 10
2491.169201
 20
2092.35146
 30
0.0
 11
2091.669401
 21
2092.35146
 31
0.0
  0
LINE
  5
E6
  8
2
 10
2544.169201
 20
2137.35116
 30
0.0
 11
2091.669401
 21
2137.35116
 31
0.0
  0
LINE
  5
E7
  8
2
 10
2096.669401
 20
2062.807227
 30
0.0
 11
2096.669401
 21
2225.37797
 31
0.0
  0
CIRCLE
  5
E8
  8
2
 10
2096.669401
 20
2092.35146
 30
0.0
 40
5.0
  0
CIRCLE
  5
E9
  8
2
 10
2096.669401
 20
2092.35146
 30
0.0
 40
3.0
  0
LINE
  5
EA
  8
2
 10
2091.45996
 20
2166.895394
 30
0.0
 11
2096.669401
 21
2137.35116
 31
0.0
  0
LINE
  5
EB
  8
2
 10
2101.87885
 20
2166.895392
 30
0.0
 11
2096.669401
 21
2137.35116
 31
0.0
  0
TEXT
  5
EC
  8
2
 10
2094.669434
 20
2138.978027
 30
0.0
 40
48.0
  1
45
 50
90.000003
 41
0.9
  7
MONOTXT
  0
ENDBLK
  5
ED
  8
0
  0
BLOCK
  5
EF
  8
2
  2
*D16
 70
    65
 10
0.0
 20
0.0
 30
0.0
  3
*D16
  1

  0
POINT
  5
F0
  8
DEFPOINTS
 10
2507.169301
 20
2082.35096
 30
0.0
  0
POINT
  5
F1
  8
DEFPOINTS
 10
2497.169201
 20
2092.35146
 30
0.0
  0
POINT
  5
F2
  8
DEFPOINTS
 10
2096.669401
 20
2045.984847
 30
0.0
  0
LINE
  5
F3
  8
2
 10
2504.169301
 20
2082.35096
 30
0.0
 11
2091.669401
 21
2082.35096
 31
0.0
  0
LINE
  5
F4
  8
2
 10
2494.169201
 20
2092.35146
 30
0.0
 11
2091.669401
 21
2092.35146
 31
0.0
  0
LINE
  5
F5
  8
2
 10
2096.669401
 20
1991.833596
 30
0.0
 11
2096.669401
 21
2121.895694
 31
0.0
  0
LINE
  5
F6
  8
2
 10
2101.878846
 20
2052.806728
 30
0.0
 11
2096.669401
 21
2082.35096
 31
0.0
  0
LINE
  5
F7
  8
2
 10
2091.459956
 20
2052.806728
 30
0.0
 11
2096.669401
 21
2082.35096
 31
0.0
  0
CIRCLE
  5
F8
  8
2
 10
2096.669401
 20
2092.35146
 30
0.0
 40
5.0
  0
CIRCLE
  5
F9
  8
2
 10
2096.669401
 20
2092.35146
 30
0.0
 40
3.0
  0
TEXT
  5
FA
  8
2
 10
2094.669434
 20
2020.633545
 30
0.0
 40
48.0
  1
10
 50
90.000003
 41
0.9
  7
MONOTXT
  0
ENDBLK
  5
FB
  8
0
  0
BLOCK
  5
FD
  8
2
  2
*D17
 70
    65
 10
0.0
 20
0.0
 30
0.0
  3
*D17
  1

  0
POINT
  5
FE
  8
DEFPOINTS
 10
2547.169201
 20
2377.35146
 30
0.0
  0
POINT
  5
FF
  8
DEFPOINTS
 10
2547.169001
 20
2677.35096
 30
0.0
  0
POINT
  5
100
  8
DEFPOINTS
 10
2186.669401
 20
2601.887433
 30
0.0
  0
LINE
  5
101
  8
2
 10
2544.169201
 20
2377.35146
 30
0.0
 11
2181.669401
 21
2377.35146
 31
0.0
  0
LINE
  5
102
  8
2
 10
2544.169001
 20
2677.35096
 30
0.0
 11
2181.669401
 21
2677.35096
 31
0.0
  0
LINE
  5
103
  8
2
 10
2186.669401
 20
2377.35146
 30
0.0
 11
2186.669401
 21
2677.35096
 31
0.0
  0
LINE
  5
104
  8
2
 10
2181.459954
 20
2406.895693
 30
0.0
 11
2186.669401
 21
2377.35146
 31
0.0
  0
LINE
  5
105
  8
2
 10
2191.878845
 20
2406.895693
 30
0.0
 11
2186.669401
 21
2377.35146
 31
0.0
  0
LINE
  5
106
  8
2
 10
2191.878846
 20
2647.806728
 30
0.0
 11
2186.669401
 21
2677.35096
 31
0.0
  0
LINE
  5
107
  8
2
 10
2181.459956
 20
2647.806728
 30
0.0
 11
2186.669401
 21
2677.35096
 31
0.0
  0
TEXT
  5
108
  8
2
 10
2184.669434
 20
2484.151123
 30
0.0
 40
48.0
  1
300
 50
90.000003
 41
0.9
  7
MONOTXT
  0
ENDBLK
  5
109
  8
0
  0
BLOCK
  5
10B
  8
2
  2
*D18
 70
    65
 10
0.0
 20
0.0
 30
0.0
  3
*D18
  1

  0
POINT
  5
10C
  8
DEFPOINTS
 10
2596.669401
 20
2419.85196
 30
0.0
  0
POINT
  5
10D
  8
DEFPOINTS
 10
2596.669401
 20
2664.85196
 30
0.0
  0
POINT
  5
10E
  8
DEFPOINTS
 10
2256.669401
 20
2548.499681
 30
0.0
  0
LINE
  5
10F
  8
2
 10
2593.669401
 20
2419.85196
 30
0.0
 11
2251.669401
 21
2419.85196
 31
0.0
  0
LINE
  5
110
  8
2
 10
2593.669401
 20
2664.85196
 30
0.0
 11
2251.669401
 21
2664.85196
 31
0.0
  0
LINE
  5
111
  8
2
 10
2256.669401
 20
2419.85196
 30
0.0
 11
2256.669401
 21
2664.85196
 31
0.0
  0
LINE
  5
112
  8
2
 10
2251.459954
 20
2449.396193
 30
0.0
 11
2256.669401
 21
2419.85196
 31
0.0
  0
LINE
  5
113
  8
2
 10
2261.878845
 20
2449.396193
 30
0.0
 11
2256.669401
 21
2419.85196
 31
0.0
  0
LINE
  5
114
  8
2
 10
2261.878846
 20
2635.307728
 30
0.0
 11
2256.669401
 21
2664.85196
 31
0.0
  0
LINE
  5
115
  8
2
 10
2251.459956
 20
2635.307728
 30
0.0
 11
2256.669401
 21
2664.85196
 31
0.0
  0
TEXT
  5
116
  8
2
 10
2254.669434
 20
2499.151855
 30
0.0
 40
48.0
  1
245
 50
90.000003
 41
0.9
  7
MONOTXT
  0
ENDBLK
  5
117
  8
0
  0
BLOCK
  5
119
  8
2
  2
*D19
 70
    65
 10
0.0
 20
0.0
 30
0.0
  3
*D19
  1

  0
POINT
  5
11A
  8
DEFPOINTS
 10
2579.669401
 20
2434.85166
 30
0.0
  0
POINT
  5
11B
  8
DEFPOINTS
 10
2579.669401
 20
2649.85166
 30
0.0
  0
POINT
  5
11C
  8
DEFPOINTS
 10
2326.669401
 20
2530.090111
 30
0.0
  0
LINE
  5
11D
  8
2
 10
2576.669401
 20
2434.85166
 30
0.0
 11
2321.669401
 21
2434.85166
 31
0.0
  0
LINE
  5
11E
  8
2
 10
2576.669401
 20
2649.85166
 30
0.0
 11
2321.669401
 21
2649.85166
 31
0.0
  0
LINE
  5
11F
  8
2
 10
2326.669401
 20
2434.85166
 30
0.0
 11
2326.669401
 21
2649.85166
 31
0.0
  0
LINE
  5
120
  8
2
 10
2321.459954
 20
2464.395893
 30
0.0
 11
2326.669401
 21
2434.85166
 31
0.0
  0
LINE
  5
121
  8
2
 10
2331.878845
 20
2464.395893
 30
0.0
 11
2326.669401
 21
2434.85166
 31
0.0
  0
LINE
  5
122
  8
2
 10
2331.878846
 20
2620.307428
 30
0.0
 11
2326.669401
 21
2649.85166
 31
0.0
  0
LINE
  5
123
  8
2
 10
2321.459956
 20
2620.307428
 30
0.0
 11
2326.669401
 21
2649.85166
 31
0.0
  0
TEXT
  5
124
  8
2
 10
2324.669434
 20
2499.151611
 30
0.0
 40
48.0
  1
215
 50
90.000003
 41
0.9
  7
MONOTXT
  0
ENDBLK
  5
125
  8
0
  0
BLOCK
  5
127
  8
2
  2
*D20
 70
    65
 10
0.0
 20
0.0
 30
0.0
  3
*D20
  1

  0
POINT
  5
128
  8
DEFPOINTS
 10
2577.169401
 20
2467.35196
 30
0.0
  0
POINT
  5
129
  8
DEFPOINTS
 10
2577.169401
 20
2617.35146
 30
0.0
  0
POINT
  5
12A
  8
DEFPOINTS
 10
2396.669401
 20
2519.044369
 30
0.0
  0
LINE
  5
12B
  8
2
 10
2574.169401
 20
2467.35196
 30
0.0
 11
2391.669401
 21
2467.35196
 31
0.0
  0
LINE
  5
12C
  8
2
 10
2574.169401
 20
2617.35146
 30
0.0
 11
2391.669401
 21
2617.35146
 31
0.0
  0
LINE
  5
12D
  8
2
 10
2396.669401
 20
2423.035611
 30
0.0
 11
2396.669401
 21
2661.667809
 31
0.0
  0
LINE
  5
12E
  8
2
 10
2401.878846
 20
2437.807728
 30
0.0
 11
2396.669401
 21
2467.35196
 31
0.0
  0
LINE
  5
12F
  8
2
 10
2391.459956
 20
2437.807728
 30
0.0
 11
2396.669401
 21
2467.35196
 31
0.0
  0
LINE
  5
130
  8
2
 10
2391.45996
 20
2646.895694
 30
0.0
 11
2396.669401
 21
2617.35146
 31
0.0
  0
LINE
  5
131
  8
2
 10
2401.87885
 20
2646.895692
 30
0.0
 11
2396.669401
 21
2617.35146
 31
0.0
  0
TEXT
  5
132
  8
2
 10
2394.669434
 20
2499.151611
 30
0.0
 40
48.0
  1
150
 50
90.000003
 41
0.9
  7
MONOTXT
  0
ENDBLK
  5
133
  8
0
  0
BLOCK
  5
135
  8
2
  2
*D21
 70
    65
 10
0.0
 20
0.0
 30
0.0
  3
*D21
  1

  0
POINT
  5
136
  8
DEFPOINTS
 10
2529.669401
 20
2542.35166
 30
0.0
  0
POINT
  5
137
  8
DEFPOINTS
 10
2547.169001
 20
2677.35096
 30
0.0
  0
POINT
  5
138
  8
DEFPOINTS
 10
2466.669401
 20
2583.477863
 30
0.0
  0
LINE
  5
139
  8
2
 10
2526.669401
 20
2542.35166
 30
0.0
 11
2461.669401
 21
2542.35166
 31
0.0
  0
LINE
  5
13A
  8
2
 10
2544.169001
 20
2677.35096
 30
0.0
 11
2461.669401
 21
2677.35096
 31
0.0
  0
LINE
  5
13B
  8
2
 10
2466.669401
 20
2498.035311
 30
0.0
 11
2466.669401
 21
2721.667309
 31
0.0
  0
LINE
  5
13C
  8
2
 10
2471.878846
 20
2512.807428
 30
0.0
 11
2466.669401
 21
2542.35166
 31
0.0
  0
LINE
  5
13D
  8
2
 10
2461.459956
 20
2512.807428
 30
0.0
 11
2466.669401
 21
2542.35166
 31
0.0
  0
LINE
  5
13E
  8
2
 10
2461.45996
 20
2706.895194
 30
0.0
 11
2466.669401
 21
2677.35096
 31
0.0
  0
LINE
  5
13F
  8
2
 10
2471.87885
 20
2706.895192
 30
0.0
 11
2466.669401
 21
2677.35096
 31
0.0
  0
TEXT
  5
140
  8
2
 10
2464.669434
 20
2566.651367
 30
0.0
 40
48.0
  1
135
 50
90.000003
 41
0.9
  7
MONOTXT
  0
ENDBLK
  5
141
  8
0
  0
BLOCK
  5
143
  8
2
  2
*D22
 70
    65
 10
0.0
 20
0.0
 30
0.0
  3
*D22
  1

  0
POINT
  5
144
  8
DEFPOINTS
 10
2547.169201
 20
2137.35116
 30
0.0
  0
POINT
  5
145
  8
DEFPOINTS
 10
2547.169201
 20
2377.35146
 30
0.0
  0
POINT
  5
146
  8
DEFPOINTS
 10
2186.669401
 20
2261.310394
 30
0.0
  0
LINE
  5
147
  8
2
 10
2544.169201
 20
2137.35116
 30
0.0
 11
2181.669401
 21
2137.35116
 31
0.0
  0
LINE
  5
148
  8
2
 10
2544.169201
 20
2377.35146
 30
0.0
 11
2181.669401
 21
2377.35146
 31
0.0
  0
LINE
  5
149
  8
2
 10
2186.669401
 20
2137.35116
 30
0.0
 11
2186.669401
 21
2377.35146
 31
0.0
  0
LINE
  5
14A
  8
2
 10
2181.459954
 20
2166.895393
 30
0.0
 11
2186.669401
 21
2137.35116
 31
0.0
  0
LINE
  5
14B
  8
2
 10
2191.878845
 20
2166.895393
 30
0.0
 11
2186.669401
 21
2137.35116
 31
0.0
  0
LINE
  5
14C
  8
2
 10
2191.878846
 20
2347.807228
 30
0.0
 11
2186.669401
 21
2377.35146
 31
0.0
  0
LINE
  5
14D
  8
2
 10
2181.459956
 20
2347.807228
 30
0.0
 11
2186.669401
 21
2377.35146
 31
0.0
  0
TEXT
  5
14E
  8
2
 10
2184.669434
 20
2160.351318
 30
0.0
 40
40.0
  1
１１５～２５５
 50
90.000003
 41
0.9
  7
MONOTXT
  0
ENDBLK
  5
14F
  8
0
  0
BLOCK
  5
151
  8
2
  2
*D23
 70
    65
 10
0.0
 20
0.0
 30
0.0
  3
*D23
  1

  0
POINT
  5
152
  8
DEFPOINTS
 10
3186.420401
 20
2477.35096
 30
0.0
  0
POINT
  5
153
  8
DEFPOINTS
 10
3097.169201
 20
2677.35096
 30
0.0
  0
POINT
  5
154
  8
DEFPOINTS
 10
3397.266801
 20
2561.816699
 30
0.0
  0
LINE
  5
155
  8
2
 10
3189.420401
 20
2477.35096
 30
0.0
 11
3402.266801
 21
2477.35096
 31
0.0
  0
LINE
  5
156
  8
2
 10
3100.169201
 20
2677.35096
 30
0.0
 11
3402.266801
 21
2677.35096
 31
0.0
  0
LINE
  5
157
  8
2
 10
3397.266801
 20
2477.35096
 30
0.0
 11
3397.266801
 21
2677.35096
 31
0.0
  0
LINE
  5
158
  8
2
 10
3392.057354
 20
2506.895193
 30
0.0
 11
3397.266801
 21
2477.35096
 31
0.0
  0
LINE
  5
159
  8
2
 10
3402.476245
 20
2506.895193
 30
0.0
 11
3397.266801
 21
2477.35096
 31
0.0
  0
LINE
  5
15A
  8
2
 10
3402.476246
 20
2647.806728
 30
0.0
 11
3397.266801
 21
2677.35096
 31
0.0
  0
LINE
  5
15B
  8
2
 10
3392.057356
 20
2647.806728
 30
0.0
 11
3397.266801
 21
2677.35096
 31
0.0
  0
TEXT
  5
15C
  8
2
 10
3395.266846
 20
2534.150879
 30
0.0
 40
48.0
  1
200
 50
90.000003
 41
0.9
  7
MONOTXT
  0
ENDBLK
  5
15D
  8
0
  0
BLOCK
  5
15F
  8
2
  2
*D24
 70
    65
 10
0.0
 20
0.0
 30
0.0
  3
*D24
  1

  0
POINT
  5
160
  8
DEFPOINTS
 10
3187.169201
 20
2527.35096
 30
0.0
  0
POINT
  5
161
  8
DEFPOINTS
 10
3097.169201
 20
2677.35096
 30
0.0
  0
POINT
  5
162
  8
DEFPOINTS
 10
3319.335901
 20
2613.390667
 30
0.0
  0
LINE
  5
163
  8
2
 10
3190.169201
 20
2527.35096
 30
0.0
 11
3324.335901
 21
2527.35096
 31
0.0
  0
LINE
  5
164
  8
2
 10
3100.169201
 20
2677.35096
 30
0.0
 11
3324.335901
 21
2677.35096
 31
0.0
  0
LINE
  5
165
  8
2
 10
3319.335901
 20
2527.35096
 30
0.0
 11
3319.335901
 21
2677.35096
 31
0.0
  0
LINE
  5
166
  8
2
 10
3314.126454
 20
2556.895193
 30
0.0
 11
3319.335901
 21
2527.35096
 31
0.0
  0
LINE
  5
167
  8
2
 10
3324.545345
 20
2556.895193
 30
0.0
 11
3319.335901
 21
2527.35096
 31
0.0
  0
LINE
  5
168
  8
2
 10
3324.545346
 20
2647.806728
 30
0.0
 11
3319.335901
 21
2677.35096
 31
0.0
  0
LINE
  5
169
  8
2
 10
3314.126456
 20
2647.806728
 30
0.0
 11
3319.335901
 21
2677.35096
 31
0.0
  0
TEXT
  5
16A
  8
2
 10
3317.335937
 20
2559.150879
 30
0.0
 40
48.0
  1
150
 50
90.000003
 41
0.9
  7
MONOTXT
  0
ENDBLK
  5
16B
  8
0
  0
BLOCK
  5
16D
  8
2
  2
*D25
 70
    65
 10
0.0
 20
0.0
 30
0.0
  3
*D25
  1

  0
POINT
  5
16E
  8
DEFPOINTS
 10
3147.169201
 20
2610.35096
 30
0.0
  0
POINT
  5
16F
  8
DEFPOINTS
 10
3097.169201
 20
2677.35096
 30
0.0
  0
POINT
  5
170
  8
DEFPOINTS
 10
3231.669401
 20
2634.218615
 30
0.0
  0
LINE
  5
171
  8
2
 10
3150.169201
 20
2610.35096
 30
0.0
 11
3236.669401
 21
2610.35096
 31
0.0
  0
LINE
  5
172
  8
2
 10
3100.169201
 20
2677.35096
 30
0.0
 11
3236.669401
 21
2677.35096
 31
0.0
  0
LINE
  5
173
  8
2
 10
3231.669401
 20
2610.35096
 30
0.0
 11
3231.669401
 21
2677.35096
 31
0.0
  0
LINE
  5
174
  8
2
 10
3226.459954
 20
2639.895193
 30
0.0
 11
3231.669401
 21
2610.35096
 31
0.0
  0
LINE
  5
175
  8
2
 10
3236.878845
 20
2639.895193
 30
0.0
 11
3231.669401
 21
2610.35096
 31
0.0
  0
LINE
  5
176
  8
2
 10
3236.878846
 20
2647.806728
 30
0.0
 11
3231.669401
 21
2677.35096
 31
0.0
  0
LINE
  5
177
  8
2
 10
3226.459956
 20
2647.806728
 30
0.0
 11
3231.669401
 21
2677.35096
 31
0.0
  0
TEXT
  5
178
  8
2
 10
3229.669434
 20
2615.051025
 30
0.0
 40
48.0
  1
67
 50
90.000003
 41
0.9
  7
MONOTXT
  0
ENDBLK
  5
179
  8
0
  0
BLOCK
  5
17B
  8
2
  2
*D26
 70
    65
 10
0.0
 20
0.0
 30
0.0
  3
*D26
  1

  0
POINT
  5
17C
  8
DEFPOINTS
 10
2589.669401
 20
2674.85166
 30
0.0
  0
POINT
  5
17D
  8
DEFPOINTS
 10
2924.669501
 20
2674.85146
 30
0.0
  0
POINT
  5
17E
  8
DEFPOINTS
 10
2761.887999
 20
2938.60046
 30
0.0
  0
LINE
  5
17F
  8
2
 10
2589.669401
 20
2677.85166
 30
0.0
 11
2589.669401
 21
2943.60046
 31
0.0
  0
LINE
  5
180
  8
2
 10
2924.669501
 20
2677.85146
 30
0.0
 11
2924.669501
 21
2943.60046
 31
0.0
  0
LINE
  5
181
  8
2
 10
2589.669401
 20
2938.60046
 30
0.0
 11
2924.669501
 21
2938.60046
 31
0.0
  0
LINE
  5
182
  8
2
 10
2619.213633
 20
2943.809906
 30
0.0
 11
2589.669401
 21
2938.60046
 31
0.0
  0
LINE
  5
183
  8
2
 10
2619.213633
 20
2933.391015
 30
0.0
 11
2589.669401
 21
2938.60046
 31
0.0
  0
LINE
  5
184
  8
2
 10
2895.125269
 20
2933.391013
 30
0.0
 11
2924.669501
 21
2938.60046
 31
0.0
  0
LINE
  5
185
  8
2
 10
2895.125268
 20
2943.809903
 30
0.0
 11
2924.669501
 21
2938.60046
 31
0.0
  0
TEXT
  5
186
  8
2
 10
2713.969482
 20
2940.600342
 30
0.0
 40
48.0
  1
335
 41
0.9
  7
MONOTXT
  0
ENDBLK
  5
187
  8
0
  0
BLOCK
  5
189
  8
2
  2
*D27
 70
    65
 10
0.0
 20
0.0
 30
0.0
  3
*D27
  1

  0
POINT
  5
18A
  8
DEFPOINTS
 10
2547.169001
 20
2677.35096
 30
0.0
  0
POINT
  5
18B
  8
DEFPOINTS
 10
3097.169201
 20
2677.35096
 30
0.0
  0
POINT
  5
18C
  8
DEFPOINTS
 10
2718.775052
 20
3008.60046
 30
0.0
  0
LINE
  5
18D
  8
2
 10
2547.169001
 20
2680.35096
 30
0.0
 11
2547.169001
 21
3013.60046
 31
0.0
  0
LINE
  5
18E
  8
2
 10
3097.169201
 20
2680.35096
 30
0.0
 11
3097.169201
 21
3013.60046
 31
0.0
  0
LINE
  5
18F
  8
2
 10
2547.169001
 20
3008.60046
 30
0.0
 11
3097.169201
 21
3008.60046
 31
0.0
  0
LINE
  5
190
  8
2
 10
2576.713233
 20
3013.809906
 30
0.0
 11
2547.169001
 21
3008.60046
 31
0.0
  0
LINE
  5
191
  8
2
 10
2576.713233
 20
3003.391015
 30
0.0
 11
2547.169001
 21
3008.60046
 31
0.0
  0
LINE
  5
192
  8
2
 10
3067.624969
 20
3003.391013
 30
0.0
 11
3097.169201
 21
3008.60046
 31
0.0
  0
LINE
  5
193
  8
2
 10
3067.624968
 20
3013.809903
 30
0.0
 11
3097.169201
 21
3008.60046
 31
0.0
  0
TEXT
  5
194
  8
2
 10
2778.968994
 20
3010.600342
 30
0.0
 40
48.0
  1
550
 41
0.9
  7
MONOTXT
  0
ENDBLK
  5
195
  8
0
  0
BLOCK
  5
197
  8
2
  2
*D28
 70
    65
 10
0.0
 20
0.0
 30
0.0
  3
*D28
  1

  0
POINT
  5
198
  8
DEFPOINTS
 10
3097.169201
 20
2677.35096
 30
0.0
  0
POINT
  5
199
  8
DEFPOINTS
 10
3157.169201
 20
2534.35096
 30
0.0
  0
POINT
  5
19A
  8
DEFPOINTS
 10
3168.521479
 20
3008.60046
 30
0.0
  0
LINE
  5
19B
  8
2
 10
3097.169201
 20
2680.35096
 30
0.0
 11
3097.169201
 21
3013.60046
 31
0.0
  0
LINE
  5
19C
  8
2
 10
3157.169201
 20
2537.35096
 30
0.0
 11
3157.169201
 21
3013.60046
 31
0.0
  0
LINE
  5
19D
  8
2
 10
3052.852852
 20
3008.60046
 30
0.0
 11
3249.148342
 21
3008.60046
 31
0.0
  0
LINE
  5
19E
  8
2
 10
3067.624969
 20
3003.391013
 30
0.0
 11
3097.169201
 21
3008.60046
 31
0.0
  0
LINE
  5
19F
  8
2
 10
3067.624968
 20
3013.809903
 30
0.0
 11
3097.169201
 21
3008.60046
 31
0.0
  0
LINE
  5
1A0
  8
2
 10
3186.713432
 20
3013.809911
 30
0.0
 11
3157.169201
 21
3008.60046
 31
0.0
  0
LINE
  5
1A1
  8
2
 10
3186.713434
 20
3003.39102
 30
0.0
 11
3157.169201
 21
3008.60046
 31
0.0
  0
TEXT
  5
1A2
  8
2
 10
3162.748291
 20
3010.600342
 30
0.0
 40
48.0
  1
60
 41
0.9
  7
MONOTXT
  0
ENDBLK
  5
1A3
  8
0
  0
BLOCK
  5
1A5
  8
2
  2
*D29
 70
    65
 10
0.0
 20
0.0
 30
0.0
  3
*D29
  1

  0
POINT
  5
1A6
  8
DEFPOINTS
 10
3097.169201
 20
2677.35096
 30
0.0
  0
POINT
  5
1A7
  8
DEFPOINTS
 10
3147.169201
 20
2625.35096
 30
0.0
  0
POINT
  5
1A8
  8
DEFPOINTS
 10
3127.368211
 20
2938.60046
 30
0.0
  0
LINE
  5
1A9
  8
2
 10
3097.169201
 20
2680.35096
 30
0.0
 11
3097.169201
 21
2943.60046
 31
0.0
  0
LINE
  5
1AA
  8
2
 10
3147.169201
 20
2628.35096
 30
0.0
 11
3147.169201
 21
2943.60046
 31
0.0
  0
LINE
  5
1AB
  8
2
 10
3052.852852
 20
2938.60046
 30
0.0
 11
3248.000088
 21
2938.60046
 31
0.0
  0
LINE
  5
1AC
  8
2
 10
3067.624969
 20
2933.391013
 30
0.0
 11
3097.169201
 21
2938.60046
 31
0.0
  0
LINE
  5
1AD
  8
2
 10
3067.624968
 20
2943.809903
 30
0.0
 11
3097.169201
 21
2938.60046
 31
0.0
  0
LINE
  5
1AE
  8
2
 10
3176.713432
 20
2943.809911
 30
0.0
 11
3147.169201
 21
2938.60046
 31
0.0
  0
LINE
  5
1AF
  8
2
 10
3176.713434
 20
2933.39102
 30
0.0
 11
3147.169201
 21
2938.60046
 31
0.0
  0
TEXT
  5
1B0
  8
2
 10
3161.600098
 20
2940.600342
 30
0.0
 40
48.0
  1
50
 41
0.9
  7
MONOTXT
  0
ENDBLK
  5
1B1
  8
0
  0
BLOCK
  5
1B3
  8
2
  2
*D30
 70
    65
 10
0.0
 20
0.0
 30
0.0
  3
*D30
  1

  0
POINT
  5
1B4
  8
DEFPOINTS
 10
2602.169401
 20
2649.85196
 30
0.0
  0
POINT
  5
1B5
  8
DEFPOINTS
 10
2912.169401
 20
2649.85166
 30
0.0
  0
POINT
  5
1B6
  8
DEFPOINTS
 10
2732.641004
 20
2868.60046
 30
0.0
  0
LINE
  5
1B7
  8
2
 10
2602.169401
 20
2652.85196
 30
0.0
 11
2602.169401
 21
2873.60046
 31
0.0
  0
LINE
  5
1B8
  8
2
 10
2912.169401
 20
2652.85166
 30
0.0
 11
2912.169401
 21
2873.60046
 31
0.0
  0
LINE
  5
1B9
  8
2
 10
2602.169401
 20
2868.60046
 30
0.0
 11
2912.169401
 21
2868.60046
 31
0.0
  0
LINE
  5
1BA
  8
2
 10
2631.713633
 20
2873.809906
 30
0.0
 11
2602.169401
 21
2868.60046
 31
0.0
  0
LINE
  5
1BB
  8
2
 10
2631.713633
 20
2863.391015
 30
0.0
 11
2602.169401
 21
2868.60046
 31
0.0
  0
LINE
  5
1BC
  8
2
 10
2882.625169
 20
2863.391013
 30
0.0
 11
2912.169401
 21
2868.60046
 31
0.0
  0
LINE
  5
1BD
  8
2
 10
2882.625168
 20
2873.809903
 30
0.0
 11
2912.169401
 21
2868.60046
 31
0.0
  0
TEXT
  5
1BE
  8
2
 10
2713.969482
 20
2870.600342
 30
0.0
 40
48.0
  1
310
 41
0.9
  7
MONOTXT
  0
ENDBLK
  5
1BF
  8
0
  0
BLOCK
  5
1C1
  8
2
  2
*D31
 70
    65
 10
0.0
 20
0.0
 30
0.0
  3
*D31
  1

  0
POINT
  5
1C2
  8
DEFPOINTS
 10
2607.169201
 20
2671.432462
 30
0.0
  0
POINT
  5
1C3
  8
DEFPOINTS
 10
2907.169501
 20
2670.850068
 30
0.0
  0
POINT
  5
1C4
  8
DEFPOINTS
 10
2758.94848
 20
2808.60046
 30
0.0
  0
LINE
  5
1C5
  8
2
 10
2607.169201
 20
2674.432462
 30
0.0
 11
2607.169201
 21
2813.60046
 31
0.0
  0
LINE
  5
1C6
  8
2
 10
2907.169501
 20
2673.850068
 30
0.0
 11
2907.169501
 21
2813.60046
 31
0.0
  0
LINE
  5
1C7
  8
2
 10
2562.852852
 20
2808.60046
 30
0.0
 11
2951.48585
 21
2808.60046
 31
0.0
  0
LINE
  5
1C8
  8
2
 10
2577.624969
 20
2803.391013
 30
0.0
 11
2607.169201
 21
2808.60046
 31
0.0
  0
LINE
  5
1C9
  8
2
 10
2577.624968
 20
2813.809903
 30
0.0
 11
2607.169201
 21
2808.60046
 31
0.0
  0
LINE
  5
1CA
  8
2
 10
2936.713732
 20
2813.809911
 30
0.0
 11
2907.169501
 21
2808.60046
 31
0.0
  0
LINE
  5
1CB
  8
2
 10
2936.713734
 20
2803.39102
 30
0.0
 11
2907.169501
 21
2808.60046
 31
0.0
  0
TEXT
  5
1CC
  8
2
 10
2620.450684
 20
2810.600342
 30
0.0
 40
43.75
  1
２×１５０＝３００
 41
0.9
  7
MONOTXT
  0
ENDBLK
  5
1CD
  8
0
  0
BLOCK
  5
1CF
  8
2
  2
*D32
 70
    65
 10
0.0
 20
0.0
 30
0.0
  3
*D32
  1

  0
POINT
  5
1D0
  8
DEFPOINTS
 10
2502.168901
 20
3690.463692
 30
0.0
  0
POINT
  5
1D1
  8
DEFPOINTS
 10
2502.169901
 20
4320.463692
 30
0.0
  0
POINT
  5
1D2
  8
DEFPOINTS
 10
2356.669401
 20
4194.613076
 30
0.0
  0
LINE
  5
1D3
  8
2
 10
2499.168901
 20
3690.463692
 30
0.0
 11
2351.669401
 21
3690.463692
 31
0.0
  0
LINE
  5
1D4
  8
2
 10
2499.169901
 20
4320.463692
 30
0.0
 11
2351.669401
 21
4320.463692
 31
0.0
  0
LINE
  5
1D5
  8
2
 10
2356.669401
 20
3690.463692
 30
0.0
 11
2356.669401
 21
4320.463692
 31
0.0
  0
LINE
  5
1D6
  8
2
 10
2351.459954
 20
3720.007925
 30
0.0
 11
2356.669401
 21
3690.463692
 31
0.0
  0
LINE
  5
1D7
  8
2
 10
2361.878845
 20
3720.007925
 30
0.0
 11
2356.669401
 21
3690.463692
 31
0.0
  0
LINE
  5
1D8
  8
2
 10
2361.878846
 20
4290.91946
 30
0.0
 11
2356.669401
 21
4320.463692
 31
0.0
  0
LINE
  5
1D9
  8
2
 10
2351.459956
 20
4290.91946
 30
0.0
 11
2356.669401
 21
4320.463692
 31
0.0
  0
TEXT
  5
1DA
  8
2
 10
2354.669434
 20
4058.46875
 30
0.0
 40
48.0
  1
630
 50
90.000003
 41
0.9
  7
MONOTXT
  0
ENDBLK
  5
1DB
  8
0
  0
BLOCK
  5
1DD
  8
2
  2
*D33
 70
    65
 10
0.0
 20
0.0
 30
0.0
  3
*D33
  1

  0
POINT
  5
1DE
  8
DEFPOINTS
 10
2522.174601
 20
4340.463692
 30
0.0
  0
POINT
  5
1DF
  8
DEFPOINTS
 10
3122.176501
 20
4340.463692
 30
0.0
  0
POINT
  5
1E0
  8
DEFPOINTS
 10
2819.473147
 20
4444.214192
 30
0.0
  0
LINE
  5
1E1
  8
2
 10
2522.174601
 20
4343.463692
 30
0.0
 11
2522.174601
 21
4449.214192
 31
0.0
  0
LINE
  5
1E2
  8
2
 10
3122.176501
 20
4343.463692
 30
0.0
 11
3122.176501
 21
4449.214192
 31
0.0
  0
LINE
  5
1E3
  8
2
 10
2522.174601
 20
4444.214192
 30
0.0
 11
3122.176501
 21
4444.214192
 31
0.0
  0
LINE
  5
1E4
  8
2
 10
2551.718833
 20
4449.423638
 30
0.0
 11
2522.174601
 21
4444.214192
 31
0.0
  0
LINE
  5
1E5
  8
2
 10
2551.718833
 20
4439.004747
 30
0.0
 11
2522.174601
 21
4444.214192
 31
0.0
  0
LINE
  5
1E6
  8
2
 10
3092.632269
 20
4439.004745
 30
0.0
 11
3122.176501
 21
4444.214192
 31
0.0
  0
LINE
  5
1E7
  8
2
 10
3092.632268
 20
4449.423635
 30
0.0
 11
3122.176501
 21
4444.214192
 31
0.0
  0
TEXT
  5
1E8
  8
2
 10
2692.786377
 20
4446.214355
 30
0.0
 40
48.0
  1
600
 41
0.9
  7
MONOTXT
  0
ENDBLK
  5
1E9
  8
0
  0
BLOCK
  5
1EB
  8
2
  2
*D34
 70
    65
 10
0.0
 20
0.0
 30
0.0
  3
*D34
  1

  0
POINT
  5
1EC
  8
DEFPOINTS
 10
2547.169001
 20
3545.463792
 30
0.0
  0
POINT
  5
1ED
  8
DEFPOINTS
 10
2502.168901
 20
3690.463692
 30
0.0
  0
POINT
  5
1EE
  8
DEFPOINTS
 10
2356.669401
 20
3759.972743
 30
0.0
  0
LINE
  5
1EF
  8
2
 10
2544.169001
 20
3545.463792
 30
0.0
 11
2351.669401
 21
3545.463792
 31
0.0
  0
LINE
  5
1F0
  8
2
 10
2499.168901
 20
3690.463692
 30
0.0
 11
2351.669401
 21
3690.463692
 31
0.0
  0
LINE
  5
1F1
  8
2
 10
2356.669401
 20
3545.463792
 30
0.0
 11
2356.669401
 21
3690.463692
 31
0.0
  0
LINE
  5
1F2
  8
2
 10
2351.459954
 20
3575.008025
 30
0.0
 11
2356.669401
 21
3545.463792
 31
0.0
  0
LINE
  5
1F3
  8
2
 10
2361.878845
 20
3575.008025
 30
0.0
 11
2356.669401
 21
3545.463792
 31
0.0
  0
LINE
  5
1F4
  8
2
 10
2361.878846
 20
3660.91946
 30
0.0
 11
2356.669401
 21
3690.463692
 31
0.0
  0
LINE
  5
1F5
  8
2
 10
2351.459956
 20
3660.91946
 30
0.0
 11
2356.669401
 21
3690.463692
 31
0.0
  0
TEXT
  5
1F6
  8
2
 10
2354.669434
 20
3574.763672
 30
0.0
 40
48.0
  1
145
 50
90.000003
 41
0.9
  7
MONOTXT
  0
ENDBLK
  5
1F7
  8
0
  0
BLOCK
  5
1F9
  8
2
  2
*D35
 70
    65
 10
0.0
 20
0.0
 30
0.0
  3
*D35
  1

  0
POINT
  5
1FA
  8
DEFPOINTS
 10
4481.169201
 20
3696.06675
 30
0.0
  0
POINT
  5
1FB
  8
DEFPOINTS
 10
5131.169201
 20
3696.06675
 30
0.0
  0
POINT
  5
1FC
  8
DEFPOINTS
 10
4776.353971
 20
3475.09115
 30
0.0
  0
LINE
  5
1FD
  8
2
 10
4481.169201
 20
3693.06675
 30
0.0
 11
4481.169201
 21
3470.09115
 31
0.0
  0
LINE
  5
1FE
  8
2
 10
5131.169201
 20
3693.06675
 30
0.0
 11
5131.169201
 21
3470.09115
 31
0.0
  0
LINE
  5
1FF
  8
2
 10
4481.169201
 20
3475.09115
 30
0.0
 11
5131.169201
 21
3475.09115
 31
0.0
  0
LINE
  5
200
  8
2
 10
4510.713433
 20
3480.300595
 30
0.0
 11
4481.169201
 21
3475.09115
 31
0.0
  0
LINE
  5
201
  8
2
 10
4510.713433
 20
3469.881704
 30
0.0
 11
4481.169201
 21
3475.09115
 31
0.0
  0
LINE
  5
202
  8
2
 10
5101.624969
 20
3469.881702
 30
0.0
 11
5131.169201
 21
3475.09115
 31
0.0
  0
LINE
  5
203
  8
2
 10
5101.624968
 20
3480.300592
 30
0.0
 11
5131.169201
 21
3475.09115
 31
0.0
  0
TEXT
  5
204
  8
2
 10
4762.969238
 20
3477.091064
 30
0.0
 40
48.0
  1
650
 41
0.9
  7
MONOTXT
  0
ENDBLK
  5
205
  8
0
  0
BLOCK
  5
207
  8
2
  2
*D36
 70
    65
 10
0.0
 20
0.0
 30
0.0
  3
*D36
  1

  0
POINT
  5
208
  8
DEFPOINTS
 10
4501.167501
 20
3692.06675
 30
0.0
  0
POINT
  5
209
  8
DEFPOINTS
 10
5111.169401
 20
3692.06675
 30
0.0
  0
POINT
  5
20A
  8
DEFPOINTS
 10
4806.465096
 20
3565.09115
 30
0.0
  0
LINE
  5
20B
  8
2
 10
4501.167501
 20
3689.06675
 30
0.0
 11
4501.167501
 21
3560.09115
 31
0.0
  0
LINE
  5
20C
  8
2
 10
5111.169401
 20
3689.06675
 30
0.0
 11
5111.169401
 21
3560.09115
 31
0.0
  0
LINE
  5
20D
  8
2
 10
4501.167501
 20
3565.09115
 30
0.0
 11
5111.169401
 21
3565.09115
 31
0.0
  0
LINE
  5
20E
  8
2
 10
4530.711733
 20
3570.300595
 30
0.0
 11
4501.167501
 21
3565.09115
 31
0.0
  0
LINE
  5
20F
  8
2
 10
4530.711733
 20
3559.881704
 30
0.0
 11
4501.167501
 21
3565.09115
 31
0.0
  0
LINE
  5
210
  8
2
 10
5081.625169
 20
3559.881702
 30
0.0
 11
5111.169401
 21
3565.09115
 31
0.0
  0
LINE
  5
211
  8
2
 10
5081.625168
 20
3570.300592
 30
0.0
 11
5111.169401
 21
3565.09115
 31
0.0
  0
TEXT
  5
212
  8
2
 10
4685.450195
 20
3567.091064
 30
0.0
 40
48.0
  1
610
 41
0.9
  7
MONOTXT
  0
ENDBLK
  5
213
  8
0
  0
BLOCK
  5
215
  8
2
  2
*D37
 70
    65
 10
0.0
 20
0.0
 30
0.0
  3
*D37
  1

  0
POINT
  5
216
  8
DEFPOINTS
 10
5107.169001
 20
3672.06675
 30
0.0
  0
POINT
  5
217
  8
DEFPOINTS
 10
5107.169201
 20
4172.06675
 30
0.0
  0
POINT
  5
218
  8
DEFPOINTS
 10
5330.669401
 20
3968.835015
 30
0.0
  0
LINE
  5
219
  8
2
 10
5110.169001
 20
3672.06675
 30
0.0
 11
5335.669401
 21
3672.06675
 31
0.0
  0
LINE
  5
21A
  8
2
 10
5110.169201
 20
4172.06675
 30
0.0
 11
5335.669401
 21
4172.06675
 31
0.0
  0
LINE
  5
21B
  8
2
 10
5330.669401
 20
3672.06675
 30
0.0
 11
5330.669401
 21
4172.06675
 31
0.0
  0
LINE
  5
21C
  8
2
 10
5325.459954
 20
3701.610982
 30
0.0
 11
5330.669401
 21
3672.06675
 31
0.0
  0
LINE
  5
21D
  8
2
 10
5335.878845
 20
3701.610983
 30
0.0
 11
5330.669401
 21
3672.06675
 31
0.0
  0
LINE
  5
21E
  8
2
 10
5335.878846
 20
4142.522517
 30
0.0
 11
5330.669401
 21
4172.06675
 31
0.0
  0
LINE
  5
21F
  8
2
 10
5325.459956
 20
4142.522517
 30
0.0
 11
5330.669401
 21
4172.06675
 31
0.0
  0
TEXT
  5
220
  8
2
 10
5328.669434
 20
3878.866699
 30
0.0
 40
48.0
  1
500
 50
90.000003
 41
0.9
  7
MONOTXT
  0
ENDBLK
  5
221
  8
0
  0
BLOCK
  5
223
  8
2
  2
*D38
 70
    65
 10
0.0
 20
0.0
 30
0.0
  3
*D38
  1

  0
POINT
  5
224
  8
DEFPOINTS
 10
5111.169401
 20
3692.06695
 30
0.0
  0
POINT
  5
225
  8
DEFPOINTS
 10
5111.169301
 20
4152.06675
 30
0.0
  0
POINT
  5
226
  8
DEFPOINTS
 10
5230.669401
 20
4057.937336
 30
0.0
  0
LINE
  5
227
  8
2
 10
5114.169401
 20
3692.06695
 30
0.0
 11
5235.669401
 21
3692.06695
 31
0.0
  0
LINE
  5
228
  8
2
 10
5114.169301
 20
4152.06675
 30
0.0
 11
5235.669401
 21
4152.06675
 31
0.0
  0
LINE
  5
229
  8
2
 10
5230.669401
 20
3692.06695
 30
0.0
 11
5230.669401
 21
4152.06675
 31
0.0
  0
LINE
  5
22A
  8
2
 10
5225.459954
 20
3721.611182
 30
0.0
 11
5230.669401
 21
3692.06695
 31
0.0
  0
LINE
  5
22B
  8
2
 10
5235.878845
 20
3721.611183
 30
0.0
 11
5230.669401
 21
3692.06695
 31
0.0
  0
LINE
  5
22C
  8
2
 10
5235.878846
 20
4122.522517
 30
0.0
 11
5230.669401
 21
4152.06675
 31
0.0
  0
LINE
  5
22D
  8
2
 10
5225.459956
 20
4122.522517
 30
0.0
 11
5230.669401
 21
4152.06675
 31
0.0
  0
TEXT
  5
22E
  8
2
 10
5228.669434
 20
3733.663086
 30
0.0
 40
48.0
  1
462
 50
90.000003
 41
0.9
  7
MONOTXT
  0
ENDBLK
  5
22F
  8
0
  0
BLOCK
  5
231
  8
2
  2
*D39
 70
    65
 10
0.0
 20
0.0
 30
0.0
  3
*D39
  1

  0
POINT
  5
232
  8
DEFPOINTS
 10
2627.169001
 20
3524.463792
 30
0.0
  0
POINT
  5
233
  8
DEFPOINTS
 10
2887.169001
 20
3524.463792
 30
0.0
  0
POINT
  5
234
  8
DEFPOINTS
 10
2753.271902
 20
3426.456631
 30
0.0
  0
LINE
  5
235
  8
2
 10
2627.169001
 20
3521.463792
 30
0.0
 11
2627.169001
 21
3421.456631
 31
0.0
  0
LINE
  5
236
  8
2
 10
2887.169001
 20
3521.463792
 30
0.0
 11
2887.169001
 21
3421.456631
 31
0.0
  0
LINE
  5
237
  8
2
 10
2582.852652
 20
3426.456631
 30
0.0
 11
2931.48535
 21
3426.456631
 31
0.0
  0
LINE
  5
238
  8
2
 10
2597.624769
 20
3421.247183
 30
0.0
 11
2627.169001
 21
3426.456631
 31
0.0
  0
LINE
  5
239
  8
2
 10
2597.624768
 20
3431.666074
 30
0.0
 11
2627.169001
 21
3426.456631
 31
0.0
  0
LINE
  5
23A
  8
2
 10
2916.713232
 20
3431.666081
 30
0.0
 11
2887.169001
 21
3426.456631
 31
0.0
  0
LINE
  5
23B
  8
2
 10
2916.713234
 20
3421.247191
 30
0.0
 11
2887.169001
 21
3426.456631
 31
0.0
  0
TEXT
  5
23C
  8
2
 10
2635.762695
 20
3428.456543
 30
0.0
 40
43.75
  1
４×６５＝２６０
 41
0.9
  7
MONOTXT
  0
ENDBLK
  5
23D
  8
0
  0
ENDSEC
  0
SECTION
  2
ENTITIES
  0
DIMENSION
  5
23E
  8
2
 62
     7
  2
*D2
 10
4376.669401
 20
2545.171237
 30
0.0
 11
4352.794428
 21
2542.351562
 31
0.0
  1
２×６５＝１３０
 13
4500.292901
 23
2477.35116
 33
0.0
 14
4500.297801
 24
2607.35216
 34
0.0
 50
90.000003
  0
DIMENSION
  5
23F
  8
2
 62
     7
  2
*D3
 10
4485.244419
 20
2258.60046
 30
0.0
 11
4475.924512
 21
2284.600342
 31
0.0
 13
4521.292901
 23
2377.35096
 33
0.0
 14
4566.292901
 24
2456.35096
 34
0.0
  0
DIMENSION
  5
240
  8
2
 62
     7
  2
*D4
 10
4545.953385
 20
2258.60046
 30
0.0
 11
4648.404004
 21
2284.600342
 31
0.0
 13
4566.292901
 23
2456.35096
 33
0.0
 14
4612.292901
 24
2511.35096
 34
0.0
  0
DIMENSION
  5
241
  8
2
 62
     7
  2
*D5
 10
5516.374501
 20
2599.223538
 30
0.0
 11
5490.37451
 21
2579.850878
 31
0.0
 13
5320.293201
 23
2482.35096
 33
0.0
 14
5321.292901
 24
2677.35096
 34
0.0
 50
90.000003
  0
DIMENSION
  5
242
  8
2
 62
     7
  2
*D6
 10
5238.932301
 20
2500.034122
 30
0.0
 11
5212.932127
 21
2489.850878
 31
0.0
 13
4977.542901
 23
2422.35096
 33
0.0
 14
4977.542901
 24
2557.35096
 34
0.0
 50
90.000003
  0
DIMENSION
  5
243
  8
2
 62
     7
  2
*D7
 10
5238.932301
 20
2595.505744
 30
0.0
 11
5212.932127
 21
2617.350878
 31
0.0
 13
4977.542901
 23
2557.35096
 33
0.0
 14
5321.292901
 24
2677.35096
 34
0.0
 50
90.000003
  0
DIMENSION
  5
244
  8
2
 62
     7
  2
*D8
 10
4561.767925
 20
3068.60046
 30
0.0
 11
4921.292773
 21
3094.600342
 31
0.0
 13
4521.292901
 23
2677.35096
 33
0.0
 14
5321.292901
 24
2677.35096
 34
0.0
  0
DIMENSION
  5
245
  8
2
 62
     7
  2
*D9
 10
4688.15652
 20
3068.60046
 30
0.0
 11
4452.620313
 21
3094.600342
 31
0.0
 13
4496.292901
 23
2654.85066
 33
0.0
 14
4521.292901
 24
2677.35096
 34
0.0
  0
DIMENSION
  5
246
  8
2
 62
     7
  2
*D10
 10
4830.748781
 20
2884.77746
 30
0.0
 11
4741.292773
 21
2910.777344
 31
0.0
 13
4521.292901
 23
2677.35096
 33
0.0
 14
4961.292901
 24
2579.35096
 34
0.0
  0
DIMENSION
  5
247
  8
2
 62
     7
  2
*D11
 10
4757.292162
 20
2810.04646
 30
0.0
 11
4678.793262
 21
2836.046387
 31
0.0
 13
4521.292901
 23
2677.35096
 33
0.0
 14
4836.293201
 24
2637.35116
 34
0.0
  0
DIMENSION
  5
248
  8
2
 62
     7
  2
*D12
 10
2838.816515
 20
2738.60046
 30
0.0
 11
2789.669385
 21
2764.600342
 31
0.0
 13
2757.169401
 23
2698.60046
 33
0.0
 14
2822.169301
 24
2698.60046
 34
0.0
  0
DIMENSION
  5
249
  8
2
 62
     7
  2
*D13
 10
4715.730691
 20
2978.60046
 30
0.0
 11
4665.832324
 21
3004.600342
 31
0.0
  1
595
 13
4521.292901
 23
2677.35096
 33
0.0
 14
5101.295401
 24
2397.35246
 34
0.0
  0
DIMENSION
  5
24A
  8
2
 62
     7
  2
*D14
 10
3161.826626
 20
2238.60046
 30
0.0
 11
3201.768018
 21
2264.600342
 31
0.0
 13
3097.168901
 23
2239.85116
 33
0.0
 14
3154.169301
 24
2392.33406
 34
0.0
  0
DIMENSION
  5
24B
  8
2
 62
     7
  2
*D15
 10
2096.669401
 20
2168.982549
 30
0.0
 11
2070.669432
 21
2167.778026
 31
0.0
 13
2494.169201
 23
2092.35146
 33
0.0
 14
2547.169201
 24
2137.35116
 34
0.0
 50
90.000003
  0
DIMENSION
  5
24C
  8
2
 62
     7
  2
*D16
 10
2096.669401
 20
2045.984847
 30
0.0
 11
2070.669432
 21
2049.433544
 31
0.0
 13
2507.169301
 23
2082.35096
 33
0.0
 14
2497.169201
 24
2092.35146
 34
0.0
 50
90.000003
  0
DIMENSION
  5
24D
  8
2
 62
     7
  2
*D17
 10
2186.669401
 20
2601.887433
 30
0.0
 11
2160.669432
 21
2527.351122
 31
0.0
 13
2547.169201
 23
2377.35146
 33
0.0
 14
2547.169001
 24
2677.35096
 34
0.0
 50
90.000003
  0
DIMENSION
  5
24E
  8
2
 62
     7
  2
*D18
 10
2256.669401
 20
2548.499681
 30
0.0
 11
2230.669432
 21
2542.351854
 31
0.0
 13
2596.669401
 23
2419.85196
 33
0.0
 14
2596.669401
 24
2664.85196
 34
0.0
 50
90.000003
  0
DIMENSION
  5
24F
  8
2
 62
     7
  2
*D19
 10
2326.669401
 20
2530.090111
 30
0.0
 11
2300.669432
 21
2542.35161
 31
0.0
 13
2579.669401
 23
2434.85166
 33
0.0
 14
2579.669401
 24
2649.85166
 34
0.0
 50
90.000003
  0
DIMENSION
  5
250
  8
2
 62
     7
  2
*D20
 10
2396.669401
 20
2519.044369
 30
0.0
 11
2370.669432
 21
2542.35161
 31
0.0
 13
2577.169401
 23
2467.35196
 33
0.0
 14
2577.169401
 24
2617.35146
 34
0.0
 50
90.000003
  0
DIMENSION
  5
251
  8
2
 62
     7
  2
*D21
 10
2466.669401
 20
2583.477863
 30
0.0
 11
2440.669432
 21
2609.851366
 31
0.0
 13
2529.669401
 23
2542.35166
 33
0.0
 14
2547.169001
 24
2677.35096
 34
0.0
 50
90.000003
  0
DIMENSION
  5
252
  8
2
 62
     7
  2
*D22
 10
2186.669401
 20
2261.310394
 30
0.0
 11
2164.669429
 21
2257.351317
 31
0.0
  1
１１５～２５５
 13
2547.169201
 23
2137.35116
 33
0.0
 14
2547.169201
 24
2377.35146
 34
0.0
 50
90.000003
  0
DIMENSION
  5
253
  8
2
 62
     7
  2
*D23
 10
3397.266801
 20
2561.816699
 30
0.0
 11
3371.266844
 21
2577.350878
 31
0.0
 13
3186.420401
 23
2477.35096
 33
0.0
 14
3097.169201
 24
2677.35096
 34
0.0
 50
90.000003
  0
DIMENSION
  5
254
  8
2
 62
     7
  2
*D24
 10
3319.335901
 20
2613.390667
 30
0.0
 11
3293.335936
 21
2602.350878
 31
0.0
 13
3187.169201
 23
2527.35096
 33
0.0
 14
3097.169201
 24
2677.35096
 34
0.0
 50
90.000003
  0
DIMENSION
  5
255
  8
2
 62
     7
  2
*D25
 10
3231.669401
 20
2634.218615
 30
0.0
 11
3205.669432
 21
2643.851024
 31
0.0
 13
3147.169201
 23
2610.35096
 33
0.0
 14
3097.169201
 24
2677.35096
 34
0.0
 50
90.000003
  0
DIMENSION
  5
256
  8
2
 62
     7
  2
*D26
 10
2761.887999
 20
2938.60046
 30
0.0
 11
2757.169482
 21
2964.600342
 31
0.0
 13
2589.669401
 23
2674.85166
 33
0.0
 14
2924.669501
 24
2674.85146
 34
0.0
  0
DIMENSION
  5
257
  8
2
 62
     7
  2
*D27
 10
2718.775052
 20
3008.60046
 30
0.0
 11
2822.168994
 21
3034.600342
 31
0.0
 13
2547.169001
 23
2677.35096
 33
0.0
 14
3097.169201
 24
2677.35096
 34
0.0
  0
DIMENSION
  5
258
  8
2
 62
     7
  2
*D28
 10
3168.521479
 20
3008.60046
 30
0.0
 11
3191.548291
 21
3034.600342
 31
0.0
 13
3097.169201
 23
2677.35096
 33
0.0
 14
3157.169201
 24
2534.35096
 34
0.0
  0
DIMENSION
  5
259
  8
2
 62
     7
  2
*D29
 10
3127.368211
 20
2938.60046
 30
0.0
 11
3190.400098
 21
2964.600342
 31
0.0
 13
3097.169201
 23
2677.35096
 33
0.0
 14
3147.169201
 24
2625.35096
 34
0.0
  0
DIMENSION
  5
25A
  8
2
 62
     7
  2
*D30
 10
2732.641004
 20
2868.60046
 30
0.0
 11
2757.169482
 21
2894.600342
 31
0.0
 13
2602.169401
 23
2649.85196
 33
0.0
 14
2912.169401
 24
2649.85166
 34
0.0
  0
DIMENSION
  5
25B
  8
2
 62
     7
  2
*D31
 10
2758.94848
 20
2808.60046
 30
0.0
 11
2757.169434
 21
2832.475342
 31
0.0
  1
２×１５０＝３００
 13
2607.169201
 23
2671.432462
 33
0.0
 14
2907.169501
 24
2670.850068
 34
0.0
  0
DIMENSION
  5
25C
  8
2
 62
     7
  2
*D32
 10
2356.669401
 20
4194.613076
 30
0.0
 11
2330.669432
 21
4101.668749
 31
0.0
 13
2502.168901
 23
3690.463692
 33
0.0
 14
2502.169901
 24
4320.463692
 34
0.0
 50
90.000003
  0
DIMENSION
  5
25D
  8
2
 62
     7
  2
*D33
 10
2819.473147
 20
4444.214192
 30
0.0
 11
2735.986377
 21
4470.214355
 31
0.0
  1
600
 13
2522.174601
 23
4340.463692
 33
0.0
 14
3122.176501
 24
4340.463692
 34
0.0
  0
DIMENSION
  5
25E
  8
2
 62
     7
  2
*D34
 10
2356.669401
 20
3759.972743
 30
0.0
 11
2330.669432
 21
3617.963671
 31
0.0
 13
2547.169001
 23
3545.463792
 33
0.0
 14
2502.168901
 24
3690.463692
 34
0.0
 50
90.000003
  0
DIMENSION
  5
25F
  8
2
 62
     7
  2
*D35
 10
4776.353971
 20
3475.09115
 30
0.0
 11
4806.169238
 21
3501.091064
 31
0.0
 13
4481.169201
 23
3696.06675
 33
0.0
 14
5131.169201
 24
3696.06675
 34
0.0
  0
DIMENSION
  5
260
  8
2
 62
     7
  2
*D36
 10
4806.465096
 20
3565.09115
 30
0.0
 11
4728.650195
 21
3591.091064
 31
0.0
 13
4501.167501
 23
3692.06675
 33
0.0
 14
5111.169401
 24
3692.06675
 34
0.0
  0
DIMENSION
  5
261
  8
2
 62
     7
  2
*D37
 10
5330.669401
 20
3968.835015
 30
0.0
 11
5304.669432
 21
3922.066698
 31
0.0
 13
5107.169001
 23
3672.06675
 33
0.0
 14
5107.169201
 24
4172.06675
 34
0.0
 50
90.000003
  0
DIMENSION
  5
262
  8
2
 62
     7
  2
*D38
 10
5230.669401
 20
4057.937336
 30
0.0
 11
5204.669432
 21
3776.863085
 31
0.0
  1
462
 13
5111.169401
 23
3692.06695
 33
0.0
 14
5111.169301
 24
4152.06675
 34
0.0
 50
90.000003
  0
DIMENSION
  5
263
  8
2
 62
     7
  2
*D39
 10
2753.271902
 20
3426.456631
 30
0.0
 11
2757.168945
 21
3450.331543
 31
0.0
  1
４×６５＝２６０
 13
2627.169001
 23
3524.463792
 33
0.0
 14
2887.169001
 24
3524.463792
 34
0.0
  0
LINE
  5
264
  8
1
 10
4538.169201
 20
3729.06675
 30
0.0
 11
5074.169201
 21
3729.06675
 31
0.0
  0
LINE
  5
265
  8
1
 10
3097.169201
 20
2677.35096
 30
0.0
 11
3097.169201
 21
2344.35096
 31
0.0
  0
LINE
  5
266
  8
1
 10
3137.169401
 20
2082.35096
 30
0.0
 11
2507.169301
 21
2082.35096
 31
0.0
  0
LINE
  5
267
  8
1
 10
5321.292901
 20
2677.35096
 30
0.0
 11
5321.293201
 21
2377.35096
 31
0.0
  0
CIRCLE
  5
268
  8
1
 10
4566.292901
 20
2476.35096
 30
0.0
 40
15.5
  0
LINE
  5
269
  8
1
  6
DASHDOT
 10
3067.168901
 20
3590.463792
 30
0.0
 11
3186.420101
 21
3590.463792
 31
0.0
  0
LINE
  5
26A
  8
1
 10
4505.169301
 20
4172.06675
 30
0.0
 11
5107.169201
 21
4172.06675
 31
0.0
  0
LINE
  5
26B
  8
1
  6
DASHDOT
 10
4806.169301
 20
4215.09115
 30
0.0
 11
4806.169201
 21
3652.06695
 31
0.0
  0
LINE
  5
26C
  8
1
 10
2547.169001
 20
3545.463792
 30
0.0
 11
2547.169001
 21
4345.463992
 31
0.0
  0
LINE
  5
26D
  8
1
 10
2547.169201
 20
4345.463992
 30
0.0
 11
3097.169201
 21
4345.463792
 31
0.0
  0
ARC
  5
26E
  8
1
 10
3115.707701
 20
3595.728692
 30
0.0
 40
12.4312
 50
334.942
 51
27.4578
  0
LINE
  5
26F
  8
1
 10
3097.169201
 20
2485.35096
 30
0.0
 11
3111.169401
 21
2485.35096
 31
0.0
  0
LINE
  5
270
  8
1
 10
3097.169201
 20
2469.35096
 30
0.0
 11
3111.169601
 21
2469.35096
 31
0.0
  0
LINE
  5
271
  8
1
 10
3157.168901
 20
2465.35096
 30
0.0
 11
3157.169201
 21
2489.35096
 31
0.0
  0
LINE
  5
272
  8
1
 10
3131.169201
 20
2492.85096
 30
0.0
 11
3149.169201
 21
2492.85096
 31
0.0
  0
LINE
  5
273
  8
1
 10
3131.169201
 20
2461.85096
 30
0.0
 11
3149.168901
 21
2461.85096
 31
0.0
  0
ARC
  5
274
  8
1
 10
3157.212101
 20
2500.34236
 30
0.0
 40
10.9915
 50
222.9664
 51
269.7756
  0
ARC
  5
275
  8
1
 10
3157.212101
 20
2454.35946
 30
0.0
 40
10.9915
 50
90.2247
 51
137.0338
  0
ARC
  5
276
  8
1
 10
3135.152801
 20
2485.10096
 30
0.0
 40
16.0161
 50
331.0605
 51
28.9399
  0
ARC
  5
277
  8
1
 10
3135.152801
 20
2469.60096
 30
0.0
 40
16.0161
 50
331.0607
 51
28.9401
  0
ARC
  5
278
  8
1
 10
3147.185001
 20
2485.10096
 30
0.0
 40
16.0161
 50
151.0606
 51
208.9399
  0
ARC
  5
279
  8
1
 10
3147.185001
 20
2469.60096
 30
0.0
 40
16.0161
 50
151.0604
 51
208.9397
  0
LINE
  5
27A
  8
1
 10
3131.169201
 20
2461.85096
 30
0.0
 11
3131.169201
 21
2492.85096
 31
0.0
  0
LINE
  5
27B
  8
1
 10
3129.169201
 20
2477.35096
 30
0.0
 11
3131.169201
 21
2477.35096
 31
0.0
  0
LINE
  5
27C
  8
1
  6
DASHDOT
 10
3187.169201
 20
2527.35096
 30
0.0
 11
3067.169201
 21
2527.35096
 31
0.0
  0
LINE
  5
27D
  8
1
 10
3125.169201
 20
2520.35096
 30
0.0
 11
3125.169201
 21
2534.35096
 31
0.0
  0
LINE
  5
27E
  8
1
  6
DASHDOT
 10
3067.169201
 20
2477.35096
 30
0.0
 11
3186.420401
 21
2477.35096
 31
0.0
  0
LINE
  5
27F
  8
1
 10
3097.169201
 20
2532.35096
 30
0.0
 11
3125.169201
 21
2532.35096
 31
0.0
  0
LINE
  5
280
  8
1
 10
3097.169001
 20
2522.35096
 30
0.0
 11
3125.169201
 21
2522.35096
 31
0.0
  0
LINE
  5
281
  8
1
 10
3129.168901
 20
2536.35096
 30
0.0
 11
3135.169201
 21
2536.35096
 31
0.0
  0
LINE
  5
282
  8
1
 10
3129.168701
 20
2518.35096
 30
0.0
 11
3135.168901
 21
2518.35096
 31
0.0
  0
LINE
  5
283
  8
1
 10
3125.169201
 20
2534.35096
 30
0.0
 11
3128.169201
 21
2534.35096
 31
0.0
  0
LINE
  5
284
  8
1
 10
3125.169201
 20
2520.35096
 30
0.0
 11
3128.169201
 21
2520.35096
 31
0.0
  0
LINE
  5
285
  8
1
 10
3135.870301
 20
2534.35096
 30
0.0
 11
3139.169201
 21
2534.35096
 31
0.0
  0
LINE
  5
286
  8
1
 10
3135.870801
 20
2520.35066
 30
0.0
 11
3139.169201
 21
2520.35096
 31
0.0
  0
LINE
  5
287
  8
1
 10
3136.168901
 20
2522.85096
 30
0.0
 11
3136.168901
 21
2527.35096
 31
0.0
  0
LINE
  5
288
  8
1
 10
3136.168901
 20
2527.35096
 30
0.0
 11
3136.168901
 21
2531.85096
 31
0.0
  0
ARC
  5
289
  8
1
 10
3125.543901
 20
2531.85096
 30
0.0
 40
10.625
 50
334.9427
 51
25.058
  0
ARC
  5
28A
  8
1
 10
3138.793901
 20
2531.85096
 30
0.0
 40
10.625
 50
154.9425
 51
205.0578
  0
ARC
  5
28B
  8
1
 10
3138.793901
 20
2522.85096
 30
0.0
 40
10.625
 50
154.9425
 51
205.0578
  0
ARC
  5
28C
  8
1
 10
3125.543901
 20
2522.85096
 30
0.0
 40
10.625
 50
334.9426
 51
25.058
  0
LINE
  5
28D
  8
1
 10
3128.169201
 20
2522.85096
 30
0.0
 11
3128.169201
 21
2527.35096
 31
0.0
  0
LINE
  5
28E
  8
1
 10
3128.169201
 20
2527.35096
 30
0.0
 11
3128.169201
 21
2531.85096
 31
0.0
  0
LINE
  5
28F
  8
1
 10
3139.169201
 20
2538.35096
 30
0.0
 11
3150.668901
 21
2538.35096
 31
0.0
  0
LINE
  5
290
  8
1
 10
3139.169201
 20
2516.35096
 30
0.0
 11
3150.668901
 21
2516.35096
 31
0.0
  0
LINE
  5
291
  8
1
 10
3139.169201
 20
2516.35096
 30
0.0
 11
3139.169201
 21
2521.85096
 31
0.0
  0
LINE
  5
292
  8
1
 10
3139.169201
 20
2521.85096
 30
0.0
 11
3139.169201
 21
2527.35096
 31
0.0
  0
LINE
  5
293
  8
1
 10
3139.169201
 20
2527.35096
 30
0.0
 11
3139.169201
 21
2532.85096
 31
0.0
  0
LINE
  5
294
  8
1
 10
3139.169201
 20
2532.85096
 30
0.0
 11
3139.169201
 21
2538.35096
 31
0.0
  0
LINE
  5
295
  8
1
 10
3157.169201
 20
2534.35096
 30
0.0
 11
3157.169201
 21
2520.35096
 31
0.0
  0
ARC
  5
296
  8
1
 10
3141.335701
 20
2532.85096
 30
0.0
 40
10.8333
 50
329.4898
 51
30.5108
  0
ARC
  5
297
  8
1
 10
3150.002901
 20
2532.85066
 30
0.0
 40
10.8333
 50
149.4896
 51
210.5106
  0
ARC
  5
298
  8
1
 10
3150.002901
 20
2521.85116
 30
0.0
 40
10.8333
 50
149.4897
 51
210.5106
  0
ARC
  5
299
  8
1
 10
3141.335701
 20
2521.85096
 30
0.0
 40
10.8333
 50
329.4898
 51
30.5108
  0
ARC
  5
29A
  8
1
 10
3157.263201
 20
2541.78526
 30
0.0
 40
7.4349
 50
207.511
 51
269.2759
  0
ARC
  5
29B
  8
1
 10
3157.263201
 20
2512.91666
 30
0.0
 40
7.4349
 50
90.7244
 51
152.4893
  0
LINE
  5
29C
  8
1
 10
3129.169401
 20
2477.35146
 30
0.0
 11
3115.169201
 21
2477.35116
 31
0.0
  0
LINE
  5
29D
  8
1
 10
3113.169401
 20
2471.84286
 30
0.0
 11
3113.169201
 21
2482.84096
 31
0.0
  0
LINE
  5
29E
  8
1
 10
3111.169901
 20
2468.35046
 30
0.0
 11
3113.753601
 21
2468.35096
 31
0.0
  0
LINE
  5
29F
  8
1
 10
3128.169401
 20
2471.84286
 30
0.0
 11
3128.169201
 21
2482.84096
 31
0.0
  0
LINE
  5
2A0
  8
1
 10
3127.565601
 20
2468.35386
 30
0.0
 11
3131.168901
 21
2468.35486
 31
0.0
  0
LINE
  5
2A1
  8
1
 10
3111.169401
 20
2486.35166
 30
0.0
 11
3113.753401
 21
2486.35096
 31
0.0
  0
LINE
  5
2A2
  8
1
 10
3126.738701
 20
2466.35416
 30
0.0
 11
3114.580801
 21
2466.35146
 31
0.0
  0
LINE
  5
2A3
  8
1
 10
3131.169201
 20
2486.34776
 30
0.0
 11
3127.565901
 21
2486.34756
 31
0.0
  0
LINE
  5
2A4
  8
1
 10
3126.738501
 20
2488.34876
 30
0.0
 11
3114.581001
 21
2488.35116
 31
0.0
  0
LINE
  5
2A5
  8
1
 10
3111.169601
 20
2468.35046
 30
0.0
 11
3111.169401
 21
2486.35166
 31
0.0
  0
ARC
  5
2A6
  8
1
 10
3115.708001
 20
2482.61606
 30
0.0
 40
12.4312
 50
334.9427
 51
27.4624
  0
ARC
  5
2A7
  8
1
 10
3125.610301
 20
2482.61606
 30
0.0
 40
12.4312
 50
152.5256
 51
205.0578
  0
ARC
  5
2A8
  8
1
 10
3125.610301
 20
2472.08606
 30
0.0
 40
12.4312
 50
154.9425
 51
207.4724
  0
ARC
  5
2A9
  8
1
 10
3115.708001
 20
2472.08606
 30
0.0
 40
12.4312
 50
332.5422
 51
25.058
  0
LINE
  5
2AA
  8
1
  6
DASHDOT
 10
2822.169301
 20
2698.60046
 30
0.0
 11
2822.169201
 21
2062.35096
 31
0.0
  0
LINE
  5
2AB
  8
1
 10
4505.169301
 20
3672.06695
 30
0.0
 11
5107.169001
 21
3672.06675
 31
0.0
  0
LINE
  5
2AC
  8
1
 10
5131.169201
 20
4148.06675
 30
0.0
 11
5131.169201
 21
3696.06675
 31
0.0
  0
LINE
  5
2AD
  8
1
 10
4481.169201
 20
4148.06675
 30
0.0
 11
4481.169201
 21
3696.06675
 31
0.0
  0
LINE
  5
2AE
  8
1
  6
DIVIDE
 10
5111.169201
 20
4152.06675
 30
0.0
 11
5111.169401
 21
3692.06675
 31
0.0
  0
LINE
  5
2AF
  8
1
  6
DIVIDE
 10
4501.169101
 20
4152.06695
 30
0.0
 11
4501.167501
 21
3692.06675
 31
0.0
  0
LINE
  5
2B0
  8
1
  6
DIVIDE
 10
4501.169201
 20
4152.06695
 30
0.0
 11
5111.169301
 21
4152.06675
 31
0.0
  0
LINE
  5
2B1
  8
1
 10
4481.169201
 20
3740.06675
 30
0.0
 11
4538.169001
 21
3740.06645
 31
0.0
  0
TEXT
  5
2B2
  8
2
 10
4770.736328
 20
3576.364014
 30
0.0
 40
43.75
  1
（天井開口部）
 41
0.84
  7
MONOTXT
  0
TEXT
  5
2B3
  8
2
 10
5220.06543
 20
3825.27417
 30
0.0
 40
43.75
  1
（天井開口部）
 50
90.000303
 41
0.84
  7
MONOTXT
  0
LINE
  5
2B4
  8
1
 10
2912.169301
 20
2434.85146
 30
0.0
 11
2912.169401
 21
2649.85166
 31
0.0
  0
LINE
  5
2B5
  8
1
 10
2602.169401
 20
2434.85196
 30
0.0
 11
2602.169401
 21
2649.85196
 31
0.0
  0
LINE
  5
2B6
  8
1
 10
5321.292901
 20
2137.35116
 30
0.0
 11
4881.293701
 21
2137.34976
 31
0.0
  0
POINT
  5
2B7
  8
1
  6
DOT
 10
2607.169201
 20
2664.85196
 30
0.0
  0
LINE
  5
2B8
  8
1
 10
3097.169201
 20
2625.35096
 30
0.0
 11
3147.169201
 21
2625.35096
 31
0.0
  0
LINE
  5
2B9
  8
1
  6
DIVIDE
 10
4501.167501
 20
3692.06675
 30
0.0
 11
5111.169401
 21
3692.06695
 31
0.0
  0
LINE
  5
2BA
  8
1
  6
DIVIDE
 10
2522.174601
 20
4340.463692
 30
0.0
 11
2522.174601
 21
4300.464192
 31
0.0
  0
LINE
  5
2BB
  8
1
 10
4549.169001
 20
3729.06675
 30
0.0
 11
4549.169201
 21
3672.06675
 31
0.0
  0
LINE
  5
2BC
  8
1
 10
4549.169201
 20
4172.06675
 30
0.0
 11
4549.169201
 21
4115.06675
 31
0.0
  0
LINE
  5
2BD
  8
1
 10
4481.169201
 20
4104.06675
 30
0.0
 11
4538.169301
 21
4104.06675
 31
0.0
  0
LINE
  5
2BE
  8
1
 10
5074.169401
 20
4104.06725
 30
0.0
 11
5131.169201
 21
4104.06675
 31
0.0
  0
LINE
  5
2BF
  8
1
 10
5063.169201
 20
4172.06675
 30
0.0
 11
5063.168401
 21
4115.06675
 31
0.0
  0
LINE
  5
2C0
  8
1
 10
5063.169401
 20
3729.06725
 30
0.0
 11
5063.169201
 21
3672.06675
 31
0.0
  0
LINE
  5
2C1
  8
1
 10
5074.169401
 20
3740.06675
 30
0.0
 11
5131.169201
 21
3740.06675
 31
0.0
  0
LINE
  5
2C2
  8
1
 10
4538.169201
 20
4115.06725
 30
0.0
 11
5074.169201
 21
4115.06675
 31
0.0
  0
LINE
  5
2C3
  8
1
 10
4538.169201
 20
4115.06725
 30
0.0
 11
4538.169201
 21
3729.06675
 31
0.0
  0
LINE
  5
2C4
  8
1
 10
5074.169201
 20
4115.06675
 30
0.0
 11
5074.169201
 21
3729.06675
 31
0.0
  0
ARC
  5
2C5
  8
1
 10
5107.169201
 20
3696.06675
 30
0.0
 40
24.0
 50
270.0002
 51
0.0
  0
ARC
  5
2C6
  8
1
 10
5107.169201
 20
4148.06675
 30
0.0
 40
24.0
 50
0.0
 51
90.0001
  0
ARC
  5
2C7
  8
1
 10
4505.169201
 20
4148.06675
 30
0.0
 40
24.0
 50
90.0001
 51
180.0002
  0
ARC
  5
2C8
  8
1
 10
4505.169201
 20
3696.06675
 30
0.0
 40
24.0
 50
180.0002
 51
270.0002
  0
LINE
  5
2C9
  8
1
 10
4553.169301
 20
4100.06675
 30
0.0
 11
4553.169201
 21
3744.06675
 31
0.0
  0
LINE
  5
2CA
  8
1
 10
4553.169201
 20
3744.06675
 30
0.0
 11
5059.169001
 21
3744.06675
 31
0.0
  0
LINE
  5
2CB
  8
1
 10
5059.169301
 20
4100.06675
 30
0.0
 11
5059.169201
 21
3744.06675
 31
0.0
  0
LINE
  5
2CC
  8
1
 10
2502.169901
 20
4344.463392
 30
0.0
 11
2502.169901
 21
4326.463592
 31
0.0
  0
CIRCLE
  5
2CD
  8
1
 10
2607.169201
 20
2664.85196
 30
0.0
 40
3.5
  0
CIRCLE
  5
2CE
  8
1
 10
2907.169501
 20
2664.85196
 30
0.0
 40
3.5
  0
LINE
  5
2CF
  8
1
  6
DASHDOT
 10
2596.669401
 20
2419.85196
 30
0.0
 11
2912.169301
 21
2419.85146
 31
0.0
  0
LINE
  5
2D0
  8
1
  6
DASHDOT
 10
2596.669401
 20
2664.85196
 30
0.0
 11
2912.169401
 21
2664.85116
 31
0.0
  0
LINE
  5
2D1
  8
1
 10
4553.169201
 20
3759.06675
 30
0.0
 11
5059.169001
 21
3759.06675
 31
0.0
  0
LINE
  5
2D2
  8
1
 10
3097.169201
 20
2595.35096
 30
0.0
 11
3147.169201
 21
2595.35096
 31
0.0
  0
LINE
  5
2D3
  8
1
 10
4863.292901
 20
2389.02066
 30
0.0
 11
4863.292901
 21
2381.81306
 31
0.0
  0
TEXT
  5
2D4
  8
2
 10
2342.287109
 20
3735.34668
 30
0.0
 40
43.75
  1
（吊り位置）
 50
89.999811
 41
0.825
  7
MONOTXT
  0
LINE
  5
2D5
  8
1
 10
4496.292901
 20
2429.85096
 30
0.0
 11
4516.293401
 21
2429.85096
 31
0.0
  0
LINE
  5
2D6
  8
1
 10
4496.292901
 20
2654.85096
 30
0.0
 11
4516.293201
 21
2654.85096
 31
0.0
  0
ARC
  5
2D7
  8
1
 10
2924.668401
 20
3530.463792
 30
0.0
 40
10.0
 50
269.9999
 51
0.0
  0
ARC
  5
2D8
  8
1
 10
2589.668901
 20
3530.463792
 30
0.0
 40
10.0
 50
179.9998
 51
269.9999
  0
LINE
  5
2D9
  8
1
  6
DASHDOT
 10
2616.669501
 20
3530.463792
 30
0.0
 11
2896.669401
 21
3530.463792
 31
0.0
  0
CIRCLE
  5
2DA
  8
1
 10
2822.169001
 20
3530.463792
 30
0.0
 40
2.35
  0
LINE
  5
2DB
  8
1
 10
4829.292901
 20
2389.02066
 30
0.0
 11
4829.292901
 21
2381.81456
 31
0.0
  0
CIRCLE
  5
2DC
  8
1
 10
2757.169001
 20
3530.463792
 30
0.0
 40
2.35
  0
CIRCLE
  5
2DD
  8
1
 10
2887.169001
 20
3530.463792
 30
0.0
 40
2.35
  0
POINT
  5
2DE
  8
1
  6
DOT
 10
2887.169001
 20
3530.463792
 30
0.0
  0
CIRCLE
  5
2DF
  8
1
 10
2692.169001
 20
3530.463792
 30
0.0
 40
2.35
  0
LINE
  5
2E0
  8
1
 10
5321.292901
 20
2155.35116
 30
0.0
 11
4881.293701
 21
2155.34976
 31
0.0
  0
LINE
  5
2E1
  8
1
 10
2504.469901
 20
4314.463792
 30
0.0
 11
2504.469901
 21
4296.463492
 31
0.0
  0
LINE
  5
2E2
  8
1
 10
2547.169201
 20
2377.35146
 30
0.0
 11
3097.169201
 21
2377.35116
 31
0.0
  0
ARC
  5
2E3
  8
1
 10
3125.610101
 20
3595.728692
 30
0.0
 40
12.4312
 50
152.5276
 51
205.0575
  0
LINE
  5
2E4
  8
1
  6
DASHED
 10
4881.293901
 20
2291.85146
 30
0.0
 11
4881.293901
 21
2259.85146
 31
0.0
  0
LINE
  5
2E5
  8
1
  6
DASHED
 10
5315.292701
 20
2249.85116
 30
0.0
 11
4887.294401
 21
2249.84976
 31
0.0
  0
POINT
  5
2E6
  8
1
  6
DOT
 10
2907.169501
 20
2664.85196
 30
0.0
  0
LINE
  5
2E7
  8
1
  6
DASHED
 10
5315.293201
 20
2301.85116
 30
0.0
 11
4887.294401
 21
2301.84976
 31
0.0
  0
LINE
  5
2E8
  8
1
 10
4521.292901
 20
2377.35096
 30
0.0
 11
5321.292901
 21
2377.35096
 31
0.0
  0
LINE
  5
2E9
  8
1
  6
DASHED
 10
5315.293201
 20
2197.85116
 30
0.0
 11
4887.294601
 21
2197.84976
 31
0.0
  0
LINE
  5
2EA
  8
1
 10
3139.871101
 20
3684.463792
 30
0.0
 11
3139.871101
 21
3666.463492
 31
0.0
  0
LINE
  5
2EB
  8
1
  6
DASHED
 10
4881.293401
 20
2239.85146
 30
0.0
 11
4881.294201
 21
2207.85146
 31
0.0
  0
LINE
  5
2EC
  8
1
  6
DASHED
 10
5321.293901
 20
2344.35066
 30
0.0
 11
5321.293701
 21
2311.85116
 31
0.0
  0
LINE
  5
2ED
  8
1
 10
2547.169001
 20
2344.35166
 30
0.0
 11
2547.169001
 21
2677.35096
 31
0.0
  0
LINE
  5
2EE
  8
1
 10
3139.871301
 20
3714.463292
 30
0.0
 11
3139.871101
 21
3696.463592
 31
0.0
  0
LINE
  5
2EF
  8
1
 10
3139.869801
 20
4344.463392
 30
0.0
 11
3139.870101
 21
4326.463592
 31
0.0
  0
LINE
  5
2F0
  8
1
 10
2547.169201
 20
2122.35116
 30
0.0
 11
2547.169301
 21
2092.35146
 31
0.0
  0
LINE
  5
2F1
  8
1
 10
3139.870101
 20
4314.463792
 30
0.0
 11
3139.870301
 21
4296.463492
 31
0.0
  0
LINE
  5
2F2
  8
1
 10
2497.169201
 20
2092.35096
 30
0.0
 11
2497.169201
 21
2087.35096
 31
0.0
  0
LINE
  5
2F3
  8
1
 10
3147.169401
 20
2092.35096
 30
0.0
 11
3147.169401
 21
2087.35096
 31
0.0
  0
LINE
  5
2F4
  8
1
  6
DASHED
 10
4881.294201
 20
2187.85146
 30
0.0
 11
4881.294201
 21
2155.35146
 31
0.0
  0
LINE
  5
2F5
  8
1
 10
2507.169301
 20
2082.35096
 30
0.0
 11
2497.169201
 21
2087.35096
 31
0.0
  0
CIRCLE
  5
2F6
  8
1
 10
2627.169001
 20
3530.463792
 30
0.0
 40
2.35
  0
LINE
  5
2F7
  8
1
 10
4553.169301
 20
4100.06675
 30
0.0
 11
5059.169301
 21
4100.06675
 31
0.0
  0
LINE
  5
2F8
  8
1
 10
3137.169401
 20
2082.35096
 30
0.0
 11
3147.169401
 21
2087.35096
 31
0.0
  0
LINE
  5
2F9
  8
1
  6
DASHDOT
 10
2589.669501
 20
2448.60046
 30
0.0
 11
2589.669401
 21
2674.85166
 31
0.0
  0
LINE
  5
2FA
  8
1
 10
2589.668901
 20
3520.463992
 30
0.0
 11
2924.668401
 21
3520.463792
 31
0.0
  0
LINE
  5
2FB
  8
1
  6
DASHED
 10
4887.294601
 20
2197.85116
 30
0.0
 11
4881.294601
 21
2187.85146
 31
0.0
  0
LINE
  5
2FC
  8
1
  6
DASHED
 10
4881.294601
 20
2207.85146
 30
0.0
 11
4887.294601
 21
2197.85116
 31
0.0
  0
LINE
  5
2FD
  8
1
  6
DASHDOT
 10
2692.169001
 20
3524.463792
 30
0.0
 11
2692.169001
 21
3536.463792
 31
0.0
  0
LINE
  5
2FE
  8
1
 10
4536.794401
 20
2488.85436
 30
0.0
 11
4536.792901
 21
2439.85066
 31
0.0
  0
LINE
  5
2FF
  8
1
 10
4521.293401
 20
2437.35046
 30
0.0
 11
4534.292901
 21
2437.35066
 31
0.0
  0
LINE
  5
300
  8
1
  6
DASHED
 10
4887.294401
 20
2249.85116
 30
0.0
 11
4881.293901
 21
2239.85146
 31
0.0
  0
LINE
  5
301
  8
1
  6
DASHED
 10
4881.294401
 20
2259.85146
 30
0.0
 11
4887.294401
 21
2249.85116
 31
0.0
  0
LINE
  5
302
  8
1
  6
DASHED
 10
4887.294401
 20
2301.85146
 30
0.0
 11
4881.294401
 21
2291.85146
 31
0.0
  0
LINE
  5
303
  8
1
 10
4550.792901
 20
2485.29996
 30
0.0
 11
4550.792901
 21
2467.40176
 31
0.0
  0
LINE
  5
304
  8
1
 10
4550.792901
 20
2467.40176
 30
0.0
 11
4566.292901
 21
2458.45296
 31
0.0
  0
LINE
  5
305
  8
1
 10
4566.292901
 20
2458.45296
 30
0.0
 11
4581.792901
 21
2467.40176
 31
0.0
  0
LINE
  5
306
  8
1
 10
4581.792901
 20
2467.40176
 30
0.0
 11
4581.792901
 21
2485.29996
 31
0.0
  0
LINE
  5
307
  8
1
 10
4581.792901
 20
2485.29996
 30
0.0
 11
4566.292901
 21
2494.24866
 31
0.0
  0
LINE
  5
308
  8
1
 10
4566.292901
 20
2494.24866
 30
0.0
 11
4550.792901
 21
2485.29996
 31
0.0
  0
CIRCLE
  5
309
  8
1
 10
4566.292901
 20
2476.35096
 30
0.0
 40
7.75
  0
CIRCLE
  5
30A
  8
1
 10
4612.292901
 20
2526.35096
 30
0.0
 40
11.0
  0
LINE
  5
30B
  8
1
 10
4601.292901
 20
2532.70156
 30
0.0
 11
4601.292901
 21
2520.00016
 31
0.0
  0
LINE
  5
30C
  8
1
 10
4601.292901
 20
2520.00016
 30
0.0
 11
4612.292901
 21
2513.64926
 31
0.0
  0
LINE
  5
30D
  8
1
 10
4612.292901
 20
2513.64926
 30
0.0
 11
4623.292901
 21
2520.00016
 31
0.0
  0
LINE
  5
30E
  8
1
 10
2934.668401
 20
3545.463792
 30
0.0
 11
2934.668401
 21
3530.463792
 31
0.0
  0
LINE
  5
30F
  8
1
 10
4623.292901
 20
2520.00016
 30
0.0
 11
4623.292901
 21
2532.70156
 31
0.0
  0
LINE
  5
310
  8
1
 10
4623.292901
 20
2532.70156
 30
0.0
 11
4612.292901
 21
2539.05236
 31
0.0
  0
LINE
  5
311
  8
1
 10
4612.292901
 20
2539.05236
 30
0.0
 11
4601.292901
 21
2532.70156
 31
0.0
  0
LINE
  5
312
  8
1
 10
4539.292701
 20
2491.35116
 30
0.0
 11
4543.792901
 21
2491.35116
 31
0.0
  0
LINE
  5
313
  8
1
 10
4664.293201
 20
2408.85146
 30
0.0
 11
4664.292901
 21
2377.35096
 31
0.0
  0
CIRCLE
  5
314
  8
1
 10
4612.292901
 20
2526.35096
 30
0.0
 40
6.6
  0
LINE
  5
315
  8
1
 10
2579.668901
 20
3545.463992
 30
0.0
 11
2579.669001
 21
3530.463792
 31
0.0
  0
LINE
  5
316
  8
1
 10
2579.669501
 20
2674.85166
 30
0.0
 11
2934.669401
 21
2674.85146
 31
0.0
  0
LINE
  5
317
  8
1
  6
DASHDOT
 10
2757.169001
 20
3564.214192
 30
0.0
 11
2757.169001
 21
3504.214192
 31
0.0
  0
LINE
  5
318
  8
1
 10
4638.293201
 20
2411.35116
 30
0.0
 11
4661.792401
 21
2411.35046
 31
0.0
  0
ARC
  5
319
  8
1
 10
3125.610101
 20
3585.198792
 30
0.0
 40
12.4312
 50
154.9422
 51
207.4744
  0
ARC
  5
31A
  8
1
 10
3115.707701
 20
3585.198792
 30
0.0
 40
12.4312
 50
332.5376
 51
25.0573
  0
CIRCLE
  5
31B
  8
1
 10
4961.292901
 20
2557.35096
 30
0.0
 40
16.25
  0
CIRCLE
  5
31C
  8
1
 10
4836.292901
 20
2500.35146
 30
0.0
 40
30.0
  0
LINE
  5
31D
  8
1
 10
2504.468901
 20
3714.463492
 30
0.0
 11
2504.468901
 21
3696.463592
 31
0.0
  0
LINE
  5
31E
  8
1
 10
2504.468901
 20
3684.463792
 30
0.0
 11
2504.468901
 21
3666.463592
 31
0.0
  0
LINE
  5
31F
  8
1
 10
2504.469901
 20
4344.463392
 30
0.0
 11
2504.469901
 21
4326.463592
 31
0.0
  0
LINE
  5
320
  8
1
 10
4516.292901
 20
2409.85096
 30
0.0
 11
4521.292901
 21
2409.85066
 31
0.0
  0
LINE
  5
321
  8
1
 10
2497.169201
 20
2092.35146
 30
0.0
 11
3147.169401
 21
2092.35096
 31
0.0
  0
LINE
  5
322
  8
1
 10
2547.169201
 20
2362.35146
 30
0.0
 11
3097.169201
 21
2362.35116
 31
0.0
  0
LINE
  5
323
  8
1
 10
2547.169201
 20
2344.35146
 30
0.0
 11
3097.169301
 21
2344.35096
 31
0.0
  0
LINE
  5
324
  8
1
 10
4635.794401
 20
2533.85046
 30
0.0
 11
4635.793201
 21
2413.85116
 31
0.0
  0
LINE
  5
325
  8
1
 10
2547.169201
 20
2122.35116
 30
0.0
 11
2547.169201
 21
2137.35146
 31
0.0
  0
LINE
  5
326
  8
1
 10
2547.169201
 20
2122.35116
 30
0.0
 11
3097.169801
 21
2122.35096
 31
0.0
  0
LINE
  5
327
  8
1
 10
2547.169201
 20
2137.35116
 30
0.0
 11
3097.169801
 21
2137.35096
 31
0.0
  0
LINE
  5
328
  8
1
 10
2547.169201
 20
2155.35116
 30
0.0
 11
3097.169601
 21
2155.35096
 31
0.0
  0
LINE
  5
329
  8
1
  6
DASHDOT
 10
2924.669401
 20
2448.60046
 30
0.0
 11
2924.669501
 21
2674.85146
 31
0.0
  0
LINE
  5
32A
  8
1
 10
3097.169901
 20
2092.35096
 30
0.0
 11
3097.169601
 21
2155.35096
 31
0.0
  0
LINE
  5
32B
  8
1
 10
2547.169201
 20
2155.35116
 30
0.0
 11
2547.169201
 21
2137.35116
 31
0.0
  0
LINE
  5
32C
  8
1
  6
DASHED
 10
2553.169801
 20
2249.85096
 30
0.0
 11
3091.168501
 21
2249.85066
 31
0.0
  0
LINE
  5
32D
  8
1
 10
2579.669401
 20
2649.85166
 30
0.0
 11
2934.669401
 21
2649.85166
 31
0.0
  0
LINE
  5
32E
  8
1
 10
2579.669401
 20
2434.85166
 30
0.0
 11
2934.669201
 21
2434.85146
 31
0.0
  0
LINE
  5
32F
  8
1
  6
DASHED
 10
2553.170001
 20
2301.85096
 30
0.0
 11
3091.168701
 21
2301.85066
 31
0.0
  0
LINE
  5
330
  8
1
  6
DASHED
 10
2553.169501
 20
2197.85096
 30
0.0
 11
3091.168101
 21
2197.85066
 31
0.0
  0
LINE
  5
331
  8
1
 10
2579.669401
 20
2654.85166
 30
0.0
 11
2934.669501
 21
2654.85146
 31
0.0
  0
LINE
  5
332
  8
1
 10
2579.669401
 20
2429.85166
 30
0.0
 11
2934.669301
 21
2429.85166
 31
0.0
  0
LINE
  5
333
  8
1
 10
2579.669401
 20
2409.85166
 30
0.0
 11
2934.669301
 21
2409.85166
 31
0.0
  0
LINE
  5
334
  8
1
  6
DASHED
 10
3097.169201
 20
2291.85116
 30
0.0
 11
3097.168901
 21
2259.85116
 31
0.0
  0
LINE
  5
335
  8
1
 10
2579.669401
 20
2409.85196
 30
0.0
 11
2579.669401
 21
2674.85166
 31
0.0
  0
LINE
  5
336
  8
1
 10
2934.669301
 20
2409.85146
 30
0.0
 11
2934.669401
 21
2674.85166
 31
0.0
  0
LINE
  5
337
  8
1
  6
DASHED
 10
3097.168901
 20
2239.85116
 30
0.0
 11
3097.168701
 21
2207.85116
 31
0.0
  0
LINE
  5
338
  8
1
 10
3147.169201
 20
2625.35096
 30
0.0
 11
3147.169201
 21
2610.35096
 31
0.0
  0
LINE
  5
339
  8
1
  6
DASHED
 10
3097.168401
 20
2187.85116
 30
0.0
 11
3097.168201
 21
2155.35116
 31
0.0
  0
LINE
  5
33A
  8
1
 10
2917.169301
 20
2434.85146
 30
0.0
 11
2917.169401
 21
2649.85166
 31
0.0
  0
LINE
  5
33B
  8
1
 10
2597.169401
 20
2434.85196
 30
0.0
 11
2597.169401
 21
2649.85196
 31
0.0
  0
LINE
  5
33C
  8
1
  6
DASHED
 10
3091.168201
 20
2197.85116
 30
0.0
 11
3097.168201
 21
2187.85116
 31
0.0
  0
CIRCLE
  5
33D
  8
1
 10
2907.169401
 20
2419.85146
 30
0.0
 40
3.5
  0
LINE
  5
33E
  8
1
  6
DASHED
 10
3097.168201
 20
2207.85116
 30
0.0
 11
3091.168201
 21
2197.85116
 31
0.0
  0
CIRCLE
  5
33F
  8
1
 10
2607.169001
 20
2419.85166
 30
0.0
 40
3.5
  0
LINE
  5
340
  8
1
  6
DASHED
 10
3091.168401
 20
2249.85116
 30
0.0
 11
3097.168401
 21
2239.85116
 31
0.0
  0
CIRCLE
  5
341
  8
1
 10
2757.169401
 20
2664.85146
 30
0.0
 40
3.5
  0
LINE
  5
342
  8
1
  6
DASHED
 10
3097.168401
 20
2259.85116
 30
0.0
 11
3091.168401
 21
2249.85116
 31
0.0
  0
CIRCLE
  5
343
  8
1
 10
2757.169301
 20
2419.85146
 30
0.0
 40
3.5
  0
LINE
  5
344
  8
1
  6
DASHED
 10
3091.168701
 20
2301.85116
 30
0.0
 11
3097.168701
 21
2291.85116
 31
0.0
  0
LINE
  5
345
  8
1
  6
DASHED
 10
3097.168701
 20
2311.85116
 30
0.0
 11
3091.168701
 21
2301.85116
 31
0.0
  0
LINE
  5
346
  8
1
  6
DASHED
 10
3097.169401
 20
2344.35096
 30
0.0
 11
3097.169201
 21
2311.85116
 31
0.0
  0
LINE
  5
347
  8
1
 10
4516.293201
 20
2674.85066
 30
0.0
 11
4521.292901
 21
2674.85066
 31
0.0
  0
LINE
  5
348
  8
1
 10
3125.169201
 20
3643.463992
 30
0.0
 11
3125.169201
 21
3629.463992
 31
0.0
  0
LINE
  5
349
  8
1
  6
DASHDOT
 10
3067.169201
 20
3636.463992
 30
0.0
 11
3186.420401
 21
3636.463992
 31
0.0
  0
LINE
  5
34A
  8
1
  6
DASHED
 10
4881.294401
 20
2311.85146
 30
0.0
 11
4887.294401
 21
2301.85146
 31
0.0
  0
LINE
  5
34B
  8
1
 10
4496.292901
 20
2434.85116
 30
0.0
 11
4521.292901
 21
2434.85116
 31
0.0
  0
LINE
  5
34C
  8
1
 10
4496.292901
 20
2649.85096
 30
0.0
 11
4521.293201
 21
2649.85096
 31
0.0
  0
LINE
  5
34D
  8
1
  6
DASHDOT
 10
4486.293201
 20
2542.35216
 30
0.0
 11
4531.292901
 21
2542.35046
 31
0.0
  0
LINE
  5
34E
  8
1
 10
4496.292901
 20
2654.85066
 30
0.0
 11
4496.292901
 21
2429.85096
 31
0.0
  0
LINE
  5
34F
  8
1
  6
DASHED
 10
2547.169001
 20
2207.84976
 30
0.0
 11
2547.169301
 21
2239.84976
 31
0.0
  0
LINE
  5
350
  8
1
  6
DASHED
 10
2547.169301
 20
2259.84976
 30
0.0
 11
2547.169501
 21
2291.84976
 31
0.0
  0
LINE
  5
351
  8
1
  6
DASHED
 10
2547.169801
 20
2311.84976
 30
0.0
 11
2547.170001
 21
2344.34976
 31
0.0
  0
CIRCLE
  5
352
  8
1
 10
4961.292901
 20
2557.35096
 30
0.0
 40
24.0
  0
LINE
  5
353
  8
1
  6
DASHED
 10
2553.170001
 20
2301.84976
 30
0.0
 11
2547.170001
 21
2311.84976
 31
0.0
  0
LINE
  5
354
  8
1
  6
DASHED
 10
2547.170001
 20
2291.84976
 30
0.0
 11
2553.170001
 21
2301.84976
 31
0.0
  0
CIRCLE
  5
355
  8
1
 10
4961.292901
 20
2422.35096
 30
0.0
 40
16.25
  0
CIRCLE
  5
356
  8
1
 10
4961.292901
 20
2422.35096
 30
0.0
 40
24.0
  0
CIRCLE
  5
357
  8
1
 10
4836.293201
 20
2613.35116
 30
0.0
 40
16.0
  0
LINE
  5
358
  8
1
 10
3111.169401
 20
3599.464292
 30
0.0
 11
3111.169201
 21
3581.463092
 31
0.0
  0
LINE
  5
359
  8
1
 10
4897.293201
 20
2377.35096
 30
0.0
 11
5321.293201
 21
2377.35096
 31
0.0
  0
LINE
  5
35A
  8
1
 10
4589.792901
 20
2536.35046
 30
0.0
 11
4595.792901
 21
2536.35046
 31
0.0
  0
LINE
  5
35B
  8
1
  6
DASHED
 10
2553.169801
 20
2249.84976
 30
0.0
 11
2547.169801
 21
2259.84976
 31
0.0
  0
LINE
  5
35C
  8
1
  6
DASHED
 10
2547.169801
 20
2239.84976
 30
0.0
 11
2553.169801
 21
2249.84976
 31
0.0
  0
ARC
  5
35D
  8
1
 10
4543.792901
 20
2488.85116
 30
0.0
 40
2.5
 50
0.0
 51
90.0001
  0
LINE
  5
35E
  8
1
  6
DASHED
 10
2553.169501
 20
2197.84976
 30
0.0
 11
2547.169501
 21
2207.84976
 31
0.0
  0
ARC
  5
35F
  8
1
 10
3135.152601
 20
3582.713792
 30
0.0
 40
16.0161
 50
331.0601
 51
28.9395
  0
LINE
  5
360
  8
1
  6
DASHED
 10
2547.169501
 20
2187.84976
 30
0.0
 11
2553.169501
 21
2197.84976
 31
0.0
  0
LINE
  5
361
  8
1
 10
3097.169201
 20
3631.463592
 30
0.0
 11
3125.169201
 21
3631.463992
 31
0.0
  0
ARC
  5
362
  8
1
 10
2522.174601
 20
4320.463692
 30
0.0
 40
6.0
 50
269.9825
 51
0.0
  0
LINE
  5
363
  8
1
 10
2502.170001
 20
4344.463292
 30
0.0
 11
2547.169601
 21
4344.463692
 31
0.0
  0
LINE
  5
364
  8
1
  6
DASHED
 10
2547.168801
 20
2155.34996
 30
0.0
 11
2547.169001
 21
2187.84976
 31
0.0
  0
LINE
  5
365
  8
1
  6
DASHED
 10
2547.168801
 20
2344.35066
 30
0.0
 11
2547.169001
 21
2311.85096
 31
0.0
  0
TEXT
  5
366
  8
2
 10
2813.66748
 20
4447.118652
 30
0.0
 40
43.75
  1
（吊り位置）
 41
0.825
  7
MONOTXT
  0
CIRCLE
  5
367
  8
1
 10
4612.292901
 20
2526.35096
 30
0.0
 40
13.0
  0
LINE
  5
368
  8
1
 10
4628.793201
 20
2536.35066
 30
0.0
 11
4633.293201
 21
2536.35096
 31
0.0
  0
LINE
  5
369
  8
1
  6
DASHED
 10
2547.169501
 20
2311.85096
 30
0.0
 11
2553.169501
 21
2301.85096
 31
0.0
  0
ARC
  5
36A
  8
1
 10
4661.792901
 20
2408.85116
 30
0.0
 40
2.5
 50
0.0
 51
90.0001
  0
LINE
  5
36B
  8
1
  6
DASHED
 10
2553.169501
 20
2301.85096
 30
0.0
 11
2547.169501
 21
2291.85096
 31
0.0
  0
LINE
  5
36C
  8
1
 10
3142.170101
 20
4314.463792
 30
0.0
 11
3142.170401
 21
4296.463492
 31
0.0
  0
LINE
  5
36D
  8
1
  6
DASHED
 10
2547.169801
 20
2259.85096
 30
0.0
 11
2553.169801
 21
2249.85096
 31
0.0
  0
LINE
  5
36E
  8
1
 10
3142.170101
 20
4344.463392
 30
0.0
 11
3097.170401
 21
4344.463692
 31
0.0
  0
LINE
  5
36F
  8
1
  6
DASHDOT
 10
3097.170101
 20
4320.463692
 30
0.0
 11
3142.170101
 21
4320.463692
 31
0.0
  0
LINE
  5
370
  8
1
 10
2547.169001
 20
3985.463992
 30
0.0
 11
3097.169001
 21
3985.463792
 31
0.0
  0
LINE
  5
371
  8
1
 10
2502.168901
 20
3684.463792
 30
0.0
 11
2502.168901
 21
3666.463592
 31
0.0
  0
LINE
  5
372
  8
1
 10
2502.169001
 20
3714.463492
 30
0.0
 11
2547.168701
 21
3714.463692
 31
0.0
  0
LINE
  5
373
  8
1
  6
DASHDOT
 10
2547.168901
 20
3690.463692
 30
0.0
 11
2502.168901
 21
3690.463692
 31
0.0
  0
LINE
  5
374
  8
1
 10
3142.171401
 20
3714.463292
 30
0.0
 11
3142.171101
 21
3696.463592
 31
0.0
  0
LINE
  5
375
  8
1
 10
2502.169901
 20
4296.463592
 30
0.0
 11
2547.170101
 21
4296.463692
 31
0.0
  0
LINE
  5
376
  8
1
 10
3142.171101
 20
3666.463592
 30
0.0
 11
3097.170901
 21
3666.463692
 31
0.0
  0
LINE
  5
377
  8
1
 10
2521.185001
 20
4326.463692
 30
0.0
 11
2502.169901
 21
4326.463692
 31
0.0
  0
LINE
  5
378
  8
1
 10
2521.186501
 20
4314.463692
 30
0.0
 11
2502.169901
 21
4314.463792
 31
0.0
  0
ARC
  5
379
  8
1
 10
4539.292701
 20
2488.85116
 30
0.0
 40
2.5
 50
90.0001
 51
180.0002
  0
ARC
  5
37A
  8
1
 10
2522.174601
 20
4320.463692
 30
0.0
 40
6.0
 50
0.0
 51
90.0185
  0
LINE
  5
37B
  8
1
  6
DASHED
 10
2543.969701
 20
4296.463692
 30
0.0
 11
2543.969701
 21
4344.463692
 31
0.0
  0
LINE
  5
37C
  8
1
  6
DASHED
 10
2543.968701
 20
3666.463692
 30
0.0
 11
2543.968701
 21
3714.463692
 31
0.0
  0
LINE
  5
37D
  8
1
 10
3123.156001
 20
3696.463692
 30
0.0
 11
3142.171101
 21
3696.463692
 31
0.0
  0
LINE
  5
37E
  8
1
 10
2522.164301
 20
3696.463692
 30
0.0
 11
2521.184001
 21
3696.463692
 31
0.0
  0
LINE
  5
37F
  8
1
 10
2521.185501
 20
3684.463692
 30
0.0
 11
2502.168901
 21
3684.463792
 31
0.0
  0
LINE
  5
380
  8
1
 10
2521.184001
 20
3696.463692
 30
0.0
 11
2502.168901
 21
3696.463692
 31
0.0
  0
LINE
  5
381
  8
1
 10
2502.168901
 20
3666.463592
 30
0.0
 11
2547.169201
 21
3666.463692
 31
0.0
  0
LINE
  5
382
  8
1
 10
2502.168901
 20
3714.463492
 30
0.0
 11
2502.168901
 21
3696.463592
 31
0.0
  0
LINE
  5
383
  8
1
  6
DASHED
 10
2553.169801
 20
2249.85096
 30
0.0
 11
2547.169801
 21
2239.85096
 31
0.0
  0
LINE
  5
384
  8
1
  6
DASHED
 10
2547.170001
 20
2207.85096
 30
0.0
 11
2553.170001
 21
2197.85096
 31
0.0
  0
LINE
  5
385
  8
1
  6
DASHED
 10
2553.170001
 20
2197.85096
 30
0.0
 11
2547.170001
 21
2187.85096
 31
0.0
  0
LINE
  5
386
  8
1
  6
DASHED
 10
2547.169801
 20
2187.85096
 30
0.0
 11
2547.170001
 21
2155.35096
 31
0.0
  0
LINE
  5
387
  8
1
  6
DASHED
 10
2547.169301
 20
2239.85096
 30
0.0
 11
2547.169501
 21
2207.85096
 31
0.0
  0
LINE
  5
388
  8
1
  6
DASHED
 10
2547.169001
 20
2291.85096
 30
0.0
 11
2547.169301
 21
2259.85096
 31
0.0
  0
LINE
  5
389
  8
1
 10
3097.169201
 20
3641.463792
 30
0.0
 11
3125.169201
 21
3641.463992
 31
0.0
  0
LINE
  5
38A
  8
1
 10
3129.168901
 20
3627.463992
 30
0.0
 11
3135.169201
 21
3627.463992
 31
0.0
  0
LINE
  5
38B
  8
1
 10
3129.168701
 20
3645.463992
 30
0.0
 11
3135.168901
 21
3645.463992
 31
0.0
  0
LINE
  5
38C
  8
1
 10
3125.169201
 20
3629.463992
 30
0.0
 11
3128.169201
 21
3629.463992
 31
0.0
  0
LINE
  5
38D
  8
1
 10
3125.169201
 20
3643.463992
 30
0.0
 11
3128.169201
 21
3643.463992
 31
0.0
  0
LINE
  5
38E
  8
1
 10
3135.870301
 20
3629.463992
 30
0.0
 11
3139.169201
 21
3629.463992
 31
0.0
  0
LINE
  5
38F
  8
1
 10
3135.870801
 20
3643.464192
 30
0.0
 11
3139.169201
 21
3643.463992
 31
0.0
  0
LINE
  5
390
  8
1
 10
3136.168901
 20
3640.963992
 30
0.0
 11
3136.168901
 21
3636.463992
 31
0.0
  0
LINE
  5
391
  8
1
 10
3136.168901
 20
3636.463992
 30
0.0
 11
3136.168901
 21
3631.963992
 31
0.0
  0
ARC
  5
392
  8
1
 10
3125.543901
 20
3631.963992
 30
0.0
 40
10.625
 50
334.942
 51
25.0573
  0
ARC
  5
393
  8
1
 10
3138.793901
 20
3631.963992
 30
0.0
 40
10.625
 50
154.9422
 51
205.0575
  0
ARC
  5
394
  8
1
 10
3138.793901
 20
3640.963992
 30
0.0
 40
10.625
 50
154.9422
 51
205.0575
  0
ARC
  5
395
  8
1
 10
3125.543901
 20
3640.963992
 30
0.0
 40
10.625
 50
334.942
 51
25.0574
  0
LINE
  5
396
  8
1
 10
4546.292901
 20
2488.85116
 30
0.0
 11
4548.292901
 21
2476.35096
 31
0.0
  0
LINE
  5
397
  8
1
 10
3123.154501
 20
3684.463692
 30
0.0
 11
3142.171101
 21
3684.463792
 31
0.0
  0
LINE
  5
398
  8
1
  6
DASHED
 10
4881.293901
 20
2344.35096
 30
0.0
 11
4881.293901
 21
2311.85146
 31
0.0
  0
LINE
  5
399
  8
1
  6
DASHED
 10
5321.293201
 20
2311.85116
 30
0.0
 11
5315.293201
 21
2301.85116
 31
0.0
  0
LINE
  5
39A
  8
1
  6
DASHED
 10
5315.293201
 20
2301.85116
 30
0.0
 11
5321.293201
 21
2291.85116
 31
0.0
  0
LINE
  5
39B
  8
1
  6
DASHED
 10
5321.292901
 20
2259.85116
 30
0.0
 11
5315.292901
 21
2249.85116
 31
0.0
  0
LINE
  5
39C
  8
1
  6
DASHED
 10
5315.292901
 20
2249.85116
 30
0.0
 11
5321.292901
 21
2239.85116
 31
0.0
  0
LINE
  5
39D
  8
1
  6
DASHED
 10
5321.293201
 20
2207.85116
 30
0.0
 11
5315.293201
 21
2197.85116
 31
0.0
  0
LINE
  5
39E
  8
1
  6
DASHED
 10
5315.293201
 20
2197.85116
 30
0.0
 11
5321.293201
 21
2187.85116
 31
0.0
  0
LINE
  5
39F
  8
1
  6
DASHED
 10
5321.293401
 20
2187.85116
 30
0.0
 11
5321.293201
 21
2155.35116
 31
0.0
  0
LINE
  5
3A0
  8
1
  6
DASHED
 10
5321.293401
 20
2239.85116
 30
0.0
 11
5321.293701
 21
2207.85116
 31
0.0
  0
LINE
  5
3A1
  8
1
  6
DASHED
 10
5321.293701
 20
2291.85116
 30
0.0
 11
5321.293401
 21
2259.85116
 31
0.0
  0
LINE
  5
3A2
  8
1
 10
4881.292701
 20
2377.34946
 30
0.0
 11
4881.292901
 21
2344.34946
 31
0.0
  0
LINE
  5
3A3
  8
1
 10
5021.293201
 20
2587.35096
 30
0.0
 11
5021.293201
 21
2377.35096
 31
0.0
  0
LINE
  5
3A4
  8
1
 10
5321.292701
 20
2377.35096
 30
0.0
 11
5321.293201
 21
2344.35096
 31
0.0
  0
ARC
  5
3A5
  8
1
 10
2522.174601
 20
3690.463692
 30
0.0
 40
6.0
 50
269.8105
 51
0.0
  0
CIRCLE
  5
3A6
  8
1
 10
4836.292901
 20
2500.35146
 30
0.0
 40
23.0
  0
LINE
  5
3A7
  8
1
 10
3128.169201
 20
3640.963992
 30
0.0
 11
3128.169201
 21
3636.463992
 31
0.0
  0
LINE
  5
3A8
  8
1
 10
3128.169201
 20
3636.463992
 30
0.0
 11
3128.169201
 21
3631.963992
 31
0.0
  0
LINE
  5
3A9
  8
1
 10
3139.169201
 20
3625.463992
 30
0.0
 11
3150.668901
 21
3625.463992
 31
0.0
  0
LINE
  5
3AA
  8
1
 10
3139.169201
 20
3647.463992
 30
0.0
 11
3150.668901
 21
3647.463992
 31
0.0
  0
ARC
  5
3AB
  8
1
 10
2522.174601
 20
3690.463692
 30
0.0
 40
6.0
 50
0.0
 51
90.0993
  0
LINE
  5
3AC
  8
1
 10
3139.169201
 20
3647.463992
 30
0.0
 11
3139.169201
 21
3641.963992
 31
0.0
  0
LINE
  5
3AD
  8
1
 10
3139.169201
 20
3641.963992
 30
0.0
 11
3139.169201
 21
3636.463992
 31
0.0
  0
LINE
  5
3AE
  8
1
 10
3139.169201
 20
3636.463992
 30
0.0
 11
3139.169201
 21
3630.963992
 31
0.0
  0
LINE
  5
3AF
  8
1
 10
2522.154901
 20
3684.463692
 30
0.0
 11
2521.185501
 21
3684.463692
 31
0.0
  0
LINE
  5
3B0
  8
1
 10
2522.172701
 20
4326.463692
 30
0.0
 11
2521.185001
 21
4326.463692
 31
0.0
  0
LINE
  5
3B1
  8
1
 10
2522.172801
 20
4314.463692
 30
0.0
 11
2521.186501
 21
4314.463692
 31
0.0
  0
LINE
  5
3B2
  8
1
 10
3123.153501
 20
4314.463692
 30
0.0
 11
3122.184501
 21
4314.463692
 31
0.0
  0
ARC
  5
3B3
  8
1
 10
3122.176501
 20
4320.463692
 30
0.0
 40
6.0
 50
89.8924
 51
270.0766
  0
LINE
  5
3B4
  8
1
 10
3097.168901
 20
3545.463792
 30
0.0
 11
3097.169201
 21
4345.463692
 31
0.0
  0
LINE
  5
3B5
  8
1
 10
4881.292901
 20
2344.34946
 30
0.0
 11
5321.293201
 21
2344.35096
 31
0.0
  0
LINE
  5
3B6
  8
1
 10
3154.169201
 20
2417.33406
 30
0.0
 11
3154.169301
 21
2392.33406
 31
0.0
  0
LINE
  5
3B7
  8
1
  6
DASHED
 10
3100.371301
 20
3666.463692
 30
0.0
 11
3100.371301
 21
3714.463692
 31
0.0
  0
LINE
  5
3B8
  8
1
 10
3104.169301
 20
2238.60046
 30
0.0
 11
3154.169301
 21
2238.60046
 31
0.0
  0
LINE
  5
3B9
  8
1
  6
DASHDOT
 10
4961.292901
 20
2579.35096
 30
0.0
 11
4961.292901
 21
2535.35096
 31
0.0
  0
LINE
  5
3BA
  8
1
 10
2547.169001
 20
3545.463992
 30
0.0
 11
3097.168901
 21
3545.463692
 31
0.0
  0
LINE
  5
3BB
  8
1
 10
3139.169201
 20
3630.963992
 30
0.0
 11
3139.169201
 21
3625.463992
 31
0.0
  0
LINE
  5
3BC
  8
1
 10
3157.169201
 20
3643.463692
 30
0.0
 11
3157.169201
 21
3641.963992
 31
0.0
  0
LINE
  5
3BD
  8
1
 10
3157.169201
 20
3641.963992
 30
0.0
 11
3157.169201
 21
3636.463992
 31
0.0
  0
LINE
  5
3BE
  8
1
 10
3157.169201
 20
3636.463992
 30
0.0
 11
3157.169201
 21
3630.963992
 31
0.0
  0
LINE
  5
3BF
  8
1
 10
3157.169201
 20
3630.963992
 30
0.0
 11
3157.169201
 21
3629.463992
 31
0.0
  0
ARC
  5
3C0
  8
1
 10
3141.335701
 20
3630.963992
 30
0.0
 40
10.8333
 50
329.4892
 51
30.5102
  0
ARC
  5
3C1
  8
1
 10
3150.002901
 20
3630.964192
 30
0.0
 40
10.8333
 50
149.4894
 51
210.5104
  0
ARC
  5
3C2
  8
1
 10
3150.002901
 20
3641.963692
 30
0.0
 40
10.8333
 50
149.4894
 51
210.5103
  0
ARC
  5
3C3
  8
1
 10
3141.335701
 20
3641.963992
 30
0.0
 40
10.8333
 50
329.4892
 51
30.5102
  0
ARC
  5
3C4
  8
1
 10
3157.263201
 20
3622.029592
 30
0.0
 40
7.4349
 50
90.7241
 51
152.489
  0
LINE
  5
3C5
  8
1
 10
3123.155001
 20
4326.463692
 30
0.0
 11
3122.187701
 21
4326.463692
 31
0.0
  0
LINE
  5
3C6
  8
1
  6
DASHDOT
 10
2547.169901
 20
4320.463692
 30
0.0
 11
2502.169901
 21
4320.463692
 31
0.0
  0
LINE
  5
3C7
  8
1
 10
2502.169901
 20
4314.463792
 30
0.0
 11
2502.169901
 21
4296.463492
 31
0.0
  0
LINE
  5
3C8
  8
1
  6
DASHED
 10
3100.370301
 20
4296.463692
 30
0.0
 11
3100.370301
 21
4344.463692
 31
0.0
  0
LINE
  5
3C9
  8
1
 10
3123.154501
 20
3684.463692
 30
0.0
 11
3122.198701
 21
3684.463692
 31
0.0
  0
LINE
  5
3CA
  8
1
 10
3123.153501
 20
4314.463692
 30
0.0
 11
3142.170101
 21
4314.463792
 31
0.0
  0
LINE
  5
3CB
  8
1
 10
3123.155001
 20
4326.463692
 30
0.0
 11
3142.170101
 21
4326.463692
 31
0.0
  0
LINE
  5
3CC
  8
1
 10
3142.170101
 20
4296.463492
 30
0.0
 11
3097.169901
 21
4296.463692
 31
0.0
  0
ARC
  5
3CD
  8
1
 10
4566.292901
 20
2476.35096
 30
0.0
 40
18.0
 50
180.0
 51
0.0
  0
ARC
  5
3CE
  8
1
 10
3122.176201
 20
3690.463692
 30
0.0
 40
6.0
 50
89.9569
 51
270.2135
  0
LINE
  5
3CF
  8
1
 10
3123.156001
 20
3696.463692
 30
0.0
 11
3122.180601
 21
3696.463692
 31
0.0
  0
ARC
  5
3D0
  8
1
 10
4566.292901
 20
2476.35096
 30
0.0
 40
18.0
 50
180.0003
 51
0.0
  0
LINE
  5
3D1
  8
1
 10
4881.292901
 20
2362.34946
 30
0.0
 11
5321.293201
 21
2362.35096
 31
0.0
  0
LINE
  5
3D2
  8
1
 10
4824.287801
 20
2087.99646
 30
0.0
 11
4824.288301
 21
2092.34976
 31
0.0
  0
ARC
  5
3D3
  8
1
 10
5350.886201
 20
2142.35096
 30
0.0
 40
60.0
 50
270.0004
 51
295.0581
  0
LINE
  5
3D4
  8
1
  6
DASHDOT
 10
2757.169301
 20
2388.60046
 30
0.0
 11
2757.169401
 21
2698.60046
 31
0.0
  0
LINE
  5
3D5
  8
1
 10
4881.292701
 20
2155.34976
 30
0.0
 11
4881.293201
 21
2092.35026
 31
0.0
  0
LINE
  5
3D6
  8
1
 10
5376.292401
 20
2092.35146
 30
0.0
 11
4824.287801
 21
2092.34976
 31
0.0
  0
LINE
  5
3D7
  8
1
 10
4849.699901
 20
2082.34996
 30
0.0
 11
5350.886401
 21
2082.35096
 31
0.0
  0
LINE
  5
3D8
  8
1
 10
5321.292701
 20
2155.35116
 30
0.0
 11
5321.293401
 21
2092.35146
 31
0.0
  0
ARC
  5
3D9
  8
1
 10
4849.699901
 20
2142.34946
 30
0.0
 40
60.0
 50
244.9426
 51
270.0004
  0
LINE
  5
3DA
  8
1
 10
5376.292701
 20
2092.35146
 30
0.0
 11
5376.292701
 21
2087.99866
 31
0.0
  0
LINE
  5
3DB
  8
1
 10
4881.293201
 20
2122.34996
 30
0.0
 11
5321.293201
 21
2122.35116
 31
0.0
  0
LINE
  5
3DC
  8
1
  6
DASHDOT
 10
4500.292901
 20
2477.35116
 30
0.0
 11
4512.292901
 21
2477.35116
 31
0.0
  0
LINE
  5
3DD
  8
1
  6
DASHDOT
 10
4506.293201
 20
2615.35116
 30
0.0
 11
4506.292901
 21
2469.35146
 31
0.0
  0
CIRCLE
  5
3DE
  8
1
 10
4506.292901
 20
2607.35096
 30
0.0
 40
2.35
  0
CIRCLE
  5
3DF
  8
1
 10
4506.292901
 20
2542.35096
 30
0.0
 40
2.35
  0
CIRCLE
  5
3E0
  8
1
 10
4506.292901
 20
2477.35096
 30
0.0
 40
2.35
  0
LINE
  5
3E1
  8
1
 10
4553.169201
 20
3774.06675
 30
0.0
 11
5059.169001
 21
3774.06675
 31
0.0
  0
LINE
  5
3E2
  8
1
  6
DASHDOT
 10
4500.297801
 20
2607.35216
 30
0.0
 11
4512.297801
 21
2607.35116
 31
0.0
  0
LINE
  5
3E3
  8
1
 10
4516.293201
 20
2674.85066
 30
0.0
 11
4516.293201
 21
2654.85096
 31
0.0
  0
LINE
  5
3E4
  8
1
 10
4516.293201
 20
2649.85096
 30
0.0
 11
4516.292901
 21
2434.85116
 31
0.0
  0
LINE
  5
3E5
  8
1
 10
4516.292901
 20
2429.85096
 30
0.0
 11
4516.292901
 21
2409.85066
 31
0.0
  0
LINE
  5
3E6
  8
1
  6
DASHDOT
 10
2887.169001
 20
3524.463792
 30
0.0
 11
2887.169001
 21
3536.463792
 31
0.0
  0
LINE
  5
3E7
  8
1
  6
DASHDOT
 10
2627.169001
 20
3524.463792
 30
0.0
 11
2627.169001
 21
3536.463792
 31
0.0
  0
LINE
  5
3E8
  8
1
  6
DASHDOT
 10
5101.295401
 20
2397.35246
 30
0.0
 11
5101.290501
 21
2062.35046
 31
0.0
  0
TEXT
  5
3E9
  8
2
 10
4716.669434
 20
2988.600098
 30
0.0
 40
43.75
  1
（吸込パネル中心）
 41
0.75
  7
MONOTXT
  0
LINE
  5
3EA
  8
1
  6
DASHDOT
 10
4939.292901
 20
2557.35096
 30
0.0
 11
4983.292901
 21
2557.35096
 31
0.0
  0
LINE
  5
3EB
  8
1
  6
DASHDOT
 10
4939.292901
 20
2422.35096
 30
0.0
 11
4983.292901
 21
2422.35096
 31
0.0
  0
LINE
  5
3EC
  8
1
  6
DASHDOT
 10
4961.292901
 20
2444.35096
 30
0.0
 11
4961.292901
 21
2400.35096
 31
0.0
  0
LINE
  5
3ED
  8
1
  6
DASHDOT
 10
3097.171101
 20
3690.463692
 30
0.0
 11
3142.171101
 21
3690.463692
 31
0.0
  0
LINE
  5
3EE
  8
1
 10
3142.171401
 20
3714.463292
 30
0.0
 11
3097.171401
 21
3714.463692
 31
0.0
  0
LINE
  5
3EF
  8
1
 10
3142.171101
 20
3684.463792
 30
0.0
 11
3142.171101
 21
3666.463492
 31
0.0
  0
ARC
  5
3F0
  8
1
 10
4633.293201
 20
2533.85096
 30
0.0
 40
2.5
 50
0.0
 51
90.0001
  0
ARC
  5
3F1
  8
1
 10
4628.793201
 20
2533.85096
 30
0.0
 40
2.5
 50
90.0001
 51
180.0002
  0
ARC
  5
3F2
  8
1
 10
4612.292901
 20
2526.35096
 30
0.0
 40
13.0
 50
179.9999
 51
0.0
  0
LINE
  5
3F3
  8
1
 10
4813.815401
 20
2499.35146
 30
0.0
 11
4858.771001
 21
2499.35146
 31
0.0
  0
LINE
  5
3F4
  8
1
 10
4858.770001
 20
2501.35146
 30
0.0
 11
4813.815401
 21
2501.35166
 31
0.0
  0
LINE
  5
3F5
  8
1
 10
4626.293401
 20
2533.85116
 30
0.0
 11
4625.292901
 21
2526.35096
 31
0.0
  0
ARC
  5
3F6
  8
1
 10
4595.793201
 20
2533.85046
 30
0.0
 40
2.5
 50
0.0
 51
90.0057
  0
ARC
  5
3F7
  8
1
 10
4589.792901
 20
2533.85026
 30
0.0
 40
2.5
 50
90.0001
 51
180.0002
  0
LINE
  5
3F8
  8
1
 10
4598.293401
 20
2533.85046
 30
0.0
 11
4599.292901
 21
2526.35096
 31
0.0
  0
LINE
  5
3F9
  8
1
 10
4587.292901
 20
2533.85026
 30
0.0
 11
4584.292901
 21
2476.35096
 31
0.0
  0
ARC
  5
3FA
  8
1
 10
4638.292401
 20
2413.85096
 30
0.0
 40
2.5
 50
180.0002
 51
270.0114
  0
ARC
  5
3FB
  8
1
 10
4534.292901
 20
2439.85066
 30
0.0
 40
2.5
 50
270.0002
 51
0.0
  0
LINE
  5
3FC
  8
1
  6
DASHDOT
 10
4566.292901
 20
2496.35096
 30
0.0
 11
4566.292901
 21
2456.35096
 31
0.0
  0
LINE
  5
3FD
  8
1
  6
DASHDOT
 10
4546.292901
 20
2476.35096
 30
0.0
 11
4586.292901
 21
2476.35096
 31
0.0
  0
LINE
  5
3FE
  8
1
  6
DASHDOT
 10
4612.292901
 20
2541.35096
 30
0.0
 11
4612.292901
 21
2511.35096
 31
0.0
  0
LINE
  5
3FF
  8
1
  6
DASHDOT
 10
4597.292901
 20
2526.35096
 30
0.0
 11
4627.292901
 21
2526.35096
 31
0.0
  0
ARC
  5
400
  8
1
 10
2589.669401
 20
2467.35196
 30
0.0
 40
3.5
 50
180.0001
 51
0.0
  0
ARC
  5
401
  8
1
 10
2924.669401
 20
2617.35146
 30
0.0
 40
3.5
 50
0.0
 51
180.0002
  0
LINE
  5
402
  8
1
 10
4773.293201
 20
2457.35146
 30
0.0
 11
4899.292901
 21
2457.35116
 31
0.0
  0
LINE
  5
403
  8
1
 10
4773.292901
 20
2663.35096
 30
0.0
 11
4899.292901
 21
2663.35096
 31
0.0
  0
LINE
  5
404
  8
1
 10
3126.738201
 20
3579.465992
 30
0.0
 11
3114.580801
 21
3579.463592
 31
0.0
  0
LINE
  5
405
  8
1
 10
4763.293201
 20
2653.35096
 30
0.0
 11
4763.292901
 21
2467.35116
 31
0.0
  0
ARC
  5
406
  8
1
 10
2924.669401
 20
2606.35146
 30
0.0
 40
7.0
 50
120.001
 51
60.0009
  0
ARC
  5
407
  8
1
 10
2589.669401
 20
2478.35196
 30
0.0
 40
7.0
 50
299.9996
 51
239.9996
  0
LINE
  5
408
  8
1
 10
4909.292901
 20
2653.35116
 30
0.0
 11
4909.292901
 21
2467.35116
 31
0.0
  0
ARC
  5
409
  8
1
 10
4899.292901
 20
2467.35116
 30
0.0
 40
10.0
 50
270.0002
 51
0.0
  0
ARC
  5
40A
  8
1
 10
4899.292901
 20
2653.35096
 30
0.0
 40
10.0
 50
0.0
 51
90.0001
  0
ARC
  5
40B
  8
1
 10
4773.293201
 20
2653.35096
 30
0.0
 40
10.0
 50
90.0001
 51
180.0002
  0
ARC
  5
40C
  8
1
 10
4773.292901
 20
2467.35116
 30
0.0
 40
10.0
 50
180.0002
 51
270.0002
  0
LINE
  5
40D
  8
1
 10
4924.292901
 20
2587.35116
 30
0.0
 11
4924.292901
 21
2569.35096
 31
0.0
  0
LINE
  5
40E
  8
1
 10
4934.292701
 20
2597.35096
 30
0.0
 11
5011.293401
 21
2597.35116
 31
0.0
  0
LINE
  5
40F
  8
1
 10
3131.168901
 20
3581.467092
 30
0.0
 11
3127.565601
 21
3581.467292
 31
0.0
  0
CIRCLE
  5
410
  8
1
 10
4846.292901
 20
2407.35096
 30
0.0
 40
25.0
  0
CIRCLE
  5
411
  8
1
 10
4846.292901
 20
2407.35096
 30
0.0
 40
10.0
  0
CIRCLE
  5
412
  8
1
 10
4836.293201
 20
2613.35116
 30
0.0
 40
20.0
  0
ARC
  5
413
  8
1
 10
4836.292901
 20
2475.35146
 30
0.0
 40
4.0
 50
0.0
 51
4.591
  0
ARC
  5
414
  8
1
 10
4836.292901
 20
2525.35146
 30
0.0
 40
4.0
 50
355.4124
 51
0.0
  0
ARC
  5
415
  8
1
 10
4869.092501
 20
2383.35066
 30
0.0
 40
6.0
 50
180.0001
 51
291.5096
  0
ARC
  5
416
  8
1
 10
4823.492901
 20
2383.35096
 30
0.0
 40
6.0
 50
0.0
 51
14.8329
  0
ARC
  5
417
  8
1
 10
4823.492901
 20
2383.35096
 30
0.0
 40
6.0
 50
248.4908
 51
0.0
  0
ARC
  5
418
  8
1
 10
5011.292701
 20
2587.35096
 30
0.0
 40
10.0
 50
0.0
 51
89.9973
  0
ARC
  5
419
  8
1
 10
4934.292901
 20
2587.35116
 30
0.0
 40
10.0
 50
90.0001
 51
180.0016
  0
LINE
  5
41A
  8
1
 10
4926.292901
 20
2567.35096
 30
0.0
 11
4939.475601
 21
2567.35116
 31
0.0
  0
LINE
  5
41B
  8
1
 10
4926.293201
 20
2547.35116
 30
0.0
 11
4939.475801
 21
2547.35116
 31
0.0
  0
LINE
  5
41C
  8
1
 10
4924.293201
 20
2545.35146
 30
0.0
 11
4924.293401
 21
2442.35096
 31
0.0
  0
ARC
  5
41D
  8
1
 10
4926.292901
 20
2569.35096
 30
0.0
 40
2.0
 50
180.0002
 51
270.0002
  0
ARC
  5
41E
  8
1
 10
4926.292901
 20
2545.35146
 30
0.0
 40
2.0
 50
89.9861
 51
180.0002
  0
LINE
  5
41F
  8
1
 10
4929.293401
 20
2397.35096
 30
0.0
 11
4936.282901
 21
2397.35096
 31
0.0
  0
LINE
  5
420
  8
1
 10
4929.293701
 20
2412.35066
 30
0.0
 11
4939.475601
 21
2412.35096
 31
0.0
  0
LINE
  5
421
  8
1
 10
4936.282901
 20
2397.35096
 30
0.0
 11
4936.281501
 21
2377.35096
 31
0.0
  0
LINE
  5
422
  8
1
 10
4934.293401
 20
2432.35096
 30
0.0
 11
4939.475601
 21
2432.35096
 31
0.0
  0
LINE
  5
423
  8
1
 10
4924.293901
 20
2407.35096
 30
0.0
 11
4924.293901
 21
2402.35116
 31
0.0
  0
ARC
  5
424
  8
1
 10
4934.293401
 20
2442.35096
 30
0.0
 40
10.0
 50
180.0002
 51
270.0002
  0
ARC
  5
425
  8
1
 10
4929.293701
 20
2407.35026
 30
0.0
 40
5.0
 50
90.0001
 51
179.9946
  0
ARC
  5
426
  8
1
 10
4929.293701
 20
2402.35116
 30
0.0
 40
5.0
 50
180.0002
 51
270.0002
  0
LINE
  5
427
  8
1
 10
2921.169401
 20
2617.35166
 30
0.0
 11
2921.169401
 21
2612.41366
 31
0.0
  0
LINE
  5
428
  8
1
 10
3142.169901
 20
4344.463392
 30
0.0
 11
3142.170101
 21
4326.463592
 31
0.0
  0
LINE
  5
429
  8
1
  6
DIVIDE
 10
3122.176501
 20
4340.463692
 30
0.0
 11
3122.176501
 21
4300.464192
 31
0.0
  0
LINE
  5
42A
  8
1
  6
DIVIDE
 10
2522.174601
 20
3710.463692
 30
0.0
 11
2522.174601
 21
3670.464192
 31
0.0
  0
LINE
  5
42B
  8
1
 10
3147.169201
 20
2610.35096
 30
0.0
 11
3147.169201
 21
2595.35096
 31
0.0
  0
LINE
  5
42C
  8
1
  6
DASHDOT
 10
2529.669401
 20
2542.35166
 30
0.0
 11
2946.669401
 21
2542.35166
 31
0.0
  0
ARC
  5
42D
  8
1
 10
3157.263201
 20
3650.898292
 30
0.0
 40
7.4349
 50
207.5107
 51
269.2756
  0
LINE
  5
42E
  8
1
 10
2586.169401
 20
2617.35166
 30
0.0
 11
2586.169401
 21
2612.41366
 31
0.0
  0
LINE
  5
42F
  8
1
 10
2593.169401
 20
2617.35166
 30
0.0
 11
2593.169401
 21
2612.41366
 31
0.0
  0
ARC
  5
430
  8
1
 10
2589.669401
 20
2606.35146
 30
0.0
 40
7.0
 50
120.001
 51
60.0009
  0
ARC
  5
431
  8
1
 10
3147.184801
 20
3582.713792
 30
0.0
 40
16.0161
 50
151.0601
 51
208.9394
  0
LINE
  5
432
  8
1
 10
3126.738501
 20
3601.460792
 30
0.0
 11
3114.580501
 21
3601.463492
 31
0.0
  0
LINE
  5
433
  8
1
 10
3111.169201
 20
3581.463192
 30
0.0
 11
3113.753101
 21
3581.463792
 31
0.0
  0
LINE
  5
434
  8
1
 10
3129.169401
 20
3584.973792
 30
0.0
 11
3129.169401
 21
3585.192692
 31
0.0
  0
ARC
  5
435
  8
1
 10
3157.211901
 20
3567.472392
 30
0.0
 40
10.9915
 50
90.2244
 51
137.0336
  0
LINE
  5
436
  8
1
 10
3127.565401
 20
3599.460892
 30
0.0
 11
3131.168701
 21
3599.459992
 31
0.0
  0
ARC
  5
437
  8
1
 10
2589.669401
 20
2617.35146
 30
0.0
 40
3.5
 50
0.0
 51
180.0002
  0
LINE
  5
438
  8
1
 10
3097.168901
 20
3857.963592
 30
0.0
 11
3153.338601
 21
3857.963592
 31
0.0
  0
LINE
  5
439
  8
1
 10
2928.169401
 20
2617.35166
 30
0.0
 11
2928.169401
 21
2612.41366
 31
0.0
  0
LINE
  5
43A
  8
1
 10
2593.169401
 20
2467.35166
 30
0.0
 11
2593.169401
 21
2472.28966
 31
0.0
  0
LINE
  5
43B
  8
1
 10
2586.169401
 20
2467.35166
 30
0.0
 11
2586.169401
 21
2472.28966
 31
0.0
  0
LINE
  5
43C
  8
1
 10
4521.292901
 20
2677.35096
 30
0.0
 11
4521.292901
 21
2377.35096
 31
0.0
  0
LINE
  5
43D
  8
1
  6
DIVIDE
 10
4836.293201
 20
2637.35116
 30
0.0
 11
4836.293201
 21
2589.35116
 31
0.0
  0
LINE
  5
43E
  8
1
 10
2547.169201
 20
2677.35166
 30
0.0
 11
3097.169201
 21
2677.35096
 31
0.0
  0
LINE
  5
43F
  8
1
 10
2928.169401
 20
2467.35146
 30
0.0
 11
2928.169401
 21
2472.28946
 31
0.0
  0
LINE
  5
440
  8
1
 10
4553.169201
 20
3789.06695
 30
0.0
 11
5059.169001
 21
3789.06675
 31
0.0
  0
LINE
  5
441
  8
1
  6
DIVIDE
 10
4812.293201
 20
2613.35116
 30
0.0
 11
4860.293201
 21
2613.35116
 31
0.0
  0
LINE
  5
442
  8
1
 10
2921.169401
 20
2467.35146
 30
0.0
 11
2921.169401
 21
2472.28946
 31
0.0
  0
ARC
  5
443
  8
1
 10
2924.669401
 20
2478.35166
 30
0.0
 40
7.0
 50
299.9996
 51
239.9996
  0
ARC
  5
444
  8
1
 10
2924.669401
 20
2467.35166
 30
0.0
 40
3.5
 50
180.0001
 51
0.0
  0
LINE
  5
445
  8
1
 10
3128.169201
 20
3595.971892
 30
0.0
 11
3128.168901
 21
3584.973792
 31
0.0
  0
LINE
  5
446
  8
1
  6
DASHDOT
 10
2822.169201
 20
3504.214192
 30
0.0
 11
2822.169001
 21
4345.463992
 31
0.0
  0
LINE
  5
447
  8
1
 10
3103.168901
 20
3690.463592
 30
0.0
 11
3125.168901
 21
3690.463792
 31
0.0
  0
LINE
  5
448
  8
1
 10
3111.169601
 20
3599.464392
 30
0.0
 11
3113.753401
 21
3599.463992
 31
0.0
  0
LINE
  5
449
  8
1
 10
3129.168901
 20
3590.463792
 30
0.0
 11
3131.168901
 21
3590.463792
 31
0.0
  0
LINE
  5
44A
  8
1
 10
3131.168901
 20
3605.963792
 30
0.0
 11
3131.168901
 21
3574.963792
 31
0.0
  0
ARC
  5
44B
  8
1
 10
3147.184801
 20
3598.213792
 30
0.0
 40
16.0161
 50
151.0603
 51
208.9396
  0
ARC
  5
44C
  8
1
 10
3135.152601
 20
3598.213792
 30
0.0
 40
16.0161
 50
331.0599
 51
28.9393
  0
ARC
  5
44D
  8
1
 10
3157.211901
 20
3613.455292
 30
0.0
 40
10.9915
 50
222.9662
 51
269.7753
  0
LINE
  5
44E
  8
1
 10
3113.169201
 20
3595.971892
 30
0.0
 11
3113.168901
 21
3584.973792
 31
0.0
  0
LINE
  5
44F
  8
1
 10
3131.168901
 20
3605.963792
 30
0.0
 11
3149.168701
 21
3605.963792
 31
0.0
  0
LINE
  5
450
  8
1
 10
3131.168901
 20
3574.963792
 30
0.0
 11
3149.168901
 21
3574.963792
 31
0.0
  0
LINE
  5
451
  8
1
 10
3157.168701
 20
3602.463792
 30
0.0
 11
3157.168901
 21
3578.463792
 31
0.0
  0
LINE
  5
452
  8
1
 10
3097.168901
 20
3598.463792
 30
0.0
 11
3111.169401
 21
3598.463792
 31
0.0
  0
LINE
  5
453
  8
1
 10
3097.168901
 20
3582.463792
 30
0.0
 11
3111.168901
 21
3582.463692
 31
0.0
  0
LINE
  5
454
  8
1
 10
4553.169201
 20
3804.06675
 30
0.0
 11
5059.169201
 21
3804.06675
 31
0.0
  0
LINE
  5
455
  8
1
 10
4553.169201
 20
3819.06695
 30
0.0
 11
5059.169001
 21
3819.06675
 31
0.0
  0
LINE
  5
456
  8
1
 10
4553.169201
 20
3834.06675
 30
0.0
 11
5059.169001
 21
3834.06675
 31
0.0
  0
LINE
  5
457
  8
1
 10
4553.169201
 20
3849.06675
 30
0.0
 11
5059.169001
 21
3849.06675
 31
0.0
  0
LINE
  5
458
  8
1
 10
4553.169201
 20
3864.06675
 30
0.0
 11
5059.169001
 21
3864.06675
 31
0.0
  0
LINE
  5
459
  8
1
 10
4553.169201
 20
3879.06675
 30
0.0
 11
5059.169001
 21
3879.06675
 31
0.0
  0
LINE
  5
45A
  8
1
 10
4553.169201
 20
3894.06675
 30
0.0
 11
5059.169001
 21
3894.06675
 31
0.0
  0
LINE
  5
45B
  8
1
  6
DIVIDE
 10
3085.538501
 20
3870.463592
 30
0.0
 11
3162.443801
 21
3870.463692
 31
0.0
  0
LINE
  5
45C
  8
1
 10
3147.169201
 20
2610.35096
 30
0.0
 11
3097.169201
 21
2610.35096
 31
0.0
  0
LINE
  5
45D
  8
1
 10
3097.168901
 20
3850.463592
 30
0.0
 11
3139.873301
 21
3850.463592
 31
0.0
  0
LINE
  5
45E
  8
1
 10
3139.873301
 20
3850.463592
 30
0.0
 11
3139.873301
 21
3870.463592
 31
0.0
  0
LINE
  5
45F
  8
1
  6
DIVIDE
 10
3085.538501
 20
3860.463592
 30
0.0
 11
3162.443801
 21
3860.463592
 31
0.0
  0
LINE
  5
460
  8
1
 10
3097.168901
 20
3882.963592
 30
0.0
 11
3153.338601
 21
3882.963592
 31
0.0
  0
LINE
  5
461
  8
1
 10
3153.338601
 20
3857.963592
 30
0.0
 11
3153.338601
 21
3882.963592
 31
0.0
  0
LINE
  5
462
  8
1
 10
3097.169201
 20
2392.33406
 30
0.0
 11
3154.169201
 21
2392.33406
 31
0.0
  0
LINE
  5
463
  8
1
  6
DIVIDE
 10
3083.990701
 20
2404.83406
 30
0.0
 11
3160.896001
 21
2404.83386
 31
0.0
  0
LINE
  5
464
  8
1
 10
3097.169201
 20
2417.33406
 30
0.0
 11
3154.169201
 21
2417.33406
 31
0.0
  0
LINE
  5
466
  8
1
 10
5321.292901
 20
2677.35096
 30
0.0
 11
4521.292901
 21
2677.35096
 31
0.0
  0
LINE
  5
467
  8
1
  6
DASHDOT
 10
2907.169501
 20
2670.850068
 30
0.0
 11
2907.169501
 21
2659.159142
 31
0.0
  0
LINE
  5
468
  8
1
  6
DASHDOT
 10
2607.169201
 20
2671.432462
 30
0.0
 11
2607.169201
 21
2657.861446
 31
0.0
  0
LINE
  5
469
  8
1
 10
2502.220073
 20
2470.585435
 30
0.0
 11
2496.22697
 21
2470.585435
 31
0.0
  0
LINE
  5
46A
  8
1
 10
2502.220073
 20
2476.578639
 30
0.0
 11
2502.220073
 21
2470.585435
 31
0.0
  0
LINE
  5
46B
  8
1
 10
2541.175897
 20
2476.578639
 30
0.0
 11
2502.220073
 21
2476.578639
 31
0.0
  0
LINE
  5
46C
  8
1
 10
2547.169101
 20
2482.571843
 30
0.0
 11
2496.22687
 21
2482.572042
 31
0.0
  0
LINE
  5
46D
  8
1
 10
2496.22687
 20
2482.571843
 30
0.0
 11
2496.22687
 21
2470.585435
 31
0.0
  0
LINE
  5
46E
  8
1
 10
2541.175897
 20
2476.578639
 30
0.0
 11
2541.175897
 21
2422.639806
 31
0.0
  0
LINE
  5
46F
  8
1
 10
2541.175897
 20
2422.639806
 30
0.0
 11
2547.168002
 21
2422.639806
 31
0.0
  0
LINE
  5
470
  8
1
 10
4643.062024
 20
2482.571843
 30
0.0
 11
4643.062024
 21
2430.131511
 31
0.0
  0
LINE
  5
471
  8
1
 10
4643.062324
 20
2482.571843
 30
0.0
 11
4691.007653
 21
2482.571843
 31
0.0
  0
ARC
  5
472
  8
1
 10
4655.547865
 20
2430.131311
 30
0.0
 40
12.485841
 50
180.0002
 51
270.0002
  0
LINE
  5
473
  8
1
 10
4655.548164
 20
2417.64567
 30
0.0
 11
4678.521812
 21
2417.64567
 31
0.0
  0
ARC
  5
474
  8
1
 10
4678.521812
 20
2430.131511
 30
0.0
 40
12.485841
 50
270.0002
 51
0.0
  0
LINE
  5
475
  8
1
 10
4691.007653
 20
2482.571843
 30
0.0
 11
4691.007653
 21
2430.131511
 31
0.0
  0
LINE
  5
476
  8
1
 10
4677.02431
 20
2470.585935
 30
0.0
 11
4691.008152
 21
2470.586934
 31
0.0
  0
LINE
  5
477
  8
1
 10
4672.029674
 20
2482.572342
 30
0.0
 11
4672.029474
 21
2475.580471
 31
0.0
  0
LINE
  5
478
  8
1
 10
4662.040802
 20
2482.571843
 30
0.0
 11
4662.040802
 21
2475.579772
 31
0.0
  0
ARC
  5
479
  8
1
 10
4657.046465
 20
2475.579772
 30
0.0
 40
4.994336
 50
270.0002
 51
0.0
  0
LINE
  5
47A
  8
1
 10
4643.062324
 20
2470.585435
 30
0.0
 11
4657.046665
 21
2470.585435
 31
0.0
  0
ARC
  5
47B
  8
1
 10
4677.023811
 20
2475.580271
 30
0.0
 40
4.994336
 50
180.0002
 51
270.003
  0
LINE
  5
47C
  8
1
 10
5272.348904
 20
2482.571843
 30
0.0
 11
5320.294333
 21
2482.571843
 31
0.0
  0
LINE
  5
47D
  8
1
 10
5301.316354
 20
2482.572342
 30
0.0
 11
5301.316055
 21
2475.580471
 31
0.0
  0
ARC
  5
47E
  8
1
 10
5306.310391
 20
2475.580271
 30
0.0
 40
4.994336
 50
180.0002
 51
270.003
  0
LINE
  5
47F
  8
1
 10
5291.327382
 20
2482.571843
 30
0.0
 11
5291.327382
 21
2475.579772
 31
0.0
  0
ARC
  5
480
  8
1
 10
5286.333046
 20
2475.579772
 30
0.0
 40
4.994336
 50
270.0002
 51
0.0
  0
LINE
  5
481
  8
1
 10
5272.348904
 20
2470.585435
 30
0.0
 11
5286.333345
 21
2470.585435
 31
0.0
  0
LINE
  5
482
  8
1
 10
5272.348704
 20
2482.571843
 30
0.0
 11
5272.348704
 21
2427.634143
 31
0.0
  0
ARC
  5
483
  8
1
 10
5282.337377
 20
2427.634143
 30
0.0
 40
9.988673
 50
180.0002
 51
270.0002
  0
LINE
  5
484
  8
1
 10
5282.337577
 20
2417.64547
 30
0.0
 11
5310.30566
 21
2417.64567
 31
0.0
  0
ARC
  5
485
  8
1
 10
5310.30566
 20
2427.634143
 30
0.0
 40
9.988673
 50
270.0002
 51
0.0
  0
LINE
  5
486
  8
1
 10
5320.294333
 20
2482.571843
 30
0.0
 11
5320.294333
 21
2427.633843
 31
0.0
  0
LINE
  5
487
  8
1
 10
5306.310891
 20
2470.585935
 30
0.0
 11
5320.294833
 21
2470.586934
 31
0.0
  0
TEXT
  8
3
  40
100
  5
4E2
  72
0
  71
0
 10
5665.18
 20
3047.98
 30
0.000000
  1

  0
TEXT
  8
3
  40
100
  5
4E3
  72
0
  71
0
 10
5665.18
 20
2917.98
 30
0.000000
  1

  0
TEXT
  8
3
  40
100
  5
4E4
  72
0
  71
0
 10
5665.18
 20
2787.98
 30
0.000000
  1
GBS16_1
  0
TEXT
  8
3
  40
100
  5
4E5
  72
0
  71
0
 10
5665.18
 20
2657.98
 30
0.000000
  1
FXYS20KV1
  0
TEXT
  8
3
  40
100
  5
4E6
  72
0
  71
0
 10
5665.18
 20
2527.98
 30
0.000000
  1
FXYS25KV1
  0
TEXT
  8
3
  40
100
  5
4E7
  72
0
  71
0
 10
5665.18
 20
2397.98
 30
0.000000
  1
FXYS32KV1
  0
TEXT
  8
3
  40
100
  5
4E8
  72
0
  71
0
 10
5665.18
 20
2267.98
 30
0.000000
  1
FXYS20KVAL
  0
TEXT
  8
3
  40
100
  5
4E9
  72
0
  71
0
 10
5665.18
 20
2137.98
 30
0.000000
  1
FXYS25KVAL
  0
TEXT
  8
3
  40
100
  5
4EA
  72
0
  71
0
 10
5665.18
 20
2007.98
 30
0.000000
  1
FXYS32KVAL
  0
ENDSEC
  0
EOF
