  0
SECTION
  2
HEADER
  9
$ACADVER
  1
AC1009
  9
$DWGCODEPAGE
  3
dos932
  9
$INSBASE
 10
0.0
 20
0.0
 30
0.0
  9
$EXTMIN
 10
-5063.008927
 20
-1754.86
 30
0.0
  9
$EXTMAX
 10
2262.167303
 20
2663.16037
 30
0.0
  9
$LIMMIN
 10
0.0
 20
0.0
  9
$LIMMAX
 10
420.0
 20
296.987823
  9
$ORTHOMODE
 70
     0
  9
$REGENMODE
 70
     1
  9
$FILLMODE
 70
     1
  9
$QTEXTMODE
 70
     0
  9
$MIRRTEXT
 70
     0
  9
$DRAGMODE
 70
     2
  9
$LTSCALE
 40
1.0
  9
$OSMODE
 70
     0
  9
$ATTMODE
 70
     1
  9
$TEXTSIZE
 40
0.2
  9
$TRACEWID
 40
0.05
  9
$TEXTSTYLE
  7
STANDARD
  9
$CLAYER
  8
0
  9
$CELTYPE
  6
BYLAYER
  9
$CECOLOR
 62
   256
  9
$DIMSCALE
 40
1.0
  9
$DIMASZ
 40
0.18
  9
$DIMEXO
 40
3.0
  9
$DIMDLI
 40
0.38
  9
$DIMRND
 40
0.0
  9
$DIMDLE
 40
0.0
  9
$DIMEXE
 40
5.0
  9
$DIMTP
 40
0.0
  9
$DIMTM
 40
0.0
  9
$DIMTXT
 40
0.18
  9
$DIMCEN
 40
0.09
  9
$DIMTSZ
 40
0.0
  9
$DIMTOL
 70
     0
  9
$DIMLIM
 70
     0
  9
$DIMTIH
 70
     1
  9
$DIMTOH
 70
     1
  9
$DIMSE1
 70
     0
  9
$DIMSE2
 70
     0
  9
$DIMTAD
 70
     1
  9
$DIMZIN
 70
     0
  9
$DIMBLK
  1

  9
$DIMASO
 70
     1
  9
$DIMSHO
 70
     0
  9
$DIMPOST
  1

  9
$DIMAPOST
  1

  9
$DIMALT
 70
     0
  9
$DIMALTD
 70
     2
  9
$DIMALTF
 40
25.4
  9
$DIMLFAC
 40
1.0
  9
$DIMTOFL
 70
     0
  9
$DIMTVP
 40
1.0
  9
$DIMTIX
 70
     0
  9
$DIMSOXD
 70
     0
  9
$DIMSAH
 70
     0
  9
$DIMBLK1
  1

  9
$DIMBLK2
  1

  9
$DIMSTYLE
  2
STANDARD
  9
$DIMCLRD
 70
     0
  9
$DIMCLRE
 70
     0
  9
$DIMCLRT
 70
     0
  9
$DIMTFAC
 40
1.0
  9
$DIMGAP
 40
0.09
  9
$LUNITS
 70
     2
  9
$LUPREC
 70
     4
  9
$SKETCHINC
 40
0.1
  9
$FILLETRAD
 40
0.05
  9
$AUNITS
 70
     0
  9
$AUPREC
 70
     0
  9
$MENU
  1
acad
  9
$ELEVATION
 40
0.0
  9
$PELEVATION
 40
0.0
  9
$THICKNESS
 40
0.0
  9
$LIMCHECK
 70
     0
  9
$BLIPMODE
 70
     1
  9
$CHAMFERA
 40
0.0
  9
$CHAMFERB
 40
0.0
  9
$SKPOLY
 70
     0
  9
$TDCREATE
 40
0.0
  9
$TDUPDATE
 40
0.0
  9
$TDINDWG
 40
0.0
  9
$TDUSRTIMER
 40
0.0
  9
$USRTIMER
 70
     1
  9
$ANGBASE
 50
0.0
  9
$ANGDIR
 70
     0
  9
$PDMODE
 70
     0
  9
$PDSIZE
 40
0.0
  9
$PLINEWID
 40
0.0
  9
$COORDS
 70
     0
  9
$SPLFRAME
 70
     0
  9
$SPLINETYPE
 70
     6
  9
$SPLINESEGS
 70
     8
  9
$ATTDIA
 70
     1
  9
$ATTREQ
 70
     1
  9
$HANDLING
 70
     1
  9
$HANDSEED
  5
55B
  9
$SURFTAB1
 70
     6
  9
$SURFTAB2
 70
     6
  9
$SURFTYPE
 70
     6
  9
$SURFU
 70
     6
  9
$SURFV
 70
     6
  9
$UCSNAME
  2

  9
$UCSORG
 10
0.0
 20
0.0
 30
0.0
  9
$UCSXDIR
 10
1.0
 20
0.0
 30
0.0
  9
$UCSYDIR
 10
0.0
 20
1.0
 30
0.0
  9
$PUCSNAME
  2

  9
$PUCSORG
 10
0.0
 20
0.0
 30
0.0
  9
$PUCSXDIR
 10
1.0
 20
0.0
 30
0.0
  9
$PUCSYDIR
 10
0.0
 20
1.0
 30
0.0
  9
$USERI1
 70
     0
  9
$USERI2
 70
     0
  9
$USERI3
 70
     0
  9
$USERI4
 70
     0
  9
$USERI5
 70
     0
  9
$USERR1
 40
0.0
  9
$USERR2
 40
0.0
  9
$USERR3
 40
0.0
  9
$USERR4
 40
0.0
  9
$USERR5
 40
0.0
  9
$WORLDVIEW
 70
     1
  9
$SHADEDGE
 70
     3
  9
$SHADEDIF
 70
    70
  9
$TILEMODE
 70
     1
  9
$MAXACTVP
 70
    16
  9
$PINSBASE
 10
0.0
 20
0.0
 30
0.0
  9
$PLIMCHECK
 70
     0
  9
$PEXTMIN
 10
1.000000E+020
 20
1.000000E+020
 30
1.000000E+020
  9
$PEXTMAX
 10
-1.000000E+020
 20
-1.000000E+020
 30
-1.000000E+020
  9
$PLIMMIN
 10
0.0
 20
0.0
  9
$PLIMMAX
 10
12.0
 20
9.0
  9
$UNITMODE
 70
     0
  9
$VISRETAIN
 70
     0
  9
$PLINEGEN
 70
     0
  9
$PSLTSCALE
 70
     1
  9
$TREEDEPTH
 70
  3020
  0
ENDSEC
  0
SECTION
  2
TABLES
  0
TABLE
  2
VPORT
 70
     2
  0
VPORT
  2
*ACTIVE
 70
     0
 10
0.0
 20
0.0
 11
1.0
 21
1.0
 12
1119.943616
 22
-139.160381
 13
0.0
 23
0.0
 14
1.0
 24
1.0
 15
0.0
 25
0.0
 16
0.0
 26
0.0
 36
1.0
 17
0.0
 27
0.0
 37
0.0
 40
6462.798475
 41
1.938119
 42
50.0
 43
0.0
 44
0.0
 50
0.0
 51
0.0
 71
     0
 72
   100
 73
     1
 74
     1
 75
     0
 76
     0
 77
     0
 78
     0
  0
ENDTAB
  0
TABLE
  2
LTYPE
 70
     5
  0
LTYPE
  2
CONTINUOUS
 70
    64
  3
Solid line
 72
    65
 73
     0
 40
0.0
  0
LTYPE
  2
DASHDOT
 70
    64
  3
__ . __ . __ . __ . __ . __ . __ . __ . __ . __
 72
    65
 73
     4
 40
1.0
 49
0.5
 49
-0.25
 49
0.0
 49
-0.25
  0
LTYPE
  2
DIVIDE
 70
    64
  3
__ . . __ . . __ . . __ . . __ . . __ . . __
 72
    65
 73
     6
 40
1.25
 49
0.5
 49
-0.25
 49
0.0
 49
-0.25
 49
0.0
 49
-0.25
  0
LTYPE
  2
DASHED
 70
    64
  3
__ __ __ __ __ __ __ __ __ __ __ __ __ __ __
 72
    65
 73
     2
 40
0.75
 49
0.5
 49
-0.25
  0
LTYPE
  2
DOT
 70
    64
  3
...............................................
 72
    65
 73
     2
 40
0.25
 49
0.0
 49
-0.25
  0
ENDTAB
  0
TABLE
  2
LAYER
 70
     5
  0
LAYER
  2
0
 70
     0
 62
     7
  6
CONTINUOUS
  0
LAYER
  2
DEFPOINTS
 70
     0
 62
    -7
  6
CONTINUOUS
  0
LAYER
  2
1
 70
     0
 62
     7
  6
CONTINUOUS
  0
LAYER
  2
2
 70
     0
 62
     7
  6
CONTINUOUS
  0
LAYER
  2
3
 70
     0
 62
     7
  6
CONTINUOUS
  0
ENDTAB
  0
TABLE
  2
STYLE
 70
     3
  0
STYLE
  2
STANDARD
 70
    64
 40
100.0
 41
0.8
 50
0.0
 71
     0
 42
0.2
  3
txt
  4

  0
STYLE
  2
MONOTXT
 70
    64
 40
0.0
 41
0.5
 50
0.0
 71
     0
 42
4.191412
  3
monotxt
  4
BIGFONT
  0
STYLE
  2
VERTICAL
 70
    68
 40
0.0
 41
0.5
 50
0.0
 71
     0
 42
4.191412
  3
monotxt
  4
BIGFONT
  0
ENDTAB
  0
TABLE
  2
VIEW
 70
     0
  0
ENDTAB
  0
TABLE
  2
UCS
 70
     0
  0
ENDTAB
  0
TABLE
  2
APPID
 70
     1
  0
APPID
  2
ACAD
 70
     0
  0
ENDTAB
  0
TABLE
  2
DIMSTYLE
 70
     1
  0
DIMSTYLE
  2
STANDARD
 70
     0
  3

  4

  5

  6

  7

 40
1.0
 41
0.18
 42
0.0625
 43
0.38
 44
0.18
 45
0.0
 46
0.0
 47
0.0
 48
0.0
140
0.18
141
0.09
142
0.0
143
25.4
144
1.0
145
0.0
146
1.0
147
0.09
 71
     0
 72
     0
 73
     1
 74
     1
 75
     0
 76
     0
 77
     0
 78
     0
170
     0
171
     2
172
     0
173
     0
174
     0
175
     0
176
     0
177
     0
178
     0
  0
ENDTAB
  0
ENDSEC
  0
SECTION
  2
BLOCKS
  0
BLOCK
  5
51F
  8
0
  2
$MODEL_SPACE
 70
     0
 10
0.0
 20
0.0
 30
0.0
  3
$MODEL_SPACE
  1

  0
ENDBLK
  5
520
  8
0
  0
BLOCK
  5
51C
 67
     1
  8
0
  2
$PAPER_SPACE
 70
     0
 10
0.0
 20
0.0
 30
0.0
  3
$PAPER_SPACE
  1

  0
ENDBLK
  5
51D
 67
     1
  8
0
  0
BLOCK
  5
2B
  8
2
  2
*D2
 70
    65
 10
0.0
 20
0.0
 30
0.0
  3
*D2
  1

  0
POINT
  5
2C
  8
DEFPOINTS
 10
-355.897271
 20
1076.767549
 30
0.0
  0
POINT
  5
2D
  8
DEFPOINTS
 10
-243.417158
 20
1244.737852
 30
0.0
  0
POINT
  5
2E
  8
DEFPOINTS
 10
-8.189716
 20
1184.42316
 30
0.0
  0
LINE
  5
2F
  8
2
 10
-343.042272
 20
1076.767549
 30
0.0
 11
4.665283
 21
1076.767549
 31
0.0
  0
LINE
  5
30
  8
2
 10
-230.562158
 20
1244.737852
 30
0.0
 11
4.665283
 21
1244.737852
 31
0.0
  0
LINE
  5
31
  8
2
 10
-8.189716
 20
1012.203057
 30
0.0
 11
-8.189716
 21
1475.099455
 31
0.0
  0
LINE
  5
32
  8
2
 10
-0.600074
 20
1033.724556
 30
0.0
 11
-8.189716
 21
1076.767549
 31
0.0
  0
LINE
  5
33
  8
2
 10
-15.779356
 20
1033.724555
 30
0.0
 11
-8.189716
 21
1076.767549
 31
0.0
  0
LINE
  5
34
  8
2
 10
-15.779359
 20
1287.780845
 30
0.0
 11
-8.189716
 21
1244.737852
 31
0.0
  0
LINE
  5
35
  8
2
 10
-0.600077
 20
1287.780846
 30
0.0
 11
-8.189716
 21
1244.737852
 31
0.0
  0
TEXT
  5
36
  8
2
 10
-13.331717
 20
1273.533081
 30
0.0
 40
71.987999
  1
１７０
 50
90.000003
 41
0.9
  7
MONOTXT
  0
ENDBLK
  5
37
  8
0
  0
BLOCK
  5
39
  8
2
  2
*D3
 70
    65
 10
0.0
 20
0.0
 30
0.0
  3
*D3
  1

  0
POINT
  5
3A
  8
DEFPOINTS
 10
-438.8826
 20
1106.762246
 30
0.0
  0
POINT
  5
3B
  8
DEFPOINTS
 10
-243.417158
 20
1244.737852
 30
0.0
  0
POINT
  5
3C
  8
DEFPOINTS
 10
-103.819442
 20
1301.347089
 30
0.0
  0
LINE
  5
3D
  8
2
 10
-426.0276
 20
1106.762246
 30
0.0
 11
-90.964442
 21
1106.762246
 31
0.0
  0
LINE
  5
3E
  8
2
 10
-230.562158
 20
1244.737852
 30
0.0
 11
-90.964442
 21
1244.737852
 31
0.0
  0
LINE
  5
3F
  8
2
 10
-103.819442
 20
1042.197755
 30
0.0
 11
-103.819442
 21
1475.099455
 31
0.0
  0
LINE
  5
40
  8
2
 10
-96.229799
 20
1063.719253
 30
0.0
 11
-103.819442
 21
1106.762246
 31
0.0
  0
LINE
  5
41
  8
2
 10
-111.409081
 20
1063.719252
 30
0.0
 11
-103.819442
 21
1106.762246
 31
0.0
  0
LINE
  5
42
  8
2
 10
-111.409084
 20
1287.780845
 30
0.0
 11
-103.819442
 21
1244.737852
 31
0.0
  0
LINE
  5
43
  8
2
 10
-96.229802
 20
1287.780846
 30
0.0
 11
-103.819442
 21
1244.737852
 31
0.0
  0
TEXT
  5
44
  8
2
 10
-108.961441
 20
1273.533081
 30
0.0
 40
71.987999
  1
１４０
 50
90.000003
 41
0.9
  7
MONOTXT
  0
ENDBLK
  5
45
  8
0
  0
BLOCK
  5
47
  8
2
  2
*D4
 70
    65
 10
0.0
 20
0.0
 30
0.0
  3
*D4
  1

  0
POINT
  5
48
  8
DEFPOINTS
 10
-455.879595
 20
1086.765781
 30
0.0
  0
POINT
  5
49
  8
DEFPOINTS
 10
-307.905756
 20
1030.77568
 30
0.0
  0
POINT
  5
4A
  8
DEFPOINTS
 10
-367.573227
 20
849.929453
 30
0.0
  0
LINE
  5
4B
  8
2
 10
-455.879595
 20
1073.910782
 30
0.0
 11
-455.879595
 21
837.074454
 31
0.0
  0
LINE
  5
4C
  8
2
 10
-307.905756
 20
1017.92068
 30
0.0
 11
-307.905756
 21
837.074454
 31
0.0
  0
LINE
  5
4D
  8
2
 10
-520.444086
 20
849.929453
 30
0.0
 11
-77.544153
 21
849.929453
 31
0.0
  0
LINE
  5
4E
  8
2
 10
-498.922588
 20
842.339812
 30
0.0
 11
-455.879595
 21
849.929453
 31
0.0
  0
LINE
  5
4F
  8
2
 10
-498.922588
 20
857.519094
 30
0.0
 11
-455.879595
 21
849.929453
 31
0.0
  0
LINE
  5
50
  8
2
 10
-264.862763
 20
857.519094
 30
0.0
 11
-307.905756
 21
849.929453
 31
0.0
  0
LINE
  5
51
  8
2
 10
-264.862763
 20
842.339812
 30
0.0
 11
-307.905756
 21
849.929453
 31
0.0
  0
TEXT
  5
52
  8
2
 10
-279.110565
 20
855.071472
 30
0.0
 40
71.987999
  1
１４８
 41
0.9
  7
MONOTXT
  0
ENDBLK
  5
53
  8
0
  0
BLOCK
  5
55
  8
2
  2
*D5
 70
    65
 10
0.0
 20
0.0
 30
0.0
  3
*D5
  1

  0
POINT
  5
56
  8
DEFPOINTS
 10
-374.893913
 20
1057.770907
 30
0.0
  0
POINT
  5
57
  8
DEFPOINTS
 10
-307.905756
 20
1030.77568
 30
0.0
  0
POINT
  5
58
  8
DEFPOINTS
 10
-206.62439
 20
937.466994
 30
0.0
  0
LINE
  5
59
  8
2
 10
-374.893913
 20
1044.915908
 30
0.0
 11
-374.893913
 21
924.611994
 31
0.0
  0
LINE
  5
5A
  8
2
 10
-307.905756
 20
1017.92068
 30
0.0
 11
-307.905756
 21
924.611994
 31
0.0
  0
LINE
  5
5B
  8
2
 10
-439.458404
 20
937.466994
 30
0.0
 11
-135.134547
 21
937.466994
 31
0.0
  0
LINE
  5
5C
  8
2
 10
-417.936906
 20
929.877352
 30
0.0
 11
-374.893913
 21
937.466994
 31
0.0
  0
LINE
  5
5D
  8
2
 10
-417.936906
 20
945.056635
 30
0.0
 11
-374.893913
 21
937.466994
 31
0.0
  0
LINE
  5
5E
  8
2
 10
-264.862763
 20
945.056635
 30
0.0
 11
-307.905756
 21
937.466994
 31
0.0
  0
LINE
  5
5F
  8
2
 10
-264.862763
 20
929.877352
 30
0.0
 11
-307.905756
 21
937.466994
 31
0.0
  0
TEXT
  5
60
  8
2
 10
-279.110565
 20
942.609009
 30
0.0
 40
71.987999
  1
６７
 41
0.9
  7
MONOTXT
  0
ENDBLK
  5
61
  8
0
  0
BLOCK
  5
63
  8
2
  2
*D6
 70
    65
 10
0.0
 20
0.0
 30
0.0
  3
*D6
  1

  0
POINT
  5
64
  8
DEFPOINTS
 10
-522.867752
 20
1091.764897
 30
0.0
  0
POINT
  5
65
  8
DEFPOINTS
 10
-307.905756
 20
1030.77568
 30
0.0
  0
POINT
  5
66
  8
DEFPOINTS
 10
-400.286406
 20
749.94713
 30
0.0
  0
LINE
  5
67
  8
2
 10
-522.867752
 20
1078.909898
 30
0.0
 11
-522.867752
 21
737.09213
 31
0.0
  0
LINE
  5
68
  8
2
 10
-307.905756
 20
1017.92068
 30
0.0
 11
-307.905756
 21
737.09213
 31
0.0
  0
LINE
  5
69
  8
2
 10
-522.867752
 20
749.94713
 30
0.0
 11
-307.905756
 21
749.94713
 31
0.0
  0
LINE
  5
6A
  8
2
 10
-479.824758
 20
757.536771
 30
0.0
 11
-522.867752
 21
749.94713
 31
0.0
  0
LINE
  5
6B
  8
2
 10
-479.824758
 20
742.357489
 30
0.0
 11
-522.867752
 21
749.94713
 31
0.0
  0
LINE
  5
6C
  8
2
 10
-350.948749
 20
742.357489
 30
0.0
 11
-307.905756
 21
749.94713
 31
0.0
  0
LINE
  5
6D
  8
2
 10
-350.948749
 20
757.536771
 30
0.0
 11
-307.905756
 21
749.94713
 31
0.0
  0
TEXT
  5
6E
  8
2
 10
-501.772339
 20
755.089111
 30
0.0
 40
71.987999
  1
２１５
 41
0.9
  7
MONOTXT
  0
ENDBLK
  5
6F
  8
0
  0
BLOCK
  5
71
  8
2
  2
*D7
 70
    65
 10
0.0
 20
0.0
 30
0.0
  3
*D7
  1

  0
POINT
  5
72
  8
DEFPOINTS
 10
-1617.674293
 20
-1253.896696
 30
0.0
  0
POINT
  5
73
  8
DEFPOINTS
 10
-308.905579
 20
-1253.896696
 30
0.0
  0
POINT
  5
74
  8
DEFPOINTS
 10
-971.748356
 20
-949.752368
 30
0.0
  0
LINE
  5
75
  8
2
 10
-1617.674293
 20
-1241.041697
 30
0.0
 11
-1617.674293
 21
-936.897369
 31
0.0
  0
LINE
  5
76
  8
2
 10
-308.905579
 20
-1241.041697
 30
0.0
 11
-308.905579
 21
-936.897369
 31
0.0
  0
LINE
  5
77
  8
2
 10
-1617.674293
 20
-949.752368
 30
0.0
 11
-308.905579
 21
-949.752368
 31
0.0
  0
LINE
  5
78
  8
2
 10
-1574.6313
 20
-942.162727
 30
0.0
 11
-1617.674293
 21
-949.752368
 31
0.0
  0
LINE
  5
79
  8
2
 10
-1574.6313
 20
-957.342009
 30
0.0
 11
-1617.674293
 21
-949.752368
 31
0.0
  0
LINE
  5
7A
  8
2
 10
-351.948573
 20
-957.342009
 30
0.0
 11
-308.905579
 21
-949.752368
 31
0.0
  0
LINE
  5
7B
  8
2
 10
-351.948573
 20
-942.162727
 30
0.0
 11
-308.905579
 21
-949.752368
 31
0.0
  0
TEXT
  5
7C
  8
2
 10
-1078.470703
 20
-944.610352
 30
0.0
 40
71.987999
  1
１３１０
 41
0.9
  7
MONOTXT
  0
ENDBLK
  5
7D
  8
0
  0
BLOCK
  5
7F
  8
2
  2
*D8
 70
    65
 10
0.0
 20
0.0
 30
0.0
  3
*D8
  1

  0
POINT
  5
80
  8
DEFPOINTS
 10
-308.905579
 20
-1253.896696
 30
0.0
  0
POINT
  5
81
  8
DEFPOINTS
 10
-243.417158
 20
-1467.858869
 30
0.0
  0
POINT
  5
82
  8
DEFPOINTS
 10
-605.162087
 20
-949.752368
 30
0.0
  0
LINE
  5
83
  8
2
 10
-308.905579
 20
-1241.041697
 30
0.0
 11
-308.905579
 21
-936.897369
 31
0.0
  0
LINE
  5
84
  8
2
 10
-243.417158
 20
-1455.003869
 30
0.0
 11
-243.417158
 21
-936.897369
 31
0.0
  0
LINE
  5
85
  8
2
 10
-373.470071
 20
-949.752368
 30
0.0
 11
-70.645948
 21
-949.752368
 31
0.0
  0
LINE
  5
86
  8
2
 10
-351.948573
 20
-957.342009
 30
0.0
 11
-308.905579
 21
-949.752368
 31
0.0
  0
LINE
  5
87
  8
2
 10
-351.948573
 20
-942.162727
 30
0.0
 11
-308.905579
 21
-949.752368
 31
0.0
  0
LINE
  5
88
  8
2
 10
-200.374164
 20
-942.162727
 30
0.0
 11
-243.417158
 21
-949.752368
 31
0.0
  0
LINE
  5
89
  8
2
 10
-200.374164
 20
-957.342009
 30
0.0
 11
-243.417158
 21
-949.752368
 31
0.0
  0
TEXT
  5
8A
  8
2
 10
-214.621948
 20
-944.610352
 30
0.0
 40
71.987999
  1
６５
 41
0.9
  7
MONOTXT
  0
ENDBLK
  5
8B
  8
0
  0
BLOCK
  5
8D
  8
2
  2
*D9
 70
    65
 10
0.0
 20
0.0
 30
0.0
  3
*D9
  1

  0
POINT
  5
8E
  8
DEFPOINTS
 10
-1683.162715
 20
-1467.858869
 30
0.0
  0
POINT
  5
8F
  8
DEFPOINTS
 10
-1617.674293
 20
-1253.896696
 30
0.0
  0
POINT
  5
90
  8
DEFPOINTS
 10
-1370.680473
 20
-949.752368
 30
0.0
  0
LINE
  5
91
  8
2
 10
-1683.162715
 20
-1455.003869
 30
0.0
 11
-1683.162715
 21
-936.897369
 31
0.0
  0
LINE
  5
92
  8
2
 10
-1617.674293
 20
-1241.041697
 30
0.0
 11
-1617.674293
 21
-936.897369
 31
0.0
  0
LINE
  5
93
  8
2
 10
-1855.933924
 20
-949.752368
 30
0.0
 11
-1553.109802
 21
-949.752368
 31
0.0
  0
LINE
  5
94
  8
2
 10
-1726.205708
 20
-957.342009
 30
0.0
 11
-1683.162715
 21
-949.752368
 31
0.0
  0
LINE
  5
95
  8
2
 10
-1726.205708
 20
-942.162727
 30
0.0
 11
-1683.162715
 21
-949.752368
 31
0.0
  0
LINE
  5
96
  8
2
 10
-1574.6313
 20
-942.162727
 30
0.0
 11
-1617.674293
 21
-949.752368
 31
0.0
  0
LINE
  5
97
  8
2
 10
-1574.6313
 20
-957.342009
 30
0.0
 11
-1617.674293
 21
-949.752368
 31
0.0
  0
TEXT
  5
98
  8
2
 10
-1827.138672
 20
-944.610352
 30
0.0
 40
71.987999
  1
６５
 41
0.9
  7
MONOTXT
  0
ENDBLK
  5
99
  8
0
  0
BLOCK
  5
9B
  8
2
  2
*D10
 70
    65
 10
0.0
 20
0.0
 30
0.0
  3
*D10
  1

  0
POINT
  5
9C
  8
DEFPOINTS
 10
-1323.22635
 20
-1377.874777
 30
0.0
  0
POINT
  5
9D
  8
DEFPOINTS
 10
-603.353522
 20
-1377.874777
 30
0.0
  0
POINT
  5
9E
  8
DEFPOINTS
 10
-1067.98331
 20
-1665.899146
 30
0.0
  0
LINE
  5
9F
  8
2
 10
-1323.22635
 20
-1390.729777
 30
0.0
 11
-1323.22635
 21
-1678.754146
 31
0.0
  0
LINE
  5
A0
  8
2
 10
-603.353522
 20
-1390.729777
 30
0.0
 11
-603.353522
 21
-1678.754146
 31
0.0
  0
LINE
  5
A1
  8
2
 10
-1323.22635
 20
-1665.899146
 30
0.0
 11
-603.353522
 21
-1665.899146
 31
0.0
  0
LINE
  5
A2
  8
2
 10
-1280.183357
 20
-1658.309505
 30
0.0
 11
-1323.22635
 21
-1665.899146
 31
0.0
  0
LINE
  5
A3
  8
2
 10
-1280.183357
 20
-1673.488788
 30
0.0
 11
-1323.22635
 21
-1665.899146
 31
0.0
  0
LINE
  5
A4
  8
2
 10
-646.396515
 20
-1673.488788
 30
0.0
 11
-603.353522
 21
-1665.899146
 31
0.0
  0
LINE
  5
A5
  8
2
 10
-646.396515
 20
-1658.309505
 30
0.0
 11
-603.353522
 21
-1665.899146
 31
0.0
  0
TEXT
  5
A6
  8
2
 10
-1049.675537
 20
-1660.757202
 30
0.0
 40
71.987999
  1
７２０
 41
0.9
  7
MONOTXT
  0
ENDBLK
  5
A7
  8
0
  0
BLOCK
  5
A9
  8
2
  2
*D11
 70
    65
 10
0.0
 20
0.0
 30
0.0
  3
*D11
  1

  0
POINT
  5
AA
  8
DEFPOINTS
 10
-1323.22635
 20
-1377.874777
 30
0.0
  0
POINT
  5
AB
  8
DEFPOINTS
 10
-1323.22635
 20
-1277.892454
 30
0.0
  0
POINT
  5
AC
  8
DEFPOINTS
 10
-1830.744439
 20
-1149.280315
 30
0.0
  0
LINE
  5
AD
  8
2
 10
-1336.08135
 20
-1377.874777
 30
0.0
 11
-1843.599438
 21
-1377.874777
 31
0.0
  0
LINE
  5
AE
  8
2
 10
-1336.08135
 20
-1277.892454
 30
0.0
 11
-1843.599438
 21
-1277.892454
 31
0.0
  0
LINE
  5
AF
  8
2
 10
-1830.744439
 20
-1442.439269
 30
0.0
 11
-1830.744439
 21
-1047.530851
 31
0.0
  0
LINE
  5
B0
  8
2
 10
-1823.154796
 20
-1420.91777
 30
0.0
 11
-1830.744439
 21
-1377.874777
 31
0.0
  0
LINE
  5
B1
  8
2
 10
-1838.334078
 20
-1420.917771
 30
0.0
 11
-1830.744439
 21
-1377.874777
 31
0.0
  0
LINE
  5
B2
  8
2
 10
-1838.334082
 20
-1234.849461
 30
0.0
 11
-1830.744439
 21
-1277.892454
 31
0.0
  0
LINE
  5
B3
  8
2
 10
-1823.1548
 20
-1234.849461
 30
0.0
 11
-1830.744439
 21
-1277.892454
 31
0.0
  0
TEXT
  5
B4
  8
2
 10
-1835.886475
 20
-1249.09729
 30
0.0
 40
71.987999
  1
１００
 50
90.000003
 41
0.9
  7
MONOTXT
  0
ENDBLK
  5
B5
  8
0
  0
BLOCK
  5
B7
  8
2
  2
*D12
 70
    65
 10
0.0
 20
0.0
 30
0.0
  3
*D12
  1

  0
POINT
  5
B8
  8
DEFPOINTS
 10
822.421846
 20
378.940136
 30
0.0
  0
POINT
  5
B9
  8
DEFPOINTS
 10
2262.167303
 20
378.940136
 30
0.0
  0
POINT
  5
BA
  8
DEFPOINTS
 10
-503.947886
 20
510.226348
 30
0.0
  0
LINE
  5
BB
  8
2
 10
822.421846
 20
391.795136
 30
0.0
 11
822.421846
 21
523.081348
 31
0.0
  0
LINE
  5
BC
  8
2
 10
2262.167303
 20
391.795136
 30
0.0
 11
2262.167303
 21
523.081348
 31
0.0
  0
LINE
  5
BD
  8
2
 10
822.421846
 20
510.226348
 30
0.0
 11
2262.167303
 21
510.226348
 31
0.0
  0
LINE
  5
BE
  8
2
 10
865.464839
 20
517.815989
 30
0.0
 11
822.421846
 21
510.226348
 31
0.0
  0
LINE
  5
BF
  8
2
 10
865.464839
 20
502.636707
 30
0.0
 11
822.421846
 21
510.226348
 31
0.0
  0
LINE
  5
C0
  8
2
 10
2219.12431
 20
502.636707
 30
0.0
 11
2262.167303
 21
510.226348
 31
0.0
  0
LINE
  5
C1
  8
2
 10
2219.12431
 20
517.815989
 30
0.0
 11
2262.167303
 21
510.226348
 31
0.0
  0
TEXT
  5
C2
  8
2
 10
1427.11377
 20
515.368347
 30
0.0
 40
71.987999
  1
１４４０
 41
0.9
  7
MONOTXT
  0
ENDBLK
  5
C3
  8
0
  0
BLOCK
  5
C5
  8
2
  2
*D13
 70
    65
 10
0.0
 20
0.0
 30
0.0
  3
*D13
  1

  0
POINT
  5
C6
  8
DEFPOINTS
 10
847.417427
 20
-395.92297
 30
0.0
  0
POINT
  5
C7
  8
DEFPOINTS
 10
847.417427
 20
403.935717
 30
0.0
  0
POINT
  5
C8
  8
DEFPOINTS
 10
719.833034
 20
-35.000885
 30
0.0
  0
LINE
  5
C9
  8
2
 10
834.562427
 20
-395.92297
 30
0.0
 11
706.978035
 21
-395.92297
 31
0.0
  0
LINE
  5
CA
  8
2
 10
834.562427
 20
403.935717
 30
0.0
 11
706.978035
 21
403.935717
 31
0.0
  0
LINE
  5
CB
  8
2
 10
719.833034
 20
-395.92297
 30
0.0
 11
719.833034
 21
403.935717
 31
0.0
  0
LINE
  5
CC
  8
2
 10
712.243391
 20
-352.879977
 30
0.0
 11
719.833034
 21
-395.92297
 31
0.0
  0
LINE
  5
CD
  8
2
 10
727.422673
 20
-352.879977
 30
0.0
 11
719.833034
 21
-395.92297
 31
0.0
  0
LINE
  5
CE
  8
2
 10
727.422677
 20
360.892724
 30
0.0
 11
719.833034
 21
403.935717
 31
0.0
  0
LINE
  5
CF
  8
2
 10
712.243395
 20
360.892724
 30
0.0
 11
719.833034
 21
403.935717
 31
0.0
  0
TEXT
  5
D0
  8
2
 10
714.69104
 20
-82.379227
 30
0.0
 40
71.987999
  1
８００
 50
90.000003
 41
0.9
  7
MONOTXT
  0
ENDBLK
  5
D1
  8
0
  0
BLOCK
  5
D3
  8
2
  2
*D14
 70
    65
 10
0.0
 20
0.0
 30
0.0
  3
*D14
  1

  0
POINT
  5
D4
  8
DEFPOINTS
 10
-1663.16625
 20
-375.89891
 30
0.0
  0
POINT
  5
D5
  8
DEFPOINTS
 10
-263.413622
 20
-375.89891
 30
0.0
  0
POINT
  5
D6
  8
DEFPOINTS
 10
-720.506956
 20
-749.156247
 30
0.0
  0
LINE
  5
D7
  8
2
 10
-1663.16625
 20
-388.75391
 30
0.0
 11
-1663.16625
 21
-762.011246
 31
0.0
  0
LINE
  5
D8
  8
2
 10
-263.413622
 20
-388.75391
 30
0.0
 11
-263.413622
 21
-762.011246
 31
0.0
  0
LINE
  5
D9
  8
2
 10
-1663.16625
 20
-749.156247
 30
0.0
 11
-263.413622
 21
-749.156247
 31
0.0
  0
LINE
  5
DA
  8
2
 10
-1620.123257
 20
-741.566606
 30
0.0
 11
-1663.16625
 21
-749.156247
 31
0.0
  0
LINE
  5
DB
  8
2
 10
-1620.123257
 20
-756.745888
 30
0.0
 11
-1663.16625
 21
-749.156247
 31
0.0
  0
LINE
  5
DC
  8
2
 10
-306.456616
 20
-756.745888
 30
0.0
 11
-263.413622
 21
-749.156247
 31
0.0
  0
LINE
  5
DD
  8
2
 10
-306.456616
 20
-741.566606
 30
0.0
 11
-263.413622
 21
-749.156247
 31
0.0
  0
TEXT
  5
DE
  8
2
 10
-1280.037109
 20
-744.014221
 30
0.0
 40
71.987999
  1
１４００（天井開口部）
 41
0.9
  7
MONOTXT
  0
ENDBLK
  5
DF
  8
0
  0
BLOCK
  5
E1
  8
2
  2
*D15
 70
    65
 10
0.0
 20
0.0
 30
0.0
  3
*D15
  1

  0
POINT
  5
E2
  8
DEFPOINTS
 10
-443.881716
 20
169.681533
 30
0.0
  0
POINT
  5
E3
  8
DEFPOINTS
 10
-562.860681
 20
359.943495
 30
0.0
  0
POINT
  5
E4
  8
DEFPOINTS
 10
-326.80005
 20
295.101305
 30
0.0
  0
LINE
  5
E5
  8
2
 10
-431.026717
 20
169.681533
 30
0.0
 11
-313.945051
 21
169.681533
 31
0.0
  0
LINE
  5
E6
  8
2
 10
-550.005681
 20
359.943495
 30
0.0
 11
-313.945051
 21
359.943495
 31
0.0
  0
LINE
  5
E7
  8
2
 10
-326.80005
 20
169.681533
 30
0.0
 11
-326.80005
 21
359.943495
 31
0.0
  0
LINE
  5
E8
  8
2
 10
-334.389693
 20
212.724525
 30
0.0
 11
-326.80005
 21
169.681533
 31
0.0
  0
LINE
  5
E9
  8
2
 10
-319.210411
 20
212.724526
 30
0.0
 11
-326.80005
 21
169.681533
 31
0.0
  0
LINE
  5
EA
  8
2
 10
-319.210407
 20
316.900502
 30
0.0
 11
-326.80005
 21
359.943495
 31
0.0
  0
LINE
  5
EB
  8
2
 10
-334.389689
 20
316.900501
 30
0.0
 11
-326.80005
 21
359.943495
 31
0.0
  0
TEXT
  5
EC
  8
2
 10
-331.942047
 20
178.42691
 30
0.0
 40
71.987999
  1
１９０
 50
90.000003
 41
0.9
  7
MONOTXT
  0
ENDBLK
  5
ED
  8
0
  0
BLOCK
  5
EF
  8
2
  2
*D16
 70
    65
 10
0.0
 20
0.0
 30
0.0
  3
*D16
  1

  0
POINT
  5
F0
  8
DEFPOINTS
 10
-515.369077
 20
233.765603
 30
0.0
  0
POINT
  5
F1
  8
DEFPOINTS
 10
-562.860681
 20
359.943495
 30
0.0
  0
POINT
  5
F2
  8
DEFPOINTS
 10
-419.738118
 20
225.061022
 30
0.0
  0
LINE
  5
F3
  8
2
 10
-502.514078
 20
233.765603
 30
0.0
 11
-406.883118
 21
233.765603
 31
0.0
  0
LINE
  5
F4
  8
2
 10
-550.005681
 20
359.943495
 30
0.0
 11
-406.883118
 21
359.943495
 31
0.0
  0
LINE
  5
F5
  8
2
 10
-419.738118
 20
233.765603
 30
0.0
 11
-419.738118
 21
359.943495
 31
0.0
  0
LINE
  5
F6
  8
2
 10
-427.327761
 20
276.808596
 30
0.0
 11
-419.738118
 21
233.765603
 31
0.0
  0
LINE
  5
F7
  8
2
 10
-412.148479
 20
276.808596
 30
0.0
 11
-419.738118
 21
233.765603
 31
0.0
  0
LINE
  5
F8
  8
2
 10
-412.148475
 20
316.900502
 30
0.0
 11
-419.738118
 21
359.943495
 31
0.0
  0
LINE
  5
F9
  8
2
 10
-427.327757
 20
316.900501
 30
0.0
 11
-419.738118
 21
359.943495
 31
0.0
  0
TEXT
  5
FA
  8
2
 10
-424.880127
 20
232.065353
 30
0.0
 40
71.987999
  1
１２５
 50
90.000003
 41
0.9
  7
MONOTXT
  0
ENDBLK
  5
FB
  8
0
  0
BLOCK
  5
FD
  8
2
  2
*D17
 70
    65
 10
0.0
 20
0.0
 30
0.0
  3
*D17
  1

  0
POINT
  5
FE
  8
DEFPOINTS
 10
-308.905579
 20
79.992989
 30
0.0
  0
POINT
  5
FF
  8
DEFPOINTS
 10
-562.860681
 20
359.943495
 30
0.0
  0
POINT
  5
100
  8
DEFPOINTS
 10
-40.697398
 20
237.183379
 30
0.0
  0
LINE
  5
101
  8
2
 10
-296.05058
 20
79.992989
 30
0.0
 11
-27.842398
 21
79.992989
 31
0.0
  0
LINE
  5
102
  8
2
 10
-550.005681
 20
359.943495
 30
0.0
 11
-27.842398
 21
359.943495
 31
0.0
  0
LINE
  5
103
  8
2
 10
-40.697398
 20
79.992989
 30
0.0
 11
-40.697398
 21
359.943495
 31
0.0
  0
LINE
  5
104
  8
2
 10
-48.287041
 20
123.035982
 30
0.0
 11
-40.697398
 21
79.992989
 31
0.0
  0
LINE
  5
105
  8
2
 10
-33.107759
 20
123.035983
 30
0.0
 11
-40.697398
 21
79.992989
 31
0.0
  0
LINE
  5
106
  8
2
 10
-33.107755
 20
316.900502
 30
0.0
 11
-40.697398
 21
359.943495
 31
0.0
  0
LINE
  5
107
  8
2
 10
-48.287037
 20
316.900501
 30
0.0
 11
-40.697398
 21
359.943495
 31
0.0
  0
TEXT
  5
108
  8
2
 10
-45.839394
 20
133.582642
 30
0.0
 40
71.987999
  1
２８０
 50
90.000003
 41
0.9
  7
MONOTXT
  0
ENDBLK
  5
109
  8
0
  0
BLOCK
  5
10B
  8
2
  2
*D18
 70
    65
 10
0.0
 20
0.0
 30
0.0
  3
*D18
  1

  0
POINT
  5
10C
  8
DEFPOINTS
 10
-358.896741
 20
126.984681
 30
0.0
  0
POINT
  5
10D
  8
DEFPOINTS
 10
-562.860681
 20
359.943495
 30
0.0
  0
POINT
  5
10E
  8
DEFPOINTS
 10
-140.679721
 20
225.061022
 30
0.0
  0
LINE
  5
10F
  8
2
 10
-346.041742
 20
126.984681
 30
0.0
 11
-127.824722
 21
126.984681
 31
0.0
  0
LINE
  5
110
  8
2
 10
-550.005681
 20
359.943495
 30
0.0
 11
-127.824722
 21
359.943495
 31
0.0
  0
LINE
  5
111
  8
2
 10
-140.679721
 20
126.984681
 30
0.0
 11
-140.679721
 21
359.943495
 31
0.0
  0
LINE
  5
112
  8
2
 10
-148.269364
 20
170.027674
 30
0.0
 11
-140.679721
 21
126.984681
 31
0.0
  0
LINE
  5
113
  8
2
 10
-133.090082
 20
170.027675
 30
0.0
 11
-140.679721
 21
126.984681
 31
0.0
  0
LINE
  5
114
  8
2
 10
-133.090078
 20
316.900502
 30
0.0
 11
-140.679721
 21
359.943495
 31
0.0
  0
LINE
  5
115
  8
2
 10
-148.26936
 20
316.900501
 30
0.0
 11
-140.679721
 21
359.943495
 31
0.0
  0
TEXT
  5
116
  8
2
 10
-145.821716
 20
157.078491
 30
0.0
 40
71.987999
  1
２３０
 50
90.000003
 41
0.9
  7
MONOTXT
  0
ENDBLK
  5
117
  8
0
  0
BLOCK
  5
119
  8
2
  2
*D19
 70
    65
 10
0.0
 20
0.0
 30
0.0
  3
*D19
  1

  0
POINT
  5
11A
  8
DEFPOINTS
 10
-1663.16625
 20
-375.89891
 30
0.0
  0
POINT
  5
11B
  8
DEFPOINTS
 10
-1663.16625
 20
383.966648
 30
0.0
  0
POINT
  5
11C
  8
DEFPOINTS
 10
-1923.918481
 20
167.799774
 30
0.0
  0
LINE
  5
11D
  8
2
 10
-1676.02125
 20
-375.89891
 30
0.0
 11
-1936.773481
 21
-375.89891
 31
0.0
  0
LINE
  5
11E
  8
2
 10
-1676.02125
 20
383.966648
 30
0.0
 11
-1936.773481
 21
383.966648
 31
0.0
  0
LINE
  5
11F
  8
2
 10
-1923.918481
 20
-375.89891
 30
0.0
 11
-1923.918481
 21
383.966648
 31
0.0
  0
LINE
  5
120
  8
2
 10
-1931.508124
 20
-332.855917
 30
0.0
 11
-1923.918481
 21
-375.89891
 31
0.0
  0
LINE
  5
121
  8
2
 10
-1916.328842
 20
-332.855917
 30
0.0
 11
-1923.918481
 21
-375.89891
 31
0.0
  0
LINE
  5
122
  8
2
 10
-1916.328839
 20
340.923655
 30
0.0
 11
-1923.918481
 21
383.966648
 31
0.0
  0
LINE
  5
123
  8
2
 10
-1931.508121
 20
340.923654
 30
0.0
 11
-1923.918481
 21
383.966648
 31
0.0
  0
TEXT
  5
124
  8
2
 10
-1929.060425
 20
-283.918121
 30
0.0
 40
71.987999
  1
７６０（天井開口部）
 50
90.000003
 41
0.9
  7
MONOTXT
  0
ENDBLK
  5
125
  8
0
  0
BLOCK
  5
127
  8
2
  2
*D20
 70
    65
 10
0.0
 20
0.0
 30
0.0
  3
*D20
  1

  0
POINT
  5
128
  8
DEFPOINTS
 10
268.365861
 20
-352.930471
 30
0.0
  0
POINT
  5
129
  8
DEFPOINTS
 10
268.365861
 20
359.943495
 30
0.0
  0
POINT
  5
12A
  8
DEFPOINTS
 10
159.267249
 20
-66.302438
 30
0.0
  0
LINE
  5
12B
  8
2
 10
255.510861
 20
-352.930471
 30
0.0
 11
146.412249
 21
-352.930471
 31
0.0
  0
LINE
  5
12C
  8
2
 10
255.510861
 20
359.943495
 30
0.0
 11
146.412249
 21
359.943495
 31
0.0
  0
LINE
  5
12D
  8
2
 10
159.267249
 20
-352.930471
 30
0.0
 11
159.267249
 21
359.943495
 31
0.0
  0
LINE
  5
12E
  8
2
 10
151.677606
 20
-309.887478
 30
0.0
 11
159.267249
 21
-352.930471
 31
0.0
  0
LINE
  5
12F
  8
2
 10
166.856888
 20
-309.887478
 30
0.0
 11
159.267249
 21
-352.930471
 31
0.0
  0
LINE
  5
130
  8
2
 10
166.856892
 20
316.900502
 30
0.0
 11
159.267249
 21
359.943495
 31
0.0
  0
LINE
  5
131
  8
2
 10
151.67761
 20
316.900501
 30
0.0
 11
159.267249
 21
359.943495
 31
0.0
  0
TEXT
  5
132
  8
2
 10
154.125259
 20
-82.879089
 30
0.0
 40
71.987999
  1
７１０
 50
90.000003
 41
0.9
  7
MONOTXT
  0
ENDBLK
  5
133
  8
0
  0
BLOCK
  5
135
  8
2
  2
*D21
 70
    65
 10
0.0
 20
0.0
 30
0.0
  3
*D21
  1

  0
POINT
  5
136
  8
DEFPOINTS
 10
268.365861
 20
359.943495
 30
0.0
  0
POINT
  5
137
  8
DEFPOINTS
 10
484.327679
 20
403.935717
 30
0.0
  0
POINT
  5
138
  8
DEFPOINTS
 10
159.267249
 20
277.520505
 30
0.0
  0
LINE
  5
139
  8
2
 10
255.510861
 20
359.943495
 30
0.0
 11
146.412249
 21
359.943495
 31
0.0
  0
LINE
  5
13A
  8
2
 10
471.47268
 20
403.935717
 30
0.0
 11
146.412249
 21
403.935717
 31
0.0
  0
LINE
  5
13B
  8
2
 10
159.267249
 20
295.379004
 30
0.0
 11
159.267249
 21
576.706927
 31
0.0
  0
LINE
  5
13C
  8
2
 10
166.856892
 20
316.900502
 30
0.0
 11
159.267249
 21
359.943495
 31
0.0
  0
LINE
  5
13D
  8
2
 10
151.67761
 20
316.900501
 30
0.0
 11
159.267249
 21
359.943495
 31
0.0
  0
LINE
  5
13E
  8
2
 10
151.677606
 20
446.97871
 30
0.0
 11
159.267249
 21
403.935717
 31
0.0
  0
LINE
  5
13F
  8
2
 10
166.856888
 20
446.978711
 30
0.0
 11
159.267249
 21
403.935717
 31
0.0
  0
TEXT
  5
140
  8
2
 10
154.125244
 20
432.730927
 30
0.0
 40
71.987999
  1
４５
 50
90.000003
 41
0.9
  7
MONOTXT
  0
ENDBLK
  5
141
  8
0
  0
BLOCK
  5
143
  8
2
  2
*D22
 70
    65
 10
0.0
 20
0.0
 30
0.0
  3
*D22
  1

  0
POINT
  5
144
  8
DEFPOINTS
 10
484.327679
 20
-395.92297
 30
0.0
  0
POINT
  5
145
  8
DEFPOINTS
 10
268.365861
 20
-352.930471
 30
0.0
  0
POINT
  5
146
  8
DEFPOINTS
 10
159.267249
 20
-240.1455
 30
0.0
  0
LINE
  5
147
  8
2
 10
471.47268
 20
-395.92297
 30
0.0
 11
146.412249
 21
-395.92297
 31
0.0
  0
LINE
  5
148
  8
2
 10
255.510861
 20
-352.930471
 30
0.0
 11
146.412249
 21
-352.930471
 31
0.0
  0
LINE
  5
149
  8
2
 10
159.267249
 20
-568.69418
 30
0.0
 11
159.267249
 21
-288.36598
 31
0.0
  0
LINE
  5
14A
  8
2
 10
166.856892
 20
-438.965963
 30
0.0
 11
159.267249
 21
-395.92297
 31
0.0
  0
LINE
  5
14B
  8
2
 10
151.67761
 20
-438.965964
 30
0.0
 11
159.267249
 21
-395.92297
 31
0.0
  0
LINE
  5
14C
  8
2
 10
151.677606
 20
-309.887478
 30
0.0
 11
159.267249
 21
-352.930471
 31
0.0
  0
LINE
  5
14D
  8
2
 10
166.856888
 20
-309.887478
 30
0.0
 11
159.267249
 21
-352.930471
 31
0.0
  0
TEXT
  5
14E
  8
2
 10
154.125259
 20
-539.898987
 30
0.0
 40
71.987999
  1
４５
 50
90.000003
 41
0.9
  7
MONOTXT
  0
ENDBLK
  5
14F
  8
0
  0
BLOCK
  5
151
  8
2
  2
*D23
 70
    65
 10
0.0
 20
0.0
 30
0.0
  3
*D23
  1

  0
POINT
  5
152
  8
DEFPOINTS
 10
-1683.162715
 20
-1467.858869
 30
0.0
  0
POINT
  5
153
  8
DEFPOINTS
 10
-1369.305504
 20
-1327.883616
 30
0.0
  0
POINT
  5
154
  8
DEFPOINTS
 10
-1939.143398
 20
-1371.084129
 30
0.0
  0
LINE
  5
155
  8
2
 10
-1696.017714
 20
-1467.858869
 30
0.0
 11
-1951.998397
 21
-1467.858869
 31
0.0
  0
LINE
  5
156
  8
2
 10
-1382.160503
 20
-1327.883616
 30
0.0
 11
-1951.998397
 21
-1327.883616
 31
0.0
  0
LINE
  5
157
  8
2
 10
-1939.143398
 20
-1498.242156
 30
0.0
 11
-1939.143398
 21
-1097.522013
 31
0.0
  0
CIRCLE
  5
158
  8
2
 10
-1939.143398
 20
-1467.858869
 30
0.0
 40
5.142
  0
CIRCLE
  5
159
  8
2
 10
-1939.143398
 20
-1467.858869
 30
0.0
 40
3.0852
  0
LINE
  5
15A
  8
2
 10
-1946.733041
 20
-1284.840623
 30
0.0
 11
-1939.143398
 21
-1327.883616
 31
0.0
  0
LINE
  5
15B
  8
2
 10
-1931.553759
 20
-1284.840622
 30
0.0
 11
-1939.143398
 21
-1327.883616
 31
0.0
  0
TEXT
  5
15C
  8
2
 10
-1944.2854
 20
-1299.088379
 30
0.0
 40
71.987999
  1
１４０
 50
90.000003
 41
0.9
  7
MONOTXT
  0
ENDBLK
  5
15D
  8
0
  0
BLOCK
  5
15F
  8
2
  2
*D24
 70
    65
 10
0.0
 20
0.0
 30
0.0
  3
*D24
  1

  0
POINT
  5
160
  8
DEFPOINTS
 10
-1658.167134
 20
-1487.855333
 30
0.0
  0
POINT
  5
161
  8
DEFPOINTS
 10
-1683.162715
 20
-1467.858869
 30
0.0
  0
POINT
  5
162
  8
DEFPOINTS
 10
-1939.143398
 20
-1371.084129
 30
0.0
  0
LINE
  5
163
  8
2
 10
-1671.022133
 20
-1487.855333
 30
0.0
 11
-1951.998397
 21
-1487.855333
 31
0.0
  0
LINE
  5
164
  8
2
 10
-1696.017714
 20
-1467.858869
 30
0.0
 11
-1951.998397
 21
-1467.858869
 31
0.0
  0
LINE
  5
165
  8
2
 10
-1939.143398
 20
-1660.626543
 30
0.0
 11
-1939.143398
 21
-1437.475581
 31
0.0
  0
LINE
  5
166
  8
2
 10
-1931.553755
 20
-1530.898326
 30
0.0
 11
-1939.143398
 21
-1487.855333
 31
0.0
  0
LINE
  5
167
  8
2
 10
-1946.733037
 20
-1530.898327
 30
0.0
 11
-1939.143398
 21
-1487.855333
 31
0.0
  0
CIRCLE
  5
168
  8
2
 10
-1939.143398
 20
-1467.858869
 30
0.0
 40
5.142
  0
CIRCLE
  5
169
  8
2
 10
-1939.143398
 20
-1467.858869
 30
0.0
 40
3.0852
  0
TEXT
  5
16A
  8
2
 10
-1944.2854
 20
-1631.831299
 30
0.0
 40
71.987999
  1
２０
 50
90.000003
 41
0.9
  7
MONOTXT
  0
ENDBLK
  5
16B
  8
0
  0
BLOCK
  5
16D
  8
2
  2
*D25
 70
    65
 10
0.0
 20
0.0
 30
0.0
  3
*D25
  1

  0
POINT
  5
16E
  8
DEFPOINTS
 10
-243.417158
 20
-1467.858869
 30
0.0
  0
POINT
  5
16F
  8
DEFPOINTS
 10
-268.91265
 20
-1299.888565
 30
0.0
  0
POINT
  5
170
  8
DEFPOINTS
 10
-78.418643
 20
-1401.83991
 30
0.0
  0
LINE
  5
171
  8
2
 10
-230.562158
 20
-1467.858869
 30
0.0
 11
-65.563644
 21
-1467.858869
 31
0.0
  0
LINE
  5
172
  8
2
 10
-256.057651
 20
-1299.888565
 30
0.0
 11
-65.563644
 21
-1299.888565
 31
0.0
  0
LINE
  5
173
  8
2
 10
-78.418643
 20
-1467.858869
 30
0.0
 11
-78.418643
 21
-1299.888565
 31
0.0
  0
LINE
  5
174
  8
2
 10
-86.008286
 20
-1424.815876
 30
0.0
 11
-78.418643
 21
-1467.858869
 31
0.0
  0
LINE
  5
175
  8
2
 10
-70.829004
 20
-1424.815875
 30
0.0
 11
-78.418643
 21
-1467.858869
 31
0.0
  0
LINE
  5
176
  8
2
 10
-70.829
 20
-1342.931558
 30
0.0
 11
-78.418643
 21
-1299.888565
 31
0.0
  0
LINE
  5
177
  8
2
 10
-86.008282
 20
-1342.931559
 30
0.0
 11
-78.418643
 21
-1299.888565
 31
0.0
  0
TEXT
  5
178
  8
2
 10
-83.560638
 20
-1459.46106
 30
0.0
 40
71.987999
  1
１７０
 50
90.000003
 41
0.9
  7
MONOTXT
  0
ENDBLK
  5
179
  8
0
  0
BLOCK
  5
17B
  8
2
  2
*D26
 70
    65
 10
0.0
 20
0.0
 30
0.0
  3
*D26
  1

  0
POINT
  5
17C
  8
DEFPOINTS
 10
-243.417158
 20
-1467.858869
 30
0.0
  0
POINT
  5
17D
  8
DEFPOINTS
 10
-308.905579
 20
-1253.896696
 30
0.0
  0
POINT
  5
17E
  8
DEFPOINTS
 10
47.167463
 20
-1401.83991
 30
0.0
  0
LINE
  5
17F
  8
2
 10
-230.562158
 20
-1467.858869
 30
0.0
 11
60.022462
 21
-1467.858869
 31
0.0
  0
LINE
  5
180
  8
2
 10
-296.05058
 20
-1253.896696
 30
0.0
 11
60.022462
 21
-1253.896696
 31
0.0
  0
LINE
  5
181
  8
2
 10
47.167463
 20
-1467.858869
 30
0.0
 11
47.167463
 21
-1253.896696
 31
0.0
  0
LINE
  5
182
  8
2
 10
39.57782
 20
-1424.815876
 30
0.0
 11
47.167463
 21
-1467.858869
 31
0.0
  0
LINE
  5
183
  8
2
 10
54.757102
 20
-1424.815875
 30
0.0
 11
47.167463
 21
-1467.858869
 31
0.0
  0
LINE
  5
184
  8
2
 10
54.757106
 20
-1296.939689
 30
0.0
 11
47.167463
 21
-1253.896696
 31
0.0
  0
LINE
  5
185
  8
2
 10
39.577824
 20
-1296.93969
 30
0.0
 11
47.167463
 21
-1253.896696
 31
0.0
  0
TEXT
  5
186
  8
2
 10
42.025467
 20
-1447.263428
 30
0.0
 40
71.987999
  1
２１５
 50
90.000003
 41
0.9
  7
MONOTXT
  0
ENDBLK
  5
187
  8
0
  0
BLOCK
  5
189
  8
2
  2
*D27
 70
    65
 10
0.0
 20
0.0
 30
0.0
  3
*D27
  1

  0
POINT
  5
18A
  8
DEFPOINTS
 10
-1666.665631
 20
-145.971484
 30
0.0
  0
POINT
  5
18B
  8
DEFPOINTS
 10
-1666.665631
 20
203.966648
 30
0.0
  0
POINT
  5
18C
  8
DEFPOINTS
 10
-1819.845933
 20
-75.036173
 30
0.0
  0
LINE
  5
18D
  8
2
 10
-1679.520631
 20
-145.971484
 30
0.0
 11
-1832.700932
 21
-145.971484
 31
0.0
  0
LINE
  5
18E
  8
2
 10
-1679.520631
 20
203.966648
 30
0.0
 11
-1832.700932
 21
203.966648
 31
0.0
  0
LINE
  5
18F
  8
2
 10
-1819.845933
 20
-145.971484
 30
0.0
 11
-1819.845933
 21
203.966648
 31
0.0
  0
LINE
  5
190
  8
2
 10
-1827.435576
 20
-102.928491
 30
0.0
 11
-1819.845933
 21
-145.971484
 31
0.0
  0
LINE
  5
191
  8
2
 10
-1812.256294
 20
-102.928491
 30
0.0
 11
-1819.845933
 21
-145.971484
 31
0.0
  0
LINE
  5
192
  8
2
 10
-1812.25629
 20
160.923655
 30
0.0
 11
-1819.845933
 21
203.966648
 31
0.0
  0
LINE
  5
193
  8
2
 10
-1827.435572
 20
160.923654
 30
0.0
 11
-1819.845933
 21
203.966648
 31
0.0
  0
TEXT
  5
194
  8
2
 10
-1824.987915
 20
-57.388016
 30
0.0
 40
71.987999
  1
３５０
 50
90.000003
 41
0.9
  7
MONOTXT
  0
ENDBLK
  5
195
  8
0
  0
BLOCK
  5
197
  8
2
  2
*D28
 70
    65
 10
0.0
 20
0.0
 30
0.0
  3
*D28
  1

  0
POINT
  5
198
  8
DEFPOINTS
 10
-1666.665631
 20
203.966648
 30
0.0
  0
POINT
  5
199
  8
DEFPOINTS
 10
-1666.665631
 20
383.966648
 30
0.0
  0
POINT
  5
19A
  8
DEFPOINTS
 10
-1819.845933
 20
432.987152
 30
0.0
  0
LINE
  5
19B
  8
2
 10
-1679.520631
 20
203.966648
 30
0.0
 11
-1832.700932
 21
203.966648
 31
0.0
  0
LINE
  5
19C
  8
2
 10
-1679.520631
 20
383.966648
 30
0.0
 11
-1832.700932
 21
383.966648
 31
0.0
  0
LINE
  5
19D
  8
2
 10
-1819.845933
 20
139.402156
 30
0.0
 11
-1819.845933
 21
448.531139
 31
0.0
  0
LINE
  5
19E
  8
2
 10
-1812.25629
 20
160.923655
 30
0.0
 11
-1819.845933
 21
203.966648
 31
0.0
  0
LINE
  5
19F
  8
2
 10
-1827.435572
 20
160.923654
 30
0.0
 11
-1819.845933
 21
203.966648
 31
0.0
  0
LINE
  5
1A0
  8
2
 10
-1827.435576
 20
427.00964
 30
0.0
 11
-1819.845933
 21
383.966648
 31
0.0
  0
LINE
  5
1A1
  8
2
 10
-1812.256294
 20
427.009641
 30
0.0
 11
-1819.845933
 21
383.966648
 31
0.0
  0
TEXT
  5
1A2
  8
2
 10
-1824.987915
 20
207.581055
 30
0.0
 40
71.987999
  1
１８０
 50
90.000003
 41
0.9
  7
MONOTXT
  0
ENDBLK
  5
1A3
  8
0
  0
BLOCK
  5
1A5
  8
2
  2
*D29
 70
    65
 10
0.0
 20
0.0
 30
0.0
  3
*D29
  1

  0
POINT
  5
1A6
  8
DEFPOINTS
 10
-1657.667222
 20
-230.956459
 30
0.0
  0
POINT
  5
1A7
  8
DEFPOINTS
 10
-1636.670934
 20
-175.966181
 30
0.0
  0
POINT
  5
1A8
  8
DEFPOINTS
 10
-446.704134
 20
-564.65863
 30
0.0
  0
LINE
  5
1A9
  8
2
 10
-1657.667222
 20
-243.811459
 30
0.0
 11
-1657.667222
 21
-577.51363
 31
0.0
  0
LINE
  5
1AA
  8
2
 10
-1636.670934
 20
-188.821181
 30
0.0
 11
-1636.670934
 21
-577.51363
 31
0.0
  0
LINE
  5
1AB
  8
2
 10
-1688.05051
 20
-564.65863
 30
0.0
 11
-1463.899725
 21
-564.65863
 31
0.0
  0
CIRCLE
  5
1AC
  8
2
 10
-1657.667222
 20
-564.65863
 30
0.0
 40
5.142
  0
CIRCLE
  5
1AD
  8
2
 10
-1657.667222
 20
-564.65863
 30
0.0
 40
3.0852
  0
LINE
  5
1AE
  8
2
 10
-1593.627941
 20
-557.068989
 30
0.0
 11
-1636.670934
 21
-564.65863
 31
0.0
  0
LINE
  5
1AF
  8
2
 10
-1593.627941
 20
-572.248271
 30
0.0
 11
-1636.670934
 21
-564.65863
 31
0.0
  0
TEXT
  5
1B0
  8
2
 10
-1607.875732
 20
-559.516602
 30
0.0
 40
71.987999
  1
２０
 41
0.9
  7
MONOTXT
  0
ENDBLK
  5
1B1
  8
0
  0
BLOCK
  5
1B3
  8
2
  2
*D30
 70
    65
 10
0.0
 20
0.0
 30
0.0
  3
*D30
  1

  0
POINT
  5
1B4
  8
DEFPOINTS
 10
-1663.16625
 20
-375.89891
 30
0.0
  0
POINT
  5
1B5
  8
DEFPOINTS
 10
-1657.667222
 20
-230.956459
 30
0.0
  0
POINT
  5
1B6
  8
DEFPOINTS
 10
-1488.132724
 20
-564.65863
 30
0.0
  0
LINE
  5
1B7
  8
2
 10
-1663.16625
 20
-388.75391
 30
0.0
 11
-1663.16625
 21
-577.51363
 31
0.0
  0
LINE
  5
1B8
  8
2
 10
-1657.667222
 20
-243.811459
 30
0.0
 11
-1657.667222
 21
-577.51363
 31
0.0
  0
LINE
  5
1B9
  8
2
 10
-1778.347051
 20
-564.65863
 30
0.0
 11
-1627.283935
 21
-564.65863
 31
0.0
  0
LINE
  5
1BA
  8
2
 10
-1706.209243
 20
-572.248271
 30
0.0
 11
-1663.16625
 21
-564.65863
 31
0.0
  0
LINE
  5
1BB
  8
2
 10
-1706.209243
 20
-557.068989
 30
0.0
 11
-1663.16625
 21
-564.65863
 31
0.0
  0
CIRCLE
  5
1BC
  8
2
 10
-1657.667222
 20
-564.65863
 30
0.0
 40
5.142
  0
CIRCLE
  5
1BD
  8
2
 10
-1657.667222
 20
-564.65863
 30
0.0
 40
3.0852
  0
TEXT
  5
1BE
  8
2
 10
-1749.55188
 20
-559.516602
 30
0.0
 40
71.987999
  1
５
 41
0.9
  7
MONOTXT
  0
ENDBLK
  5
1BF
  8
0
  0
BLOCK
  5
1C1
  8
2
  2
*D31
 70
    65
 10
0.0
 20
0.0
 30
0.0
  3
*D31
  1

  0
POINT
  5
1C2
  8
DEFPOINTS
 10
-557.861565
 20
359.943495
 30
0.0
  0
POINT
  5
1C3
  8
DEFPOINTS
 10
-308.905579
 20
263.956042
 30
0.0
  0
POINT
  5
1C4
  8
DEFPOINTS
 10
-544.401435
 20
510.226348
 30
0.0
  0
LINE
  5
1C5
  8
2
 10
-557.861565
 20
372.798494
 30
0.0
 11
-557.861565
 21
523.081348
 31
0.0
  0
LINE
  5
1C6
  8
2
 10
-308.905579
 20
276.811041
 30
0.0
 11
-308.905579
 21
523.081348
 31
0.0
  0
LINE
  5
1C7
  8
2
 10
-557.861565
 20
510.226348
 30
0.0
 11
-308.905579
 21
510.226348
 31
0.0
  0
LINE
  5
1C8
  8
2
 10
-514.818572
 20
517.815989
 30
0.0
 11
-557.861565
 21
510.226348
 31
0.0
  0
LINE
  5
1C9
  8
2
 10
-514.818572
 20
502.636707
 30
0.0
 11
-557.861565
 21
510.226348
 31
0.0
  0
LINE
  5
1CA
  8
2
 10
-351.948573
 20
502.636707
 30
0.0
 11
-308.905579
 21
510.226348
 31
0.0
  0
LINE
  5
1CB
  8
2
 10
-351.948573
 20
517.815989
 30
0.0
 11
-308.905579
 21
510.226348
 31
0.0
  0
TEXT
  5
1CC
  8
2
 10
-519.769165
 20
515.368347
 30
0.0
 40
71.987999
  1
２５０
 41
0.9
  7
MONOTXT
  0
ENDBLK
  5
1CD
  8
0
  0
BLOCK
  5
1CF
  8
2
  2
*D32
 70
    65
 10
0.0
 20
0.0
 30
0.0
  3
*D32
  1

  0
POINT
  5
1D0
  8
DEFPOINTS
 10
-313.904696
 20
-352.930471
 30
0.0
  0
POINT
  5
1D1
  8
DEFPOINTS
 10
-289.908938
 20
-175.966181
 30
0.0
  0
POINT
  5
1D2
  8
DEFPOINTS
 10
-279.930727
 20
-478.248129
 30
0.0
  0
LINE
  5
1D3
  8
2
 10
-313.904696
 20
-365.785471
 30
0.0
 11
-313.904696
 21
-491.103129
 31
0.0
  0
LINE
  5
1D4
  8
2
 10
-289.908938
 20
-188.821181
 30
0.0
 11
-289.908938
 21
-491.103129
 31
0.0
  0
LINE
  5
1D5
  8
2
 10
-486.675905
 20
-478.248129
 30
0.0
 11
-225.344447
 21
-478.248129
 31
0.0
  0
LINE
  5
1D6
  8
2
 10
-356.947689
 20
-485.83777
 30
0.0
 11
-313.904696
 21
-478.248129
 31
0.0
  0
LINE
  5
1D7
  8
2
 10
-356.947689
 20
-470.658488
 30
0.0
 11
-313.904696
 21
-478.248129
 31
0.0
  0
LINE
  5
1D8
  8
2
 10
-246.865945
 20
-470.658488
 30
0.0
 11
-289.908938
 21
-478.248129
 31
0.0
  0
LINE
  5
1D9
  8
2
 10
-246.865945
 20
-485.83777
 30
0.0
 11
-289.908938
 21
-478.248129
 31
0.0
  0
TEXT
  5
1DA
  8
2
 10
-457.880707
 20
-473.10614
 30
0.0
 40
71.987999
  1
２０
 41
0.9
  7
MONOTXT
  0
ENDBLK
  5
1DB
  8
0
  0
BLOCK
  5
1DD
  8
2
  2
*D33
 70
    65
 10
0.0
 20
0.0
 30
0.0
  3
*D33
  1

  0
POINT
  5
1DE
  8
DEFPOINTS
 10
-289.908938
 20
-175.966181
 30
0.0
  0
POINT
  5
1DF
  8
DEFPOINTS
 10
-268.91265
 20
-230.956459
 30
0.0
  0
POINT
  5
1E0
  8
DEFPOINTS
 10
-260.488365
 20
-564.65863
 30
0.0
  0
LINE
  5
1E1
  8
2
 10
-289.908938
 20
-188.821181
 30
0.0
 11
-289.908938
 21
-577.51363
 31
0.0
  0
LINE
  5
1E2
  8
2
 10
-268.91265
 20
-243.811459
 30
0.0
 11
-268.91265
 21
-577.51363
 31
0.0
  0
LINE
  5
1E3
  8
2
 10
-462.680148
 20
-564.65863
 30
0.0
 11
-238.529363
 21
-564.65863
 31
0.0
  0
LINE
  5
1E4
  8
2
 10
-332.951931
 20
-572.248271
 30
0.0
 11
-289.908938
 21
-564.65863
 31
0.0
  0
LINE
  5
1E5
  8
2
 10
-332.951931
 20
-557.068989
 30
0.0
 11
-289.908938
 21
-564.65863
 31
0.0
  0
CIRCLE
  5
1E6
  8
2
 10
-268.91265
 20
-564.65863
 30
0.0
 40
5.142
  0
CIRCLE
  5
1E7
  8
2
 10
-268.91265
 20
-564.65863
 30
0.0
 40
3.0852
  0
TEXT
  5
1E8
  8
2
 10
-433.884949
 20
-559.516602
 30
0.0
 40
71.987999
  1
２０
 41
0.9
  7
MONOTXT
  0
ENDBLK
  5
1E9
  8
0
  0
BLOCK
  5
1EB
  8
2
  2
*D34
 70
    65
 10
0.0
 20
0.0
 30
0.0
  3
*D34
  1

  0
POINT
  5
1EC
  8
DEFPOINTS
 10
-268.91265
 20
-230.956459
 30
0.0
  0
POINT
  5
1ED
  8
DEFPOINTS
 10
-263.413622
 20
-375.89891
 30
0.0
  0
POINT
  5
1EE
  8
DEFPOINTS
 10
-411.706742
 20
-564.65863
 30
0.0
  0
LINE
  5
1EF
  8
2
 10
-268.91265
 20
-243.811459
 30
0.0
 11
-268.91265
 21
-577.51363
 31
0.0
  0
LINE
  5
1F0
  8
2
 10
-263.413622
 20
-388.75391
 30
0.0
 11
-263.413622
 21
-577.51363
 31
0.0
  0
LINE
  5
1F1
  8
2
 10
-299.295938
 20
-564.65863
 30
0.0
 11
-148.232821
 21
-564.65863
 31
0.0
  0
CIRCLE
  5
1F2
  8
2
 10
-268.91265
 20
-564.65863
 30
0.0
 40
5.142
  0
CIRCLE
  5
1F3
  8
2
 10
-268.91265
 20
-564.65863
 30
0.0
 40
3.0852
  0
LINE
  5
1F4
  8
2
 10
-220.370629
 20
-557.068989
 30
0.0
 11
-263.413622
 21
-564.65863
 31
0.0
  0
LINE
  5
1F5
  8
2
 10
-220.370629
 20
-572.248271
 30
0.0
 11
-263.413622
 21
-564.65863
 31
0.0
  0
TEXT
  5
1F6
  8
2
 10
-234.618423
 20
-559.516602
 30
0.0
 40
71.987999
  1
５
 41
0.9
  7
MONOTXT
  0
ENDBLK
  5
1F7
  8
0
  0
BLOCK
  5
1F9
  8
2
  2
*D35
 70
    65
 10
0.0
 20
0.0
 30
0.0
  3
*D35
  1

  0
POINT
  5
1FA
  8
DEFPOINTS
 10
-1636.670934
 20
-175.966181
 30
0.0
  0
POINT
  5
1FB
  8
DEFPOINTS
 10
-289.908938
 20
-175.966181
 30
0.0
  0
POINT
  5
1FC
  8
DEFPOINTS
 10
-904.310376
 20
-637.069804
 30
0.0
  0
LINE
  5
1FD
  8
2
 10
-1636.670934
 20
-188.821181
 30
0.0
 11
-1636.670934
 21
-649.924803
 31
0.0
  0
LINE
  5
1FE
  8
2
 10
-289.908938
 20
-188.821181
 30
0.0
 11
-289.908938
 21
-649.924803
 31
0.0
  0
LINE
  5
1FF
  8
2
 10
-1636.670934
 20
-637.069804
 30
0.0
 11
-289.908938
 21
-637.069804
 31
0.0
  0
LINE
  5
200
  8
2
 10
-1593.627941
 20
-629.480163
 30
0.0
 11
-1636.670934
 21
-637.069804
 31
0.0
  0
LINE
  5
201
  8
2
 10
-1593.627941
 20
-644.659445
 30
0.0
 11
-1636.670934
 21
-637.069804
 31
0.0
  0
LINE
  5
202
  8
2
 10
-332.951931
 20
-644.659445
 30
0.0
 11
-289.908938
 21
-637.069804
 31
0.0
  0
LINE
  5
203
  8
2
 10
-332.951931
 20
-629.480163
 30
0.0
 11
-289.908938
 21
-637.069804
 31
0.0
  0
TEXT
  5
204
  8
2
 10
-1251.241943
 20
-631.927795
 30
0.0
 40
71.987999
  1
１３５０（吊り位置）
 41
0.9
  7
MONOTXT
  0
ENDBLK
  5
205
  8
0
  0
ENDSEC
  0
SECTION
  2
ENTITIES
  0
DIMENSION
  5
206
  8
2
 62
     7
  2
*D2
 10
-8.189716
 20
1184.42316
 30
0.0
 11
-49.325721
 21
1359.918678
 31
0.0
  1
１７０
 13
-355.897271
 23
1076.767549
 33
0.0
 14
-243.417158
 24
1244.737852
 34
0.0
 50
90.000003
  0
DIMENSION
  5
207
  8
2
 62
     7
  2
*D3
 10
-103.819442
 20
1301.347089
 30
0.0
 11
-144.955444
 21
1359.918678
 31
0.0
  1
１４０
 13
-438.8826
 23
1106.762246
 33
0.0
 14
-243.417158
 24
1244.737852
 34
0.0
 50
90.000003
  0
DIMENSION
  5
208
  8
2
 62
     7
  2
*D4
 10
-367.573227
 20
849.929453
 30
0.0
 11
-192.724966
 21
891.065472
 31
0.0
  1
１４８
 13
-455.879595
 23
1086.765781
 33
0.0
 14
-307.905756
 24
1030.77568
 34
0.0
  0
DIMENSION
  5
209
  8
2
 62
     7
  2
*D5
 10
-206.62439
 20
937.466994
 30
0.0
 11
-221.520166
 21
978.603008
 31
0.0
  1
６７
 13
-374.893913
 23
1057.770907
 33
0.0
 14
-307.905756
 24
1030.77568
 34
0.0
  0
DIMENSION
  5
20A
  8
2
 62
     7
  2
*D6
 10
-400.286406
 20
749.94713
 30
0.0
 11
-415.38674
 21
791.083111
 31
0.0
  1
２１５
 13
-522.867752
 23
1091.764897
 33
0.0
 14
-307.905756
 24
1030.77568
 34
0.0
  0
DIMENSION
  5
20B
  8
2
 62
     7
  2
*D7
 10
-971.748356
 20
-949.752368
 30
0.0
 11
-963.289905
 21
-908.616352
 31
0.0
  1
１３１０
 13
-1617.674293
 23
-1253.896696
 33
0.0
 14
-308.905579
 24
-1253.896696
 34
0.0
  0
DIMENSION
  5
20C
  8
2
 62
     7
  2
*D8
 10
-605.162087
 20
-949.752368
 30
0.0
 11
-157.031549
 21
-908.616352
 31
0.0
  1
６５
 13
-308.905579
 23
-1253.896696
 33
0.0
 14
-243.417158
 24
-1467.858869
 34
0.0
  0
DIMENSION
  5
20D
  8
2
 62
     7
  2
*D9
 10
-1370.680473
 20
-949.752368
 30
0.0
 11
-1769.548273
 21
-908.616352
 31
0.0
  1
６５
 13
-1683.162715
 23
-1467.858869
 33
0.0
 14
-1617.674293
 24
-1253.896696
 34
0.0
  0
DIMENSION
  5
20E
  8
2
 62
     7
  2
*D10
 10
-1067.98331
 20
-1665.899146
 30
0.0
 11
-963.289938
 21
-1624.763203
 31
0.0
  1
７２０
 13
-1323.22635
 23
-1377.874777
 33
0.0
 14
-603.353522
 24
-1377.874777
 34
0.0
  0
DIMENSION
  5
20F
  8
2
 62
     7
  2
*D11
 10
-1830.744439
 20
-1149.280315
 30
0.0
 11
-1871.880478
 21
-1162.711693
 31
0.0
  1
１００
 13
-1323.22635
 23
-1377.874777
 33
0.0
 14
-1323.22635
 24
-1277.892454
 34
0.0
 50
90.000003
  0
DIMENSION
  5
210
  8
2
 62
     7
  2
*D12
 10
-503.947886
 20
510.226348
 30
0.0
 11
1542.294568
 21
551.362347
 31
0.0
  1
１４４０
 13
822.421846
 23
378.940136
 33
0.0
 14
2262.167303
 24
378.940136
 34
0.0
  0
DIMENSION
  5
211
  8
2
 62
     7
  2
*D13
 10
719.833034
 20
-35.000885
 30
0.0
 11
678.697037
 21
4.00637
 31
0.0
  1
８００
 13
847.417427
 23
-395.92297
 33
0.0
 14
847.417427
 24
403.935717
 34
0.0
 50
90.000003
  0
DIMENSION
  5
212
  8
2
 62
     7
  2
*D14
 10
-720.506956
 20
-749.156247
 30
0.0
 11
-963.289914
 21
-708.020222
 31
0.0
  1
１４００（天井開口部）
 13
-1663.16625
 23
-375.89891
 33
0.0
 14
-263.413622
 24
-375.89891
 34
0.0
  0
DIMENSION
  5
213
  8
2
 62
     7
  2
*D15
 10
-326.80005
 20
295.101305
 30
0.0
 11
-367.93605
 21
264.812508
 31
0.0
  1
１９０
 13
-443.881716
 23
169.681533
 33
0.0
 14
-562.860681
 24
359.943495
 34
0.0
 50
90.000003
  0
DIMENSION
  5
214
  8
2
 62
     7
  2
*D16
 10
-419.738118
 20
225.061022
 30
0.0
 11
-460.874129
 21
296.854551
 31
0.0
  1
１２５
 13
-515.369077
 23
233.765603
 33
0.0
 14
-562.860681
 24
359.943495
 34
0.0
 50
90.000003
  0
DIMENSION
  5
215
  8
2
 62
     7
  2
*D17
 10
-40.697398
 20
237.183379
 30
0.0
 11
-81.833397
 21
219.968239
 31
0.0
  1
２８０
 13
-308.905579
 23
79.992989
 33
0.0
 14
-562.860681
 24
359.943495
 34
0.0
 50
90.000003
  0
DIMENSION
  5
216
  8
2
 62
     7
  2
*D18
 10
-140.679721
 20
225.061022
 30
0.0
 11
-181.81572
 21
243.464088
 31
0.0
  1
２３０
 13
-358.896741
 23
126.984681
 33
0.0
 14
-562.860681
 24
359.943495
 34
0.0
 50
90.000003
  0
DIMENSION
  5
217
  8
2
 62
     7
  2
*D19
 10
-1923.918481
 20
167.799774
 30
0.0
 11
-1965.054437
 21
4.033873
 31
0.0
  1
７６０（天井開口部）
 13
-1663.16625
 23
-375.89891
 33
0.0
 14
-1663.16625
 24
383.966648
 34
0.0
 50
90.000003
  0
DIMENSION
  5
218
  8
2
 62
     7
  2
*D20
 10
159.267249
 20
-66.302438
 30
0.0
 11
118.131256
 21
3.506508
 31
0.0
  1
７１０
 13
268.365861
 23
-352.930471
 33
0.0
 14
268.365861
 24
359.943495
 34
0.0
 50
90.000003
  0
DIMENSION
  5
219
  8
2
 62
     7
  2
*D21
 10
159.267249
 20
277.520505
 30
0.0
 11
118.131242
 21
490.321324
 31
0.0
  1
４５
 13
268.365861
 23
359.943495
 33
0.0
 14
484.327679
 24
403.935717
 34
0.0
 50
90.000003
  0
DIMENSION
  5
21A
  8
2
 62
     7
  2
*D22
 10
159.267249
 20
-240.1455
 30
0.0
 11
118.131257
 21
-482.308589
 31
0.0
  1
４５
 13
484.327679
 23
-395.92297
 33
0.0
 14
268.365861
 24
-352.930471
 34
0.0
 50
90.000003
  0
DIMENSION
  5
21B
  8
2
 62
     7
  2
*D23
 10
-1939.143398
 20
-1371.084129
 30
0.0
 11
-1980.279404
 21
-1212.702782
 31
0.0
  1
１４０
 13
-1683.162715
 23
-1467.858869
 33
0.0
 14
-1369.305504
 24
-1327.883616
 34
0.0
 50
90.000003
  0
DIMENSION
  5
21C
  8
2
 62
     7
  2
*D24
 10
-1939.143398
 20
-1371.084129
 30
0.0
 11
-1980.279402
 21
-1574.240901
 31
0.0
  1
２０
 13
-1658.167134
 23
-1487.855333
 33
0.0
 14
-1683.162715
 24
-1467.858869
 34
0.0
 50
90.000003
  0
DIMENSION
  5
21D
  8
2
 62
     7
  2
*D25
 10
-78.418643
 20
-1401.83991
 30
0.0
 11
-119.554641
 21
-1383.873662
 31
0.0
  1
１７０
 13
-243.417158
 23
-1467.858869
 33
0.0
 14
-268.91265
 24
-1299.888565
 34
0.0
 50
90.000003
  0
DIMENSION
  5
21E
  8
2
 62
     7
  2
*D26
 10
47.167463
 20
-1401.83991
 30
0.0
 11
6.031464
 21
-1360.877831
 31
0.0
  1
２１５
 13
-243.417158
 23
-1467.858869
 33
0.0
 14
-308.905579
 24
-1253.896696
 34
0.0
 50
90.000003
  0
DIMENSION
  5
21F
  8
2
 62
     7
  2
*D27
 10
-1819.845933
 20
-75.036173
 30
0.0
 11
-1860.981918
 21
28.997581
 31
0.0
  1
３５０
 13
-1666.665631
 23
-145.971484
 33
0.0
 14
-1666.665631
 24
203.966648
 34
0.0
 50
90.000003
  0
DIMENSION
  5
220
  8
2
 62
     7
  2
*D28
 10
-1819.845933
 20
432.987152
 30
0.0
 11
-1860.981918
 21
293.966652
 31
0.0
  1
１８０
 13
-1666.665631
 23
203.966648
 33
0.0
 14
-1666.665631
 24
383.966648
 34
0.0
 50
90.000003
  0
DIMENSION
  5
221
  8
2
 62
     7
  2
*D29
 10
-446.704134
 20
-564.65863
 30
0.0
 11
-1550.285333
 21
-523.522602
 31
0.0
  1
２０
 13
-1657.667222
 23
-230.956459
 33
0.0
 14
-1636.670934
 24
-175.966181
 34
0.0
  0
DIMENSION
  5
222
  8
2
 62
     7
  2
*D30
 10
-1488.132724
 20
-564.65863
 30
0.0
 11
-1720.75668
 21
-523.522602
 31
0.0
  1
５
 13
-1663.16625
 23
-375.89891
 33
0.0
 14
-1657.667222
 24
-230.956459
 34
0.0
  0
DIMENSION
  5
223
  8
2
 62
     7
  2
*D31
 10
-544.401435
 20
510.226348
 30
0.0
 11
-433.383566
 21
551.362347
 31
0.0
  1
２５０
 13
-557.861565
 23
359.943495
 33
0.0
 14
-308.905579
 24
263.956042
 34
0.0
  0
DIMENSION
  5
224
  8
2
 62
     7
  2
*D32
 10
-279.930727
 20
-478.248129
 30
0.0
 11
-400.290308
 21
-437.112141
 31
0.0
  1
２０
 13
-313.904696
 23
-352.930471
 33
0.0
 14
-289.908938
 24
-175.966181
 34
0.0
  0
DIMENSION
  5
225
  8
2
 62
     7
  2
*D33
 10
-260.488365
 20
-564.65863
 30
0.0
 11
-376.29455
 21
-523.522602
 31
0.0
  1
２０
 13
-289.908938
 23
-175.966181
 33
0.0
 14
-268.91265
 24
-230.956459
 34
0.0
  0
DIMENSION
  5
226
  8
2
 62
     7
  2
*D34
 10
-411.706742
 20
-564.65863
 30
0.0
 11
-205.823224
 21
-523.522602
 31
0.0
  1
５
 13
-268.91265
 23
-230.956459
 33
0.0
 14
-263.413622
 24
-375.89891
 34
0.0
  0
DIMENSION
  5
227
  8
2
 62
     7
  2
*D35
 10
-904.310376
 20
-637.069804
 30
0.0
 11
-963.289948
 21
-595.933796
 31
0.0
  1
１３５０（吊り位置）
 13
-1636.670934
 23
-175.966181
 33
0.0
 14
-289.908938
 24
-175.966181
 34
0.0
  0
LINE
  5
228
  8
1
 10
-552.862449
 20
157.979202
 30
0.0
 11
-541.764611
 21
157.979202
 31
0.0
  0
LINE
  5
229
  8
1
 10
-552.862449
 20
171.976727
 30
0.0
 11
-541.764611
 21
171.976727
 31
0.0
  0
ARC
  5
22A
  8
1
 10
-541.764611
 20
159.978848
 30
0.0
 40
1.999646
 50
270.0
 51
314.427
  0
ARC
  5
22B
  8
1
 10
-541.764611
 20
169.97708
 30
0.0
 40
1.999646
 50
45.573
 51
90.0
  0
LINE
  5
22C
  8
1
 10
-552.862449
 20
1157.753231
 30
0.0
 11
-541.764611
 21
1157.753231
 31
0.0
  0
LINE
  5
22D
  8
1
 10
-552.862449
 20
1143.755705
 30
0.0
 11
-541.764611
 21
1143.755705
 31
0.0
  0
LINE
  5
22E
  8
1
 10
-539.764964
 20
1145.755352
 30
0.0
 11
-539.764964
 21
1155.753584
 31
0.0
  0
ARC
  5
22F
  8
1
 10
-541.764611
 20
1155.753584
 30
0.0
 40
1.999646
 50
0.0
 51
90.0
  0
ARC
  5
230
  8
1
 10
-541.764611
 20
1145.755352
 30
0.0
 40
1.999646
 50
270.0
 51
0.0
  0
LINE
  5
231
  8
1
  6
DASHDOT
 10
-455.879595
 20
174.680649
 30
0.0
 11
-455.879595
 21
63.391424
 31
0.0
  0
LINE
  5
232
  8
1
 10
-445.494031
 20
130.688426
 30
0.0
 11
-466.265459
 21
130.688426
 31
0.0
  0
LINE
  5
233
  8
1
 10
-469.727247
 20
143.686129
 30
0.0
 11
-469.727247
 21
130.688426
 31
0.0
  0
LINE
  5
234
  8
1
 10
-442.032243
 20
143.686129
 30
0.0
 11
-442.032243
 21
130.688426
 31
0.0
  0
LINE
  5
235
  8
1
 10
-462.803471
 20
130.688426
 30
0.0
 11
-462.803471
 21
143.686129
 31
0.0
  0
LINE
  5
236
  8
1
 10
-448.956019
 20
130.688426
 30
0.0
 11
-448.956019
 21
143.686129
 31
0.0
  0
LINE
  5
237
  8
1
 10
-440.382335
 20
143.686129
 30
0.0
 11
-471.376855
 21
143.686129
 31
0.0
  0
LINE
  5
238
  8
1
 10
-440.382335
 20
163.682593
 30
0.0
 11
-440.382335
 21
143.686129
 31
0.0
  0
LINE
  5
239
  8
1
 10
-471.376855
 20
163.682593
 30
0.0
 11
-471.376855
 21
143.686129
 31
0.0
  0
LINE
  5
23A
  8
1
 10
-440.382335
 20
163.682593
 30
0.0
 11
-471.376855
 21
163.682593
 31
0.0
  0
LINE
  5
23B
  8
1
 10
-443.881716
 20
169.681533
 30
0.0
 11
-467.877474
 21
169.681533
 31
0.0
  0
LINE
  5
23C
  8
1
 10
-463.628225
 20
163.682593
 30
0.0
 11
-463.628225
 21
143.686129
 31
0.0
  0
LINE
  5
23D
  8
1
 10
-448.130965
 20
163.682593
 30
0.0
 11
-448.130965
 21
143.686129
 31
0.0
  0
LINE
  5
23E
  8
1
 10
-440.29395
 20
1106.762246
 30
0.0
 11
-448.086773
 21
1120.259859
 31
0.0
  0
LINE
  5
23F
  8
1
 10
-463.672617
 20
1093.264632
 30
0.0
 11
-471.465439
 21
1106.762246
 31
0.0
  0
LINE
  5
240
  8
1
 10
-448.086773
 20
1120.259859
 30
0.0
 11
-463.672617
 21
1120.259859
 31
0.0
  0
LINE
  5
241
  8
1
 10
-448.086773
 20
1093.264632
 30
0.0
 11
-463.672617
 21
1093.264632
 31
0.0
  0
LINE
  5
242
  8
1
 10
-463.672617
 20
1120.259859
 30
0.0
 11
-471.465439
 21
1106.762246
 31
0.0
  0
LINE
  5
243
  8
1
 10
-440.29395
 20
1106.762246
 30
0.0
 11
-448.086773
 21
1093.264632
 31
0.0
  0
CIRCLE
  5
244
  8
1
 10
-455.879595
 20
1106.762246
 30
0.0
 40
8.048577
  0
LINE
  5
245
  8
1
  6
DASHDOT
 10
-522.867752
 20
236.765072
 30
0.0
 11
-522.867752
 21
63.391424
 31
0.0
  0
LINE
  5
246
  8
1
 10
-515.52145
 20
206.770375
 30
0.0
 11
-530.214653
 21
206.770375
 31
0.0
  0
LINE
  5
247
  8
1
 10
-532.666119
 20
215.768784
 30
0.0
 11
-532.666119
 21
206.770375
 31
0.0
  0
LINE
  5
248
  8
1
 10
-513.069684
 20
215.768784
 30
0.0
 11
-513.069684
 21
206.770375
 31
0.0
  0
LINE
  5
249
  8
1
 10
-517.968718
 20
215.768784
 30
0.0
 11
-517.968718
 21
206.770375
 31
0.0
  0
LINE
  5
24A
  8
1
 10
-527.767085
 20
215.768784
 30
0.0
 11
-527.767085
 21
206.770375
 31
0.0
  0
LINE
  5
24B
  8
1
 10
-510.168097
 20
215.768784
 30
0.0
 11
-535.567706
 21
215.768784
 31
0.0
  0
LINE
  5
24C
  8
1
 10
-535.567706
 20
228.266575
 30
0.0
 11
-535.567706
 21
215.768784
 31
0.0
  0
LINE
  5
24D
  8
1
 10
-510.168097
 20
228.266575
 30
0.0
 11
-510.168097
 21
215.768784
 31
0.0
  0
LINE
  5
24E
  8
1
 10
-510.168097
 20
228.266575
 30
0.0
 11
-535.567706
 21
228.266575
 31
0.0
  0
LINE
  5
24F
  8
1
 10
-515.369077
 20
233.765603
 30
0.0
 11
-530.366426
 21
233.765603
 31
0.0
  0
LINE
  5
250
  8
1
 10
-516.518074
 20
228.266575
 30
0.0
 11
-516.518074
 21
215.768784
 31
0.0
  0
LINE
  5
251
  8
1
 10
-529.217729
 20
228.266575
 30
0.0
 11
-529.217729
 21
215.768784
 31
0.0
  0
LINE
  5
252
  8
1
  6
DASHDOT
 10
-507.870403
 20
1106.762246
 30
0.0
 11
-537.8651
 21
1106.762246
 31
0.0
  0
LINE
  5
253
  8
1
  6
DASHDOT
 10
-522.867752
 20
1091.764897
 30
0.0
 11
-522.867752
 21
1121.759594
 31
0.0
  0
LINE
  5
254
  8
1
 10
-510.168397
 20
1106.762246
 30
0.0
 11
-516.518074
 21
1117.760301
 31
0.0
  0
LINE
  5
255
  8
1
 10
-529.217729
 20
1095.76419
 30
0.0
 11
-535.567406
 21
1106.762246
 31
0.0
  0
LINE
  5
256
  8
1
 10
-516.518074
 20
1095.76419
 30
0.0
 11
-529.217729
 21
1095.76419
 31
0.0
  0
LINE
  5
257
  8
1
 10
-516.518074
 20
1117.760301
 30
0.0
 11
-529.217729
 21
1117.760301
 31
0.0
  0
LINE
  5
258
  8
1
 10
-516.518074
 20
1095.76419
 30
0.0
 11
-510.168397
 21
1106.762246
 31
0.0
  0
LINE
  5
259
  8
1
 10
-535.567406
 20
1106.762246
 30
0.0
 11
-529.217729
 21
1117.760301
 31
0.0
  0
CIRCLE
  5
25A
  8
1
 10
-522.867752
 20
1106.762246
 30
0.0
 40
7.498674
  0
LINE
  5
25B
  8
1
  6
DASHDOT
 10
-374.893913
 20
128.984328
 30
0.0
 11
-374.893913
 21
63.391424
 31
0.0
  0
LINE
  5
25C
  8
1
 10
-358.896741
 20
126.984681
 30
0.0
 11
-390.891085
 21
126.984681
 31
0.0
  0
LINE
  5
25D
  8
1
 10
-390.891085
 20
126.984681
 30
0.0
 11
-391.361202
 21
79.992989
 31
0.0
  0
LINE
  5
25E
  8
1
 10
-358.896741
 20
126.984681
 30
0.0
 11
-358.426824
 21
79.992989
 31
0.0
  0
LINE
  5
25F
  8
1
 10
-1617.674293
 20
-230.956459
 30
0.0
 11
-1657.667222
 21
-230.956459
 31
0.0
  0
LINE
  5
260
  8
1
 10
-1617.674293
 20
1076.767549
 30
0.0
 11
-1657.667222
 21
1076.767549
 31
0.0
  0
LINE
  5
261
  8
1
 10
-1617.674293
 20
-1299.888565
 30
0.0
 11
-1657.667222
 21
-1299.888565
 31
0.0
  0
LINE
  5
262
  8
1
 10
-1645.669343
 20
197.967708
 30
0.0
 11
-1657.667222
 21
197.967708
 31
0.0
  0
LINE
  5
263
  8
1
 10
-1645.669343
 20
209.965587
 30
0.0
 11
-1657.667222
 21
209.965587
 31
0.0
  0
LINE
  5
264
  8
1
 10
-1617.674293
 20
263.956042
 30
0.0
 11
-1657.667222
 21
263.956042
 31
0.0
  0
LINE
  5
265
  8
1
 10
-1657.667222
 20
263.956042
 30
0.0
 11
-1657.667222
 21
209.965587
 31
0.0
  0
LINE
  5
266
  8
1
 10
-1642.669874
 20
217.964173
 30
0.0
 11
-1642.669874
 21
212.965057
 31
0.0
  0
LINE
  5
267
  8
1
 10
-1630.671995
 20
217.964173
 30
0.0
 11
-1630.671995
 21
189.969122
 31
0.0
  0
ARC
  5
268
  8
1
 10
-1636.670934
 20
189.969122
 30
0.0
 40
5.998939
 50
180.0
 51
0.0
  0
ARC
  5
269
  8
1
 10
-1636.670934
 20
217.964173
 30
0.0
 40
5.998939
 50
0.0
 51
180.0
  0
LINE
  5
26A
  8
1
 10
-1642.669874
 20
194.968238
 30
0.0
 11
-1642.669874
 21
189.969122
 31
0.0
  0
ARC
  5
26B
  8
1
 10
-1645.669343
 20
212.965057
 30
0.0
 40
2.99947
 50
270.0
 51
0.0
  0
ARC
  5
26C
  8
1
 10
-1645.669343
 20
194.968238
 30
0.0
 40
2.99947
 50
0.0
 51
90.0
  0
LINE
  5
26D
  8
1
 10
-1657.667222
 20
197.967708
 30
0.0
 11
-1657.667222
 21
-139.972545
 31
0.0
  0
LINE
  5
26E
  8
1
 10
-1645.669343
 20
-151.970424
 30
0.0
 11
-1657.667222
 21
-151.970424
 31
0.0
  0
LINE
  5
26F
  8
1
 10
-1645.669343
 20
-139.972545
 30
0.0
 11
-1657.667222
 21
-139.972545
 31
0.0
  0
LINE
  5
270
  8
1
 10
-1642.669874
 20
-131.973959
 30
0.0
 11
-1642.669874
 21
-136.973075
 31
0.0
  0
LINE
  5
271
  8
1
 10
-1630.671995
 20
-131.973959
 30
0.0
 11
-1630.671995
 21
-159.96901
 31
0.0
  0
ARC
  5
272
  8
1
 10
-1636.670934
 20
-159.96901
 30
0.0
 40
5.998939
 50
180.0
 51
0.0
  0
ARC
  5
273
  8
1
 10
-1636.670934
 20
-131.973959
 30
0.0
 40
5.998939
 50
0.0
 51
180.0
  0
LINE
  5
274
  8
1
 10
-1642.669874
 20
-154.969893
 30
0.0
 11
-1642.669874
 21
-159.96901
 31
0.0
  0
ARC
  5
275
  8
1
 10
-1645.669343
 20
-136.973075
 30
0.0
 40
2.99947
 50
270.0
 51
0.0
  0
ARC
  5
276
  8
1
 10
-1645.669343
 20
-154.969893
 30
0.0
 40
2.99947
 50
0.0
 51
90.0
  0
LINE
  5
277
  8
1
 10
-1657.667222
 20
1076.767549
 30
0.0
 11
-1657.667222
 21
1092.76472
 31
0.0
  0
LINE
  5
278
  8
1
 10
-1657.667222
 20
-1315.885737
 30
0.0
 11
-1657.667222
 21
-1299.888565
 31
0.0
  0
LINE
  5
279
  8
1
 10
-308.905579
 20
263.956042
 30
0.0
 11
-308.905579
 21
79.992989
 31
0.0
  0
LINE
  5
27A
  8
1
 10
-308.905579
 20
-230.956459
 30
0.0
 11
-268.91265
 21
-230.956459
 31
0.0
  0
LINE
  5
27B
  8
1
 10
-307.905756
 20
1076.767549
 30
0.0
 11
-268.91265
 21
1076.767549
 31
0.0
  0
LINE
  5
27C
  8
1
 10
-308.905579
 20
-1299.888565
 30
0.0
 11
-268.91265
 21
-1299.888565
 31
0.0
  0
LINE
  5
27D
  8
1
 10
-280.910529
 20
197.967708
 30
0.0
 11
-268.91265
 21
197.967708
 31
0.0
  0
LINE
  5
27E
  8
1
 10
-280.910529
 20
209.965587
 30
0.0
 11
-268.91265
 21
209.965587
 31
0.0
  0
LINE
  5
27F
  8
1
 10
-308.905579
 20
263.956042
 30
0.0
 11
-268.91265
 21
263.956042
 31
0.0
  0
LINE
  5
280
  8
1
 10
-268.91265
 20
263.956042
 30
0.0
 11
-268.91265
 21
209.965587
 31
0.0
  0
LINE
  5
281
  8
1
 10
-283.909999
 20
217.964173
 30
0.0
 11
-283.909999
 21
212.965057
 31
0.0
  0
LINE
  5
282
  8
1
 10
-295.907877
 20
217.964173
 30
0.0
 11
-295.907877
 21
189.969122
 31
0.0
  0
ARC
  5
283
  8
1
 10
-289.908938
 20
189.969122
 30
0.0
 40
5.998939
 50
180.0
 51
0.0
  0
ARC
  5
284
  8
1
 10
-289.908938
 20
217.964173
 30
0.0
 40
5.998939
 50
0.0
 51
180.0
  0
LINE
  5
285
  8
1
 10
-283.909999
 20
194.968238
 30
0.0
 11
-283.909999
 21
189.969122
 31
0.0
  0
ARC
  5
286
  8
1
 10
-280.910529
 20
212.965057
 30
0.0
 40
2.99947
 50
180.0
 51
270.0
  0
ARC
  5
287
  8
1
 10
-280.910529
 20
194.968238
 30
0.0
 40
2.99947
 50
90.0
 51
180.0
  0
LINE
  5
288
  8
1
 10
-268.91265
 20
197.967708
 30
0.0
 11
-268.91265
 21
-230.956459
 31
0.0
  0
LINE
  5
289
  8
1
 10
-280.910529
 20
-151.970424
 30
0.0
 11
-268.91265
 21
-151.970424
 31
0.0
  0
LINE
  5
28A
  8
1
 10
-280.910529
 20
-139.972545
 30
0.0
 11
-268.91265
 21
-139.972545
 31
0.0
  0
LINE
  5
28B
  8
1
 10
-283.909999
 20
-131.973959
 30
0.0
 11
-283.909999
 21
-136.973075
 31
0.0
  0
LINE
  5
28C
  8
1
 10
-295.907877
 20
-131.973959
 30
0.0
 11
-295.907877
 21
-159.96901
 31
0.0
  0
ARC
  5
28D
  8
1
 10
-289.908938
 20
-159.96901
 30
0.0
 40
5.998939
 50
180.0
 51
0.0
  0
ARC
  5
28E
  8
1
 10
-289.908938
 20
-131.973959
 30
0.0
 40
5.998939
 50
0.0
 51
180.0
  0
LINE
  5
28F
  8
1
 10
-283.909999
 20
-154.969893
 30
0.0
 11
-283.909999
 21
-159.96901
 31
0.0
  0
ARC
  5
290
  8
1
 10
-280.910529
 20
-136.973075
 30
0.0
 40
2.99947
 50
180.0
 51
270.0
  0
ARC
  5
291
  8
1
 10
-280.910529
 20
-154.969893
 30
0.0
 40
2.99947
 50
90.0
 51
180.0
  0
LINE
  5
292
  8
1
 10
-268.91265
 20
1076.767549
 30
0.0
 11
-268.91265
 21
1092.76472
 31
0.0
  0
LINE
  5
293
  8
1
 10
-268.91265
 20
-1315.885737
 30
0.0
 11
-268.91265
 21
-1299.888565
 31
0.0
  0
LINE
  5
294
  8
1
 10
-438.382688
 20
130.688426
 30
0.0
 11
-438.382688
 21
79.992989
 31
0.0
  0
LINE
  5
295
  8
1
 10
-473.376502
 20
130.688426
 30
0.0
 11
-473.376502
 21
79.992989
 31
0.0
  0
LINE
  5
296
  8
1
 10
-505.370845
 20
171.776562
 30
0.0
 11
-505.370845
 21
79.992989
 31
0.0
  0
LINE
  5
297
  8
1
 10
-509.87005
 20
206.770375
 30
0.0
 11
-509.87005
 21
171.776562
 31
0.0
  0
LINE
  5
298
  8
1
 10
-535.865454
 20
206.770375
 30
0.0
 11
-535.865454
 21
171.776562
 31
0.0
  0
LINE
  5
299
  8
1
 10
-540.364658
 20
171.776562
 30
0.0
 11
-540.364658
 21
79.992989
 31
0.0
  0
LINE
  5
29A
  8
1
 10
-438.382688
 20
130.688426
 30
0.0
 11
-473.376502
 21
130.688426
 31
0.0
  0
LINE
  5
29B
  8
1
 10
-509.87005
 20
206.770375
 30
0.0
 11
-535.865454
 21
206.770375
 31
0.0
  0
LINE
  5
29C
  8
1
 10
-505.370845
 20
171.776562
 30
0.0
 11
-540.364658
 21
171.776562
 31
0.0
  0
LINE
  5
29D
  8
1
 10
-582.957228
 20
1206.744569
 30
0.0
 11
-613.851666
 21
1206.744569
 31
0.0
  0
LINE
  5
29E
  8
1
 10
-582.957228
 20
1206.744569
 30
0.0
 11
-582.957228
 21
1208.344086
 31
0.0
  0
LINE
  5
29F
  8
1
 10
-1617.674293
 20
-352.930471
 30
0.0
 11
-1617.674293
 21
359.943495
 31
0.0
  0
LINE
  5
2A0
  8
1
 10
-1612.675177
 20
359.943495
 30
0.0
 11
-1617.674293
 21
359.943495
 31
0.0
  0
LINE
  5
2A1
  8
1
 10
-1612.675177
 20
-352.930471
 30
0.0
 11
-1617.674293
 21
-352.930471
 31
0.0
  0
LINE
  5
2A2
  8
1
 10
-557.861565
 20
79.992989
 30
0.0
 11
-557.861565
 21
359.943495
 31
0.0
  0
LINE
  5
2A3
  8
1
 10
-308.905579
 20
-352.930471
 30
0.0
 11
-308.905579
 21
79.992989
 31
0.0
  0
LINE
  5
2A4
  8
1
 10
-308.905579
 20
-352.930471
 30
0.0
 11
-313.904696
 21
-352.930471
 31
0.0
  0
LINE
  5
2A5
  8
1
 10
-307.905756
 20
1030.77568
 30
0.0
 11
-307.905756
 21
1244.737852
 31
0.0
  0
LINE
  5
2A6
  8
1
 10
-307.905756
 20
1030.77568
 30
0.0
 11
-557.861565
 21
1030.77568
 31
0.0
  0
LINE
  5
2A7
  8
1
  6
DASHDOT
 10
-355.897271
 20
1076.767549
 30
0.0
 11
-393.890554
 21
1076.767549
 31
0.0
  0
LINE
  5
2A8
  8
1
 10
-374.893913
 20
1057.770907
 30
0.0
 11
-374.893913
 21
1095.76419
 31
0.0
  0
CIRCLE
  5
2A9
  8
1
 10
-374.893913
 20
1076.767549
 30
0.0
 40
16.497083
  0
LINE
  5
2AA
  8
1
  6
DASHDOT
 10
-455.879595
 20
1086.765781
 30
0.0
 11
-455.879595
 21
1126.75871
 31
0.0
  0
LINE
  5
2AB
  8
1
  6
DASHDOT
 10
-438.8826
 20
1106.762246
 30
0.0
 11
-472.87659
 21
1106.762246
 31
0.0
  0
LINE
  5
2AC
  8
1
 10
-557.861565
 20
1030.77568
 30
0.0
 11
-557.861565
 21
1206.744569
 31
0.0
  0
CIRCLE
  5
2AD
  8
1
 10
-1386.715126
 20
1131.757827
 30
0.0
 40
19.996465
  0
LINE
  5
2AE
  8
1
  6
DASHDOT
 10
-1363.718991
 20
1131.757827
 30
0.0
 11
-1409.71106
 21
1131.757827
 31
0.0
  0
LINE
  5
2AF
  8
1
  6
DASHDOT
 10
-1386.715126
 20
1108.761892
 30
0.0
 11
-1386.715126
 21
1154.753761
 31
0.0
  0
LINE
  5
2B0
  8
1
 10
-562.860681
 20
1030.77568
 30
0.0
 11
-1617.674293
 21
1030.77568
 31
0.0
  0
LINE
  5
2B1
  8
1
 10
-307.905756
 20
1206.744569
 30
0.0
 11
-1617.674293
 21
1206.744569
 31
0.0
  0
LINE
  5
2B2
  8
1
 10
-562.860681
 20
1030.77568
 30
0.0
 11
-557.861565
 21
1030.77568
 31
0.0
  0
LINE
  5
2B3
  8
1
 10
-1617.674293
 20
1030.77568
 30
0.0
 11
-1617.674293
 21
1244.737852
 31
0.0
  0
LINE
  5
2B4
  8
1
 10
-557.861565
 20
359.943495
 30
0.0
 11
-1612.675177
 21
359.943495
 31
0.0
  0
LINE
  5
2B5
  8
1
 10
-313.904696
 20
-352.930471
 30
0.0
 11
-1612.675177
 21
-352.930471
 31
0.0
  0
LINE
  5
2B6
  8
1
 10
-308.905579
 20
79.992989
 30
0.0
 11
-557.861565
 21
79.992989
 31
0.0
  0
LINE
  5
2B7
  8
1
 10
-1617.674293
 20
-1467.858869
 30
0.0
 11
-1617.674293
 21
-1253.896696
 31
0.0
  0
LINE
  5
2B8
  8
1
 10
-308.905579
 20
-1467.858869
 30
0.0
 11
-308.905579
 21
-1253.896696
 31
0.0
  0
LINE
  5
2B9
  8
1
 10
-308.905579
 20
-1429.865586
 30
0.0
 11
-1617.674293
 21
-1429.865586
 31
0.0
  0
LINE
  5
2BA
  8
1
 10
-308.905579
 20
-1253.896696
 30
0.0
 11
-1617.674293
 21
-1253.896696
 31
0.0
  0
LINE
  5
2BB
  8
1
 10
-552.862449
 20
123.985212
 30
0.0
 11
-552.862449
 21
205.970717
 31
0.0
  0
LINE
  5
2BC
  8
1
 10
-557.861565
 20
205.970717
 30
0.0
 11
-552.862449
 21
205.970717
 31
0.0
  0
LINE
  5
2BD
  8
1
 10
-557.861565
 20
123.985212
 30
0.0
 11
-552.862449
 21
123.985212
 31
0.0
  0
LINE
  5
2BE
  8
1
 10
-557.861565
 20
1175.750049
 30
0.0
 11
-552.862449
 21
1175.750049
 31
0.0
  0
LINE
  5
2BF
  8
1
 10
-557.861565
 20
1125.758887
 30
0.0
 11
-552.862449
 21
1125.758887
 31
0.0
  0
LINE
  5
2C0
  8
1
 10
-552.862449
 20
1125.758887
 30
0.0
 11
-552.862449
 21
1175.750049
 31
0.0
  0
LINE
  5
2C1
  8
1
 10
-1657.667222
 20
-151.970424
 30
0.0
 11
-1657.667222
 21
-230.956459
 31
0.0
  0
LINE
  5
2C2
  8
1
 10
-1626.17279
 20
1264.734317
 30
0.0
 11
-300.407082
 21
1264.734317
 31
0.0
  0
LINE
  5
2C3
  8
1
 10
-1626.17279
 20
1244.737852
 30
0.0
 11
-300.407082
 21
1244.737852
 31
0.0
  0
LINE
  5
2C4
  8
1
 10
-1617.674293
 20
1219.742271
 30
0.0
 11
-307.905756
 21
1219.742271
 31
0.0
  0
LINE
  5
2C5
  8
1
 10
-1626.17279
 20
1244.737852
 30
0.0
 11
-1626.17279
 21
1264.734317
 31
0.0
  0
LINE
  5
2C6
  8
1
 10
-1683.162715
 20
1244.737852
 30
0.0
 11
-1683.162715
 21
1250.705497
 31
0.0
  0
LINE
  5
2C7
  8
1
 10
-1658.167134
 20
1264.734317
 30
0.0
 11
-1626.17279
 21
1264.734317
 31
0.0
  0
ARC
  5
2C8
  8
1
 10
-1658.167134
 20
1234.73962
 30
0.0
 40
29.994697
 50
90.0
 51
145.2281
  0
ARC
  5
2C9
  8
1
 10
-1681.163068
 20
1250.705497
 30
0.0
 40
1.999646
 50
145.2281
 51
180.0
  0
LINE
  5
2CA
  8
1
 10
-1683.162715
 20
1244.737852
 30
0.0
 11
-1626.17279
 21
1244.737852
 31
0.0
  0
LINE
  5
2CB
  8
1
 10
-300.407082
 20
1244.737852
 30
0.0
 11
-300.407082
 21
1264.734317
 31
0.0
  0
LINE
  5
2CC
  8
1
 10
-243.417158
 20
1244.737852
 30
0.0
 11
-243.417158
 21
1250.705497
 31
0.0
  0
LINE
  5
2CD
  8
1
 10
-268.412739
 20
1264.734317
 30
0.0
 11
-300.407082
 21
1264.734317
 31
0.0
  0
ARC
  5
2CE
  8
1
 10
-268.412739
 20
1234.73962
 30
0.0
 40
29.994697
 50
34.7719
 51
90.0
  0
ARC
  5
2CF
  8
1
 10
-245.416804
 20
1250.705497
 30
0.0
 40
1.999646
 50
0.0
 51
34.7719
  0
LINE
  5
2D0
  8
1
 10
-243.417158
 20
1244.737852
 30
0.0
 11
-300.407082
 21
1244.737852
 31
0.0
  0
LINE
  5
2D1
  8
1
 10
-1626.17279
 20
-1487.855333
 30
0.0
 11
-300.407082
 21
-1487.855333
 31
0.0
  0
LINE
  5
2D2
  8
1
 10
-1626.17279
 20
-1467.858869
 30
0.0
 11
-300.407082
 21
-1467.858869
 31
0.0
  0
LINE
  5
2D3
  8
1
 10
-1617.674293
 20
-1442.863288
 30
0.0
 11
-308.905579
 21
-1442.863288
 31
0.0
  0
LINE
  5
2D4
  8
1
 10
-1626.17279
 20
-1467.858869
 30
0.0
 11
-1626.17279
 21
-1487.855333
 31
0.0
  0
LINE
  5
2D5
  8
1
 10
-1683.162715
 20
-1467.858869
 30
0.0
 11
-1683.162715
 21
-1473.826613
 31
0.0
  0
LINE
  5
2D6
  8
1
 10
-1658.167134
 20
-1487.855333
 30
0.0
 11
-1626.17279
 21
-1487.855333
 31
0.0
  0
ARC
  5
2D7
  8
1
 10
-1658.167134
 20
-1457.860636
 30
0.0
 40
29.994697
 50
214.7719
 51
270.0
  0
ARC
  5
2D8
  8
1
 10
-1681.163068
 20
-1473.826613
 30
0.0
 40
1.999646
 50
180.0
 51
214.7719
  0
LINE
  5
2D9
  8
1
 10
-1683.162715
 20
-1467.858869
 30
0.0
 11
-1626.17279
 21
-1467.858869
 31
0.0
  0
LINE
  5
2DA
  8
1
 10
-300.407082
 20
-1467.858869
 30
0.0
 11
-300.407082
 21
-1487.855333
 31
0.0
  0
LINE
  5
2DB
  8
1
 10
-243.417158
 20
-1467.858869
 30
0.0
 11
-243.417158
 21
-1473.826613
 31
0.0
  0
LINE
  5
2DC
  8
1
 10
-268.412739
 20
-1487.855333
 30
0.0
 11
-300.407082
 21
-1487.855333
 31
0.0
  0
ARC
  5
2DD
  8
1
 10
-268.412739
 20
-1457.860636
 30
0.0
 40
29.994697
 50
270.0
 51
325.2281
  0
ARC
  5
2DE
  8
1
 10
-245.416804
 20
-1473.826613
 30
0.0
 40
1.999646
 50
325.2281
 51
0.0
  0
LINE
  5
2DF
  8
1
 10
-243.417158
 20
-1467.858869
 30
0.0
 11
-300.407082
 21
-1467.858869
 31
0.0
  0
LINE
  5
2E0
  8
1
 10
-1626.17279
 20
-395.895375
 30
0.0
 11
-300.407082
 21
-395.895375
 31
0.0
  0
LINE
  5
2E1
  8
1
 10
-1626.17279
 20
403.963112
 30
0.0
 11
-300.407082
 21
403.963112
 31
0.0
  0
LINE
  5
2E2
  8
1
 10
-1683.162715
 20
378.967531
 30
0.0
 11
-1683.162715
 21
-370.899894
 31
0.0
  0
ARC
  5
2E3
  8
1
 10
-1658.167134
 20
-370.899894
 30
0.0
 40
24.995581
 50
180.0
 51
270.0
  0
LINE
  5
2E4
  8
1
 10
-1626.17279
 20
-395.895375
 30
0.0
 11
-1658.167134
 21
-395.895375
 31
0.0
  0
LINE
  5
2E5
  8
1
 10
-1626.17279
 20
-375.89891
 30
0.0
 11
-1628.672348
 21
-375.89891
 31
0.0
  0
ARC
  5
2E6
  8
1
 10
-1658.167134
 20
378.967531
 30
0.0
 40
24.995581
 50
90.0
 51
180.0
  0
LINE
  5
2E7
  8
1
 10
-1626.17279
 20
403.963112
 30
0.0
 11
-1658.167134
 21
403.963112
 31
0.0
  0
LINE
  5
2E8
  8
1
 10
-1626.17279
 20
383.966648
 30
0.0
 11
-1628.672348
 21
383.966648
 31
0.0
  0
LINE
  5
2E9
  8
1
 10
-243.417158
 20
378.967531
 30
0.0
 11
-243.417158
 21
-370.899894
 31
0.0
  0
ARC
  5
2EA
  8
1
 10
-268.412739
 20
-370.899894
 30
0.0
 40
24.995581
 50
270.0
 51
0.0
  0
LINE
  5
2EB
  8
1
 10
-300.407082
 20
-395.895375
 30
0.0
 11
-268.412739
 21
-395.895375
 31
0.0
  0
LINE
  5
2EC
  8
1
 10
-300.407082
 20
-375.89891
 30
0.0
 11
-297.907524
 21
-375.89891
 31
0.0
  0
ARC
  5
2ED
  8
1
 10
-268.412739
 20
378.967531
 30
0.0
 40
24.995581
 50
0.0
 51
90.0
  0
LINE
  5
2EE
  8
1
 10
-300.407082
 20
403.963112
 30
0.0
 11
-268.412739
 21
403.963112
 31
0.0
  0
LINE
  5
2EF
  8
1
 10
-300.407082
 20
383.966648
 30
0.0
 11
-297.907524
 21
383.966648
 31
0.0
  0
LINE
  5
2F0
  8
1
  6
DASHDOT
 10
-963.289886
 20
-445.886537
 30
0.0
 11
-963.289886
 21
453.954274
 31
0.0
  0
LINE
  5
2F1
  8
1
  6
DASHDOT
 10
-963.289886
 20
-1557.84296
 30
0.0
 11
-963.289886
 21
-1183.90907
 31
0.0
  0
LINE
  5
2F2
  8
1
  6
DASHDOT
 10
-963.289886
 20
960.788054
 30
0.0
 11
-963.289886
 21
1334.721943
 31
0.0
  0
LINE
  5
2F3
  8
1
  6
DIVIDE
 10
-263.413622
 20
383.966648
 30
0.0
 11
-1663.16625
 21
383.966648
 31
0.0
  0
LINE
  5
2F4
  8
1
  6
DIVIDE
 10
-263.413622
 20
-375.89891
 30
0.0
 11
-1663.16625
 21
-375.89891
 31
0.0
  0
LINE
  5
2F5
  8
1
  6
DIVIDE
 10
-263.413622
 20
-375.89891
 30
0.0
 11
-263.413622
 21
383.966648
 31
0.0
  0
LINE
  5
2F6
  8
1
  6
DIVIDE
 10
-1663.16625
 20
-375.89891
 30
0.0
 11
-1663.16625
 21
383.966648
 31
0.0
  0
LINE
  5
2F7
  8
1
  6
DASHED
 10
-1606.676237
 20
-145.971484
 30
0.0
 11
-1666.665631
 21
-145.971484
 31
0.0
  0
LINE
  5
2F8
  8
1
  6
DASHED
 10
-1636.670934
 20
-175.966181
 30
0.0
 11
-1636.670934
 21
-115.976787
 31
0.0
  0
LINE
  5
2F9
  8
1
  6
DASHED
 10
-1636.670934
 20
173.971951
 30
0.0
 11
-1636.670934
 21
233.961345
 31
0.0
  0
LINE
  5
2FA
  8
1
  6
DASHED
 10
-1606.676237
 20
203.966648
 30
0.0
 11
-1666.665631
 21
203.966648
 31
0.0
  0
LINE
  5
2FB
  8
1
  6
DASHED
 10
-289.908938
 20
173.971951
 30
0.0
 11
-289.908938
 21
233.961345
 31
0.0
  0
LINE
  5
2FC
  8
1
  6
DASHED
 10
-319.903635
 20
203.966648
 30
0.0
 11
-259.914241
 21
203.966648
 31
0.0
  0
LINE
  5
2FD
  8
1
  6
DASHED
 10
-289.908938
 20
-175.966181
 30
0.0
 11
-289.908938
 21
-115.976787
 31
0.0
  0
LINE
  5
2FE
  8
1
  6
DASHED
 10
-319.903635
 20
-145.971484
 30
0.0
 11
-259.914241
 21
-145.971484
 31
0.0
  0
LINE
  5
2FF
  8
1
 10
-530.366426
 20
233.765603
 30
0.0
 11
-535.567706
 21
228.266575
 31
0.0
  0
LINE
  5
300
  8
1
 10
-515.369077
 20
233.765603
 30
0.0
 11
-510.168097
 21
228.266575
 31
0.0
  0
LINE
  5
301
  8
1
 10
-467.877474
 20
169.681533
 30
0.0
 11
-471.376855
 21
163.682593
 31
0.0
  0
LINE
  5
302
  8
1
 10
-443.881716
 20
169.681533
 30
0.0
 11
-440.382335
 21
163.682593
 31
0.0
  0
LINE
  5
303
  8
1
 10
-1617.674293
 20
-1304.487752
 30
0.0
 11
-1653.068135
 21
-1304.487752
 31
0.0
  0
LINE
  5
304
  8
1
 10
-1653.068135
 20
-1315.885737
 30
0.0
 11
-1653.068135
 21
-1304.487752
 31
0.0
  0
LINE
  5
305
  8
1
 10
-1653.068135
 20
-1315.885737
 30
0.0
 11
-1657.667222
 21
-1315.885737
 31
0.0
  0
LINE
  5
306
  8
1
 10
-308.905579
 20
-1304.487752
 30
0.0
 11
-273.511937
 21
-1304.487752
 31
0.0
  0
LINE
  5
307
  8
1
 10
-273.511937
 20
-1315.885737
 30
0.0
 11
-273.511937
 21
-1304.487752
 31
0.0
  0
LINE
  5
308
  8
1
 10
-273.511937
 20
-1315.885737
 30
0.0
 11
-268.91265
 21
-1315.885737
 31
0.0
  0
LINE
  5
309
  8
1
 10
-1617.674293
 20
1081.366536
 30
0.0
 11
-1653.068135
 21
1081.366536
 31
0.0
  0
LINE
  5
30A
  8
1
 10
-1653.068135
 20
1081.366536
 30
0.0
 11
-1653.068135
 21
1092.76472
 31
0.0
  0
LINE
  5
30B
  8
1
 10
-1653.068135
 20
1092.76472
 30
0.0
 11
-1657.667222
 21
1092.76472
 31
0.0
  0
LINE
  5
30C
  8
1
 10
-307.905756
 20
1081.366536
 30
0.0
 11
-273.511937
 21
1081.366536
 31
0.0
  0
LINE
  5
30D
  8
1
 10
-273.511937
 20
1081.366536
 30
0.0
 11
-273.511937
 21
1092.76472
 31
0.0
  0
LINE
  5
30E
  8
1
 10
-273.511937
 20
1092.76472
 30
0.0
 11
-268.91265
 21
1092.76472
 31
0.0
  0
LINE
  5
30F
  8
1
  6
DASHDOT
 10
-603.353522
 20
-1277.892454
 30
0.0
 11
-1323.22635
 21
-1277.892454
 31
0.0
  0
LINE
  5
310
  8
1
  6
DASHDOT
 10
-603.353522
 20
-1377.874777
 30
0.0
 11
-1323.22635
 21
-1377.874777
 31
0.0
  0
LINE
  5
311
  8
1
  6
DASHDOT
 10
-1323.22635
 20
-1377.874777
 30
0.0
 11
-1323.22635
 21
-1277.892454
 31
0.0
  0
LINE
  5
312
  8
1
  6
DASHDOT
 10
-603.353522
 20
-1377.874777
 30
0.0
 11
-603.353522
 21
-1277.892454
 31
0.0
  0
LINE
  5
313
  8
1
  6
DASHDOT
 10
-549.963761
 20
-1327.883616
 30
0.0
 11
-1369.305504
 21
-1327.883616
 31
0.0
  0
LINE
  5
314
  8
1
  6
DASHED
 10
-1636.670934
 20
-1333.948444
 30
0.0
 11
-1636.670934
 21
-1167.090544
 31
0.0
  0
LINE
  5
315
  8
1
 10
-1643.669697
 20
-1324.484217
 30
0.0
 11
-1643.669697
 21
-1304.487752
 31
0.0
  0
LINE
  5
316
  8
1
 10
-1629.672172
 20
-1324.484217
 30
0.0
 11
-1629.672172
 21
-1304.487752
 31
0.0
  0
LINE
  5
317
  8
1
 10
-1624.858123
 20
-1289.890333
 30
0.0
 11
-1648.483846
 21
-1289.890333
 31
0.0
  0
LINE
  5
318
  8
1
 10
-1624.858123
 20
-1314.485984
 30
0.0
 11
-1648.483846
 21
-1314.485984
 31
0.0
  0
LINE
  5
319
  8
1
 10
-1629.672172
 20
-1324.484217
 30
0.0
 11
-1643.669697
 21
-1324.484217
 31
0.0
  0
LINE
  5
31A
  8
1
 10
-1648.483846
 20
-1314.485984
 30
0.0
 11
-1648.483846
 21
-1304.487752
 31
0.0
  0
LINE
  5
31B
  8
1
 10
-1624.858123
 20
-1314.485984
 30
0.0
 11
-1624.858123
 21
-1304.487752
 31
0.0
  0
LINE
  5
31C
  8
1
 10
-1648.483846
 20
-1299.888565
 30
0.0
 11
-1648.483846
 21
-1289.890333
 31
0.0
  0
LINE
  5
31D
  8
1
 10
-1643.669697
 20
-1299.888565
 30
0.0
 11
-1643.669697
 21
-1178.573213
 31
0.0
  0
LINE
  5
31E
  8
1
 10
-1624.858123
 20
-1299.888565
 30
0.0
 11
-1624.858123
 21
-1289.890333
 31
0.0
  0
LINE
  5
31F
  8
1
 10
-1629.764755
 20
-1299.888565
 30
0.0
 11
-1629.764755
 21
-1178.573213
 31
0.0
  0
LINE
  5
320
  8
1
  6
DASHED
 10
-1636.670934
 20
-1333.948444
 30
0.0
 11
-1636.670934
 21
-1167.090544
 31
0.0
  0
LINE
  5
321
  8
1
 10
-1626.857769
 20
-1289.890333
 30
0.0
 11
-1646.484199
 21
-1289.890333
 31
0.0
  0
LINE
  5
322
  8
1
 10
-1631.671818
 20
-1324.484217
 30
0.0
 11
-1641.670051
 21
-1324.484217
 31
0.0
  0
LINE
  5
323
  8
1
 10
-1626.857769
 20
-1314.485984
 30
0.0
 11
-1646.484199
 21
-1314.485984
 31
0.0
  0
LINE
  5
324
  8
1
  6
DASHED
 10
-1636.670934
 20
-1333.948444
 30
0.0
 11
-1636.670934
 21
-1167.090544
 31
0.0
  0
LINE
  5
325
  8
1
 10
-1626.857769
 20
-1289.890333
 30
0.0
 11
-1646.484199
 21
-1289.890333
 31
0.0
  0
LINE
  5
326
  8
1
 10
-1631.671818
 20
-1324.484217
 30
0.0
 11
-1641.670051
 21
-1324.484217
 31
0.0
  0
LINE
  5
327
  8
1
 10
-1626.857769
 20
-1314.485984
 30
0.0
 11
-1646.484199
 21
-1314.485984
 31
0.0
  0
LINE
  5
328
  8
1
  6
DASHED
 10
-1636.670934
 20
-1333.948444
 30
0.0
 11
-1636.670934
 21
-1167.090544
 31
0.0
  0
LINE
  5
329
  8
1
 10
-1626.857769
 20
-1289.890333
 30
0.0
 11
-1646.484199
 21
-1289.890333
 31
0.0
  0
LINE
  5
32A
  8
1
 10
-1631.671818
 20
-1324.484217
 30
0.0
 11
-1641.670051
 21
-1324.484217
 31
0.0
  0
LINE
  5
32B
  8
1
 10
-1626.857769
 20
-1314.485984
 30
0.0
 11
-1646.484199
 21
-1314.485984
 31
0.0
  0
LINE
  5
32C
  8
1
  6
DASHED
 10
-1636.670934
 20
-1333.948444
 30
0.0
 11
-1636.670934
 21
-1167.090544
 31
0.0
  0
LINE
  5
32D
  8
1
 10
-1626.857769
 20
-1289.890333
 30
0.0
 11
-1646.484199
 21
-1289.890333
 31
0.0
  0
LINE
  5
32E
  8
1
 10
-1631.671818
 20
-1324.484217
 30
0.0
 11
-1641.670051
 21
-1324.484217
 31
0.0
  0
LINE
  5
32F
  8
1
 10
-1626.857769
 20
-1314.485984
 30
0.0
 11
-1646.484199
 21
-1314.485984
 31
0.0
  0
LINE
  5
330
  8
1
  6
DASHED
 10
-1636.670934
 20
-1333.948444
 30
0.0
 11
-1636.670934
 21
-1167.090544
 31
0.0
  0
LINE
  5
331
  8
1
 10
-1626.857769
 20
-1289.890333
 30
0.0
 11
-1646.484199
 21
-1289.890333
 31
0.0
  0
LINE
  5
332
  8
1
 10
-1631.671818
 20
-1324.484217
 30
0.0
 11
-1641.670051
 21
-1324.484217
 31
0.0
  0
LINE
  5
333
  8
1
 10
-1626.857769
 20
-1314.485984
 30
0.0
 11
-1646.484199
 21
-1314.485984
 31
0.0
  0
LINE
  5
334
  8
1
  6
DASHED
 10
-1636.670934
 20
-1333.948444
 30
0.0
 11
-1636.670934
 21
-1167.090544
 31
0.0
  0
LINE
  5
335
  8
1
 10
-1626.857769
 20
-1289.890333
 30
0.0
 11
-1646.484199
 21
-1289.890333
 31
0.0
  0
LINE
  5
336
  8
1
 10
-1631.671818
 20
-1324.484217
 30
0.0
 11
-1641.670051
 21
-1324.484217
 31
0.0
  0
LINE
  5
337
  8
1
 10
-1626.857769
 20
-1314.485984
 30
0.0
 11
-1646.484199
 21
-1314.485984
 31
0.0
  0
LINE
  5
338
  8
1
  6
DASHED
 10
-1636.670934
 20
-1333.948444
 30
0.0
 11
-1636.670934
 21
-1167.090544
 31
0.0
  0
LINE
  5
339
  8
1
 10
-1626.857769
 20
-1289.890333
 30
0.0
 11
-1646.484199
 21
-1289.890333
 31
0.0
  0
LINE
  5
33A
  8
1
 10
-1631.671818
 20
-1324.484217
 30
0.0
 11
-1641.670051
 21
-1324.484217
 31
0.0
  0
LINE
  5
33B
  8
1
 10
-1626.857769
 20
-1314.485984
 30
0.0
 11
-1646.484199
 21
-1314.485984
 31
0.0
  0
LINE
  5
33C
  8
1
  6
DASHED
 10
-1636.670934
 20
-1333.948444
 30
0.0
 11
-1636.670934
 21
-1167.090544
 31
0.0
  0
LINE
  5
33D
  8
1
 10
-1626.857769
 20
-1289.890333
 30
0.0
 11
-1646.484199
 21
-1289.890333
 31
0.0
  0
LINE
  5
33E
  8
1
 10
-1631.671818
 20
-1324.484217
 30
0.0
 11
-1641.670051
 21
-1324.484217
 31
0.0
  0
LINE
  5
33F
  8
1
 10
-1626.857769
 20
-1314.485984
 30
0.0
 11
-1646.484199
 21
-1314.485984
 31
0.0
  0
LINE
  5
340
  8
1
  6
DASHED
 10
-1636.670934
 20
-1333.948444
 30
0.0
 11
-1636.670934
 21
-1167.090544
 31
0.0
  0
LINE
  5
341
  8
1
 10
-1626.857769
 20
-1289.890333
 30
0.0
 11
-1646.484199
 21
-1289.890333
 31
0.0
  0
LINE
  5
342
  8
1
 10
-1631.671818
 20
-1324.484217
 30
0.0
 11
-1641.670051
 21
-1324.484217
 31
0.0
  0
LINE
  5
343
  8
1
 10
-1626.857769
 20
-1314.485984
 30
0.0
 11
-1646.484199
 21
-1314.485984
 31
0.0
  0
LINE
  5
344
  8
1
  6
DASHED
 10
-1636.670934
 20
-1333.948444
 30
0.0
 11
-1636.670934
 21
-1167.090544
 31
0.0
  0
LINE
  5
345
  8
1
 10
-1626.857769
 20
-1289.890333
 30
0.0
 11
-1646.484199
 21
-1289.890333
 31
0.0
  0
LINE
  5
346
  8
1
 10
-1631.671818
 20
-1324.484217
 30
0.0
 11
-1641.670051
 21
-1324.484217
 31
0.0
  0
LINE
  5
347
  8
1
 10
-1626.857769
 20
-1314.485984
 30
0.0
 11
-1646.484199
 21
-1314.485984
 31
0.0
  0
LINE
  5
348
  8
1
  6
DASHED
 10
-1636.670934
 20
-1333.948444
 30
0.0
 11
-1636.670934
 21
-1167.090544
 31
0.0
  0
LINE
  5
349
  8
1
 10
-1626.857769
 20
-1289.890333
 30
0.0
 11
-1646.484199
 21
-1289.890333
 31
0.0
  0
LINE
  5
34A
  8
1
 10
-1631.671818
 20
-1324.484217
 30
0.0
 11
-1641.670051
 21
-1324.484217
 31
0.0
  0
LINE
  5
34B
  8
1
 10
-1626.857769
 20
-1314.485984
 30
0.0
 11
-1646.484199
 21
-1314.485984
 31
0.0
  0
LINE
  5
34C
  8
1
 10
-296.907701
 20
-1299.888565
 30
0.0
 11
-296.907701
 21
-1178.573213
 31
0.0
  0
LINE
  5
34D
  8
1
  6
DASHED
 10
-289.908938
 20
-1333.948444
 30
0.0
 11
-289.908938
 21
-1167.090544
 31
0.0
  0
LINE
  5
34E
  8
1
 10
-283.002659
 20
-1299.888565
 30
0.0
 11
-283.002659
 21
-1178.573213
 31
0.0
  0
LINE
  5
34F
  8
1
 10
-301.72205
 20
-1299.888565
 30
0.0
 11
-301.72205
 21
-1289.890333
 31
0.0
  0
LINE
  5
350
  8
1
 10
-278.096127
 20
-1289.890333
 30
0.0
 11
-301.72205
 21
-1289.890333
 31
0.0
  0
LINE
  5
351
  8
1
 10
-278.096127
 20
-1299.888565
 30
0.0
 11
-278.096127
 21
-1289.890333
 31
0.0
  0
LINE
  5
352
  8
1
 10
-301.72205
 20
-1314.485984
 30
0.0
 11
-301.72205
 21
-1304.487752
 31
0.0
  0
LINE
  5
353
  8
1
 10
-296.907701
 20
-1324.484217
 30
0.0
 11
-296.907701
 21
-1304.487752
 31
0.0
  0
LINE
  5
354
  8
1
 10
-278.096127
 20
-1314.485984
 30
0.0
 11
-301.72205
 21
-1314.485984
 31
0.0
  0
LINE
  5
355
  8
1
 10
-282.910175
 20
-1324.484217
 30
0.0
 11
-282.910175
 21
-1304.487752
 31
0.0
  0
LINE
  5
356
  8
1
 10
-278.096127
 20
-1314.485984
 30
0.0
 11
-278.096127
 21
-1304.487752
 31
0.0
  0
LINE
  5
357
  8
1
 10
-282.910175
 20
-1324.484217
 30
0.0
 11
-296.907701
 21
-1324.484217
 31
0.0
  0
LINE
  5
358
  8
1
  6
DASHDOT
 10
-182.456904
 20
4.033869
 30
0.0
 11
-1736.108423
 21
4.033869
 31
0.0
  0
CIRCLE
  5
359
  8
1
 10
388.344649
 20
164.977964
 30
0.0
 40
19.996465
  0
CIRCLE
  5
35A
  8
1
 10
388.344649
 20
164.977964
 30
0.0
 40
6.998763
  0
LINE
  5
35B
  8
1
 10
298.360558
 20
126.984681
 30
0.0
 11
314.357729
 21
126.984681
 31
0.0
  0
LINE
  5
35C
  8
1
 10
298.360558
 20
126.984681
 30
0.0
 11
297.890641
 21
79.992989
 31
0.0
  0
LINE
  5
35D
  8
1
  6
DASHDOT
 10
319.356846
 20
341.946677
 30
0.0
 11
319.356846
 21
295.954808
 31
0.0
  0
LINE
  5
35E
  8
1
  6
DASHDOT
 10
359.349775
 20
341.946677
 30
0.0
 11
359.349775
 21
295.954808
 31
0.0
  0
LINE
  5
35F
  8
1
  6
DASHDOT
 10
296.360911
 20
318.950742
 30
0.0
 11
382.345709
 21
318.950742
 31
0.0
  0
LINE
  5
360
  8
1
 10
344.352426
 20
-230.956459
 30
0.0
 11
314.357729
 21
-230.956459
 31
0.0
  0
LINE
  5
361
  8
1
 10
314.357729
 20
263.956042
 30
0.0
 11
314.357729
 21
-230.956459
 31
0.0
  0
CIRCLE
  5
362
  8
1
 10
339.35331
 20
-200.961762
 30
0.0
 40
4.999116
  0
LINE
  5
363
  8
1
 10
354.350659
 20
253.957809
 30
0.0
 11
354.350659
 21
60.134177
 31
0.0
  0
ARC
  5
364
  8
1
 10
344.352426
 20
-220.958227
 30
0.0
 40
9.998232
 50
270.0
 51
0.0
  0
LINE
  5
365
  8
1
 10
324.355962
 20
-151.970424
 30
0.0
 11
314.357729
 21
-151.970424
 31
0.0
  0
LINE
  5
366
  8
1
 10
324.355962
 20
-139.972545
 30
0.0
 11
314.357729
 21
-139.972545
 31
0.0
  0
LINE
  5
367
  8
1
 10
324.355962
 20
197.967708
 30
0.0
 11
314.357729
 21
197.967708
 31
0.0
  0
LINE
  5
368
  8
1
 10
324.355962
 20
209.965587
 30
0.0
 11
314.357729
 21
209.965587
 31
0.0
  0
CIRCLE
  5
369
  8
1
 10
339.35331
 20
70.990157
 30
0.0
 40
4.999116
  0
LINE
  5
36A
  8
1
 10
344.352426
 20
263.956042
 30
0.0
 11
314.357729
 21
263.956042
 31
0.0
  0
ARC
  5
36B
  8
1
 10
344.352426
 20
253.957809
 30
0.0
 40
9.998232
 50
0.0
 51
90.0
  0
LINE
  5
36C
  8
1
 10
339.35331
 20
36.853893
 30
0.0
 11
339.35331
 21
5.143899
 31
0.0
  0
LINE
  5
36D
  8
1
 10
351.422276
 20
-11.066335
 30
0.0
 11
342.281792
 21
-1.925851
 31
0.0
  0
LINE
  5
36E
  8
1
 10
342.281792
 20
43.923943
 30
0.0
 11
351.422276
 21
53.064427
 31
0.0
  0
LINE
  5
36F
  8
1
 10
354.350659
 20
-18.136385
 30
0.0
 11
354.350659
 21
-220.958227
 31
0.0
  0
ARC
  5
370
  8
1
 10
344.352426
 20
-18.136385
 30
0.0
 40
9.998232
 50
0.0
 51
45.0
  0
ARC
  5
371
  8
1
 10
349.351543
 20
5.143899
 30
0.0
 40
9.998232
 50
180.0
 51
225.0
  0
ARC
  5
372
  8
1
 10
349.351543
 20
36.853893
 30
0.0
 40
9.998232
 50
135.0
 51
180.0
  0
ARC
  5
373
  8
1
 10
344.352426
 20
60.134177
 30
0.0
 40
9.998232
 50
315.0
 51
0.0
  0
LINE
  5
374
  8
1
 10
484.327679
 20
-352.930471
 30
0.0
 11
268.365861
 21
-352.930471
 31
0.0
  0
LINE
  5
375
  8
1
 10
268.365861
 20
-352.930471
 30
0.0
 11
268.365861
 21
359.943495
 31
0.0
  0
LINE
  5
376
  8
1
 10
444.33475
 20
-352.930471
 30
0.0
 11
444.33475
 21
359.943495
 31
0.0
  0
LINE
  5
377
  8
1
 10
414.340053
 20
79.992989
 30
0.0
 11
414.340053
 21
128.984328
 31
0.0
  0
CIRCLE
  5
378
  8
1
 10
319.356846
 20
318.950742
 30
0.0
 40
16.996995
  0
CIRCLE
  5
379
  8
1
 10
359.349775
 20
318.950742
 30
0.0
 40
16.996995
  0
LINE
  5
37A
  8
1
 10
484.327679
 20
359.943495
 30
0.0
 11
268.365861
 21
359.943495
 31
0.0
  0
ARC
  5
37B
  8
1
 10
388.344649
 20
164.977964
 30
0.0
 40
25.995404
 50
0.0
 51
22.6574
  0
ARC
  5
37C
  8
1
 10
388.344649
 20
190.973368
 30
0.0
 40
15.997172
 50
22.5767
 51
157.4237
  0
ARC
  5
37D
  8
1
 10
388.344649
 20
138.98236
 30
0.0
 40
15.997172
 50
202.5764
 51
337.4234
  0
LINE
  5
37E
  8
1
 10
364.349391
 20
154.978532
 30
0.0
 11
373.578259
 21
132.829648
 31
0.0
  0
LINE
  5
37F
  8
1
 10
412.340406
 20
154.979732
 30
0.0
 11
403.111138
 21
132.829148
 31
0.0
  0
LINE
  5
380
  8
1
 10
403.111338
 20
197.12608
 30
0.0
 11
412.339906
 21
174.977496
 31
0.0
  0
LINE
  5
381
  8
1
 10
373.578459
 20
197.12688
 30
0.0
 11
364.348891
 21
174.975997
 31
0.0
  0
ARC
  5
382
  8
1
 10
388.344649
 20
164.977964
 30
0.0
 40
25.995404
 50
157.3313
 51
180.0
  0
ARC
  5
383
  8
1
 10
388.344649
 20
164.977964
 30
0.0
 40
25.995404
 50
337.3397
 51
0.0
  0
ARC
  5
384
  8
1
 10
388.344649
 20
164.977964
 30
0.0
 40
25.995404
 50
180.0
 51
202.6592
  0
LINE
  5
385
  8
1
 10
414.340053
 20
79.992989
 30
0.0
 11
354.350659
 21
79.992989
 31
0.0
  0
LINE
  5
386
  8
1
 10
414.340053
 20
128.984328
 30
0.0
 11
444.33475
 21
128.984328
 31
0.0
  0
LINE
  5
387
  8
1
 10
314.357729
 20
79.992989
 30
0.0
 11
268.365861
 21
79.992989
 31
0.0
  0
LINE
  5
388
  8
1
 10
458.13241
 20
359.943495
 30
0.0
 11
458.13241
 21
-352.930471
 31
0.0
  0
LINE
  5
389
  8
1
 10
484.327679
 20
356.644078
 30
0.0
 11
484.327679
 21
355.44429
 31
0.0
  0
LINE
  5
38A
  8
1
 10
484.327679
 20
-347.431443
 30
0.0
 11
484.327679
 21
-348.631431
 31
0.0
  0
LINE
  5
38B
  8
1
 10
490.295424
 20
-395.92297
 30
0.0
 11
484.327679
 21
-395.92297
 31
0.0
  0
LINE
  5
38C
  8
1
 10
504.324144
 20
-370.927289
 30
0.0
 11
504.324144
 21
378.995127
 31
0.0
  0
ARC
  5
38D
  8
1
 10
474.329447
 20
-370.927289
 30
0.0
 40
29.994697
 50
304.7719
 51
0.0
  0
ARC
  5
38E
  8
1
 10
490.295424
 20
-393.923324
 30
0.0
 40
1.999646
 50
270.0
 51
304.7719
  0
LINE
  5
38F
  8
1
 10
490.295424
 20
403.935717
 30
0.0
 11
484.327679
 21
403.935717
 31
0.0
  0
ARC
  5
390
  8
1
 10
474.329447
 20
378.940136
 30
0.0
 40
29.994697
 50
0.0
 51
55.2281
  0
ARC
  5
391
  8
1
 10
490.295424
 20
401.936071
 30
0.0
 40
1.999646
 50
55.2281
 51
90.0
  0
LINE
  5
392
  8
1
 10
484.327679
 20
403.935717
 30
0.0
 11
484.327679
 21
-395.92297
 31
0.0
  0
LINE
  5
393
  8
1
 10
330.354901
 20
-157.969363
 30
0.0
 11
330.354901
 21
-224.962119
 31
0.0
  0
LINE
  5
394
  8
1
 10
330.354901
 20
191.968769
 30
0.0
 11
330.354901
 21
-133.973606
 31
0.0
  0
LINE
  5
395
  8
1
 10
330.354901
 20
257.961501
 30
0.0
 11
330.354901
 21
215.964526
 31
0.0
  0
LINE
  5
396
  8
1
 10
318.957016
 20
-151.970424
 30
0.0
 11
318.957016
 21
-139.972545
 31
0.0
  0
ARC
  5
397
  8
1
 10
324.355962
 20
-224.95752
 30
0.0
 40
5.998939
 50
270.0
 51
0.0
  0
ARC
  5
398
  8
1
 10
324.355962
 20
-157.969363
 30
0.0
 40
5.998939
 50
0.0
 51
90.0003
  0
ARC
  5
399
  8
1
 10
324.355962
 20
-133.973606
 30
0.0
 40
5.998939
 50
270.0
 51
0.0
  0
LINE
  5
39A
  8
1
 10
318.957016
 20
197.967708
 30
0.0
 11
318.957016
 21
209.965587
 31
0.0
  0
ARC
  5
39B
  8
1
 10
324.355962
 20
191.968769
 30
0.0
 40
5.998939
 50
0.0
 51
90.0003
  0
ARC
  5
39C
  8
1
 10
324.355962
 20
215.964526
 30
0.0
 40
5.998939
 50
270.0
 51
0.0
  0
ARC
  5
39D
  8
1
 10
324.355962
 20
257.957102
 30
0.0
 40
5.998939
 50
0.0
 51
90.0003
  0
TEXT
  5
39E
  8
2
 10
-1735.699585
 20
-143.57019
 30
0.0
 40
71.987999
  1
（吊り位置）
 50
90.000201
 41
0.6
  7
MONOTXT
  0
POINT
  5
39F
  8
1
  6
DOT
 10
1205.822762
 20
-298.967812
 30
0.0
  0
LINE
  5
3A0
  8
1
 10
1553.592377
 20
-313.937365
 30
0.0
 11
1551.292984
 21
-313.937365
 31
0.0
  0
LINE
  5
3A1
  8
1
 10
2114.193464
 20
-230.374739
 30
0.0
 11
2114.193464
 21
-333.000595
 31
0.0
  0
LINE
  5
3A2
  8
1
 10
2205.177379
 20
-230.952037
 30
0.0
 11
2205.177379
 21
-333.334036
 31
0.0
  0
LINE
  5
3A3
  8
1
 10
2205.177379
 20
73.394056
 30
0.0
 11
2205.177379
 21
-223.034736
 31
0.0
  0
LINE
  5
3A4
  8
1
 10
879.41177
 20
73.394056
 30
0.0
 11
879.41177
 21
-223.034736
 31
0.0
  0
LINE
  5
3A5
  8
1
 10
2205.177379
 20
-345.931708
 30
0.0
 11
2205.177379
 21
-395.92297
 31
0.0
  0
LINE
  5
3A6
  8
1
 10
879.41177
 20
-345.931708
 30
0.0
 11
879.41177
 21
-395.92297
 31
0.0
  0
LINE
  5
3A7
  8
1
 10
2205.177379
 20
-395.92297
 30
0.0
 11
879.41177
 21
-395.92297
 31
0.0
  0
LINE
  5
3A8
  8
1
 10
2205.177379
 20
403.935717
 30
0.0
 11
879.41177
 21
403.935717
 31
0.0
  0
LINE
  5
3A9
  8
1
 10
2205.177379
 20
403.935717
 30
0.0
 11
2205.177379
 21
345.345976
 31
0.0
  0
LINE
  5
3AA
  8
1
 10
879.41177
 20
403.935717
 30
0.0
 11
879.41177
 21
345.345976
 31
0.0
  0
LINE
  5
3AB
  8
1
 10
2262.167303
 20
378.940136
 30
0.0
 11
2262.167303
 21
-370.927289
 31
0.0
  0
LINE
  5
3AC
  8
1
 10
2205.177379
 20
403.935717
 30
0.0
 11
2205.177379
 21
-395.92297
 31
0.0
  0
ARC
  5
3AD
  8
1
 10
2237.171722
 20
-370.927289
 30
0.0
 40
24.995581
 50
270.0
 51
0.0
  0
LINE
  5
3AE
  8
1
 10
2205.177379
 20
-395.92297
 30
0.0
 11
2237.171722
 21
-395.92297
 31
0.0
  0
LINE
  5
3AF
  8
1
 10
2131.690371
 20
-230.374739
 30
0.0
 11
2131.690371
 21
-333.334036
 31
0.0
  0
LINE
  5
3B0
  8
1
 10
2205.177379
 20
-333.334036
 30
0.0
 11
2131.690371
 21
-333.334036
 31
0.0
  0
LINE
  5
3B1
  8
1
 10
2131.690371
 20
-333.000595
 30
0.0
 11
2114.193464
 21
-333.000595
 31
0.0
  0
LINE
  5
3B2
  8
1
 10
2093.197177
 20
-239.855262
 30
0.0
 11
2093.197177
 21
-258.239412
 31
0.0
  0
LINE
  5
3B3
  8
1
 10
2107.194702
 20
-238.856839
 30
0.0
 11
2107.194702
 21
-306.629757
 31
0.0
  0
LINE
  5
3B4
  8
1
 10
2109.192849
 20
-288.941784
 30
0.0
 11
2114.193464
 21
-288.941784
 31
0.0
  0
LINE
  5
3B5
  8
1
 10
2109.192849
 20
-278.943552
 30
0.0
 11
2114.193464
 21
-278.943552
 31
0.0
  0
LINE
  5
3B6
  8
1
 10
1533.796077
 20
-240.634825
 30
0.0
 11
1533.796077
 21
-248.511932
 31
0.0
  0
LINE
  5
3B7
  8
1
 10
1542.294575
 20
-254.512071
 30
0.0
 11
1542.294575
 21
-260.603494
 31
0.0
  0
LINE
  5
3B8
  8
1
 10
1548.793426
 20
-240.634825
 30
0.0
 11
1548.793426
 21
-248.511932
 31
0.0
  0
ARC
  5
3B9
  8
1
 10
2237.171722
 20
378.940136
 30
0.0
 40
24.995581
 50
0.0
 51
90.0
  0
LINE
  5
3BA
  8
1
 10
2205.177379
 20
403.935717
 30
0.0
 11
2237.171722
 21
403.935717
 31
0.0
  0
LINE
  5
3BB
  8
1
 10
822.421846
 20
378.940136
 30
0.0
 11
822.421846
 21
-370.927289
 31
0.0
  0
LINE
  5
3BC
  8
1
 10
879.41177
 20
403.935717
 30
0.0
 11
879.41177
 21
-395.92297
 31
0.0
  0
ARC
  5
3BD
  8
1
 10
847.417427
 20
-370.927289
 30
0.0
 40
24.995581
 50
180.0
 51
270.0
  0
LINE
  5
3BE
  8
1
 10
879.41177
 20
-395.92297
 30
0.0
 11
847.417427
 21
-395.92297
 31
0.0
  0
ARC
  5
3BF
  8
1
 10
847.417427
 20
378.940136
 30
0.0
 40
24.995581
 50
90.0
 51
180.0
  0
LINE
  5
3C0
  8
1
 10
879.41177
 20
403.935717
 30
0.0
 11
847.417427
 21
403.935717
 31
0.0
  0
LINE
  5
3C1
  8
1
 10
879.41177
 20
-230.374739
 30
0.0
 11
2205.177379
 21
-230.374739
 31
0.0
  0
LINE
  5
3C2
  8
1
 10
879.41177
 20
-345.431797
 30
0.0
 11
2205.177379
 21
-345.431797
 31
0.0
  0
LINE
  5
3C3
  8
1
 10
970.395685
 20
-332.584868
 30
0.0
 11
2114.193464
 21
-332.584868
 31
0.0
  0
LINE
  5
3C4
  8
1
 10
970.395685
 20
-313.937365
 30
0.0
 11
2114.193464
 21
-313.937365
 31
0.0
  0
LINE
  5
3C5
  8
1
 10
2094.197
 20
-306.629757
 30
0.0
 11
2107.194702
 21
-306.629757
 31
0.0
  0
LINE
  5
3C6
  8
1
 10
2094.197
 20
-288.146525
 30
0.0
 11
2107.194702
 21
-288.146525
 31
0.0
  0
LINE
  5
3C7
  8
1
 10
2094.197
 20
-281.434511
 30
0.0
 11
2107.194702
 21
-281.434511
 31
0.0
  0
LINE
  5
3C8
  8
1
 10
2094.197
 20
-264.052085
 30
0.0
 11
2107.194702
 21
-264.052085
 31
0.0
  0
LINE
  5
3C9
  8
1
 10
2094.197
 20
-259.238736
 30
0.0
 11
2107.194702
 21
-259.238736
 31
0.0
  0
LINE
  5
3CA
  8
1
 10
2094.197
 20
-238.856839
 30
0.0
 11
2107.194702
 21
-238.856839
 31
0.0
  0
LINE
  5
3CB
  8
1
 10
2093.197177
 20
-289.145548
 30
0.0
 11
2093.197177
 21
-305.631433
 31
0.0
  0
LINE
  5
3CC
  8
1
 10
2093.197177
 20
-265.050508
 30
0.0
 11
2093.197177
 21
-280.436188
 31
0.0
  0
ARC
  5
3CD
  8
1
 10
2094.197
 20
-305.629934
 30
0.0
 40
0.999823
 50
180.0
 51
270.0
  0
ARC
  5
3CE
  8
1
 10
2094.197
 20
-289.146348
 30
0.0
 40
0.999823
 50
90.0
 51
180.0
  0
ARC
  5
3CF
  8
1
 10
2094.197
 20
-280.434688
 30
0.0
 40
0.999823
 50
180.0
 51
270.0
  0
ARC
  5
3D0
  8
1
 10
2094.197
 20
-265.051908
 30
0.0
 40
0.999823
 50
90.0
 51
180.0
  0
ARC
  5
3D1
  8
1
 10
2094.197
 20
-258.238912
 30
0.0
 40
0.999823
 50
180.0
 51
270.0
  0
ARC
  5
3D2
  8
1
 10
2094.197
 20
-239.856662
 30
0.0
 40
0.999823
 50
90.0
 51
180.0
  0
ARC
  5
3D3
  8
1
 10
2109.194348
 20
-290.941431
 30
0.0
 40
1.999646
 50
90.0
 51
180.0
  0
ARC
  5
3D4
  8
1
 10
2109.194348
 20
-276.943905
 30
0.0
 40
1.999646
 50
180.0
 51
270.0
  0
LINE
  5
3D5
  8
1
 10
1534.295989
 20
-301.337293
 30
0.0
 11
1548.293514
 21
-301.337293
 31
0.0
  0
LINE
  5
3D6
  8
1
 10
1548.793426
 20
-290.256752
 30
0.0
 11
1548.793426
 21
-300.837381
 31
0.0
  0
LINE
  5
3D7
  8
1
 10
1533.796077
 20
-290.256752
 30
0.0
 11
1533.796077
 21
-300.837381
 31
0.0
  0
ARC
  5
3D8
  8
1
 10
1548.293514
 20
-300.837381
 30
0.0
 40
0.499912
 50
270.0
 51
0.0
  0
ARC
  5
3D9
  8
1
 10
1534.295989
 20
-300.837381
 30
0.0
 40
0.499912
 50
180.0
 51
270.0
  0
LINE
  5
3DA
  8
1
 10
1533.796077
 20
-265.828171
 30
0.0
 11
1533.796077
 21
-273.519911
 31
0.0
  0
LINE
  5
3DB
  8
1
 10
1548.793426
 20
-265.828171
 30
0.0
 11
1548.793426
 21
-273.519911
 31
0.0
  0
LINE
  5
3DC
  8
1
 10
1542.294575
 20
-282.704587
 30
0.0
 11
1542.294575
 21
-291.687599
 31
0.0
  0
LINE
  5
3DD
  8
1
 10
991.391973
 20
-304.898363
 30
0.0
 11
2093.197177
 21
-304.898363
 31
0.0
  0
LINE
  5
3DE
  8
1
 10
991.391973
 20
-290.256752
 30
0.0
 11
2093.197177
 21
-290.256752
 31
0.0
  0
LINE
  5
3DF
  8
1
 10
991.391973
 20
-279.705117
 30
0.0
 11
2093.197177
 21
-279.705117
 31
0.0
  0
LINE
  5
3E0
  8
1
 10
991.391973
 20
-265.828171
 30
0.0
 11
1049.38172
 21
-265.828171
 31
0.0
  0
LINE
  5
3E1
  8
1
 10
991.391973
 20
-257.511541
 30
0.0
 11
2093.197177
 21
-257.511541
 31
0.0
  0
LINE
  5
3E2
  8
1
 10
991.391973
 20
-240.634825
 30
0.0
 11
2093.197177
 21
-240.634825
 31
0.0
  0
LINE
  5
3E3
  8
1
 10
2030.208313
 20
-257.511541
 30
0.0
 11
2030.208313
 21
-266.886583
 31
0.0
  0
LINE
  5
3E4
  8
1
 10
2028.208666
 20
-257.511541
 30
0.0
 11
2028.208666
 21
-266.886583
 31
0.0
  0
LINE
  5
3E5
  8
1
 10
2035.207429
 20
-266.198005
 30
0.0
 11
2035.207429
 21
-264.482009
 31
0.0
  0
LINE
  5
3E6
  8
1
 10
2023.20955
 20
-264.482009
 30
0.0
 11
2023.20955
 21
-266.198005
 31
0.0
  0
LINE
  5
3E7
  8
1
 10
2030.208313
 20
-259.333219
 30
0.0
 11
2034.35308
 21
-262.89269
 31
0.0
  0
LINE
  5
3E8
  8
1
 10
2028.208666
 20
-259.333219
 30
0.0
 11
2024.063799
 21
-262.89269
 31
0.0
  0
LINE
  5
3E9
  8
1
 10
879.41177
 20
75.493785
 30
0.0
 11
1321.33364
 21
75.493785
 31
0.0
  0
LINE
  5
3EA
  8
1
 10
879.41177
 20
87.491664
 30
0.0
 11
1321.33364
 21
87.491664
 31
0.0
  0
LINE
  5
3EB
  8
1
 10
1321.33364
 20
75.493785
 30
0.0
 11
1763.255509
 21
75.493785
 31
0.0
  0
LINE
  5
3EC
  8
1
 10
1321.833551
 20
87.491664
 30
0.0
 11
1762.755598
 21
87.491664
 31
0.0
  0
LINE
  5
3ED
  8
1
 10
1763.255509
 20
75.493785
 30
0.0
 11
2204.677467
 21
75.493785
 31
0.0
  0
LINE
  5
3EE
  8
1
 10
1763.755421
 20
87.491664
 30
0.0
 11
2204.677467
 21
87.491664
 31
0.0
  0
LINE
  5
3EF
  8
1
 10
970.395685
 20
-230.374739
 30
0.0
 11
970.395685
 21
-333.000595
 31
0.0
  0
LINE
  5
3F0
  8
1
 10
879.41177
 20
-230.952037
 30
0.0
 11
879.41177
 21
-333.334036
 31
0.0
  0
LINE
  5
3F1
  8
1
 10
952.898778
 20
-230.374739
 30
0.0
 11
952.898778
 21
-333.334036
 31
0.0
  0
LINE
  5
3F2
  8
1
 10
879.41177
 20
-333.334036
 30
0.0
 11
952.898778
 21
-333.334036
 31
0.0
  0
LINE
  5
3F3
  8
1
 10
952.898778
 20
-333.000595
 30
0.0
 11
970.395685
 21
-333.000595
 31
0.0
  0
LINE
  5
3F4
  8
1
 10
2143.438294
 20
-274.1446
 30
0.0
 11
2143.438294
 21
-290.141772
 31
0.0
  0
LINE
  5
3F5
  8
1
 10
2193.429456
 20
-274.1446
 30
0.0
 11
2193.429456
 21
-290.141772
 31
0.0
  0
LINE
  5
3F6
  8
1
 10
2191.429809
 20
-292.141418
 30
0.0
 11
2145.437941
 21
-292.141418
 31
0.0
  0
LINE
  5
3F7
  8
1
 10
2191.429809
 20
-272.144954
 30
0.0
 11
2145.437941
 21
-272.144954
 31
0.0
  0
ARC
  5
3F8
  8
1
 10
2191.429809
 20
-290.141772
 30
0.0
 40
1.999646
 50
270.0
 51
0.0
  0
ARC
  5
3F9
  8
1
 10
2191.429809
 20
-274.1446
 30
0.0
 40
1.999646
 50
0.0
 51
90.0
  0
ARC
  5
3FA
  8
1
 10
2145.437941
 20
-290.141772
 30
0.0
 40
1.999646
 50
180.0
 51
270.0
  0
ARC
  5
3FB
  8
1
 10
2145.437941
 20
-274.1446
 30
0.0
 40
1.999646
 50
90.0
 51
180.0
  0
LINE
  5
3FC
  8
1
 10
2175.182682
 20
-320.436216
 30
0.0
 11
2161.685068
 21
-320.436216
 31
0.0
  0
LINE
  5
3FD
  8
1
 10
2175.182682
 20
-313.437453
 30
0.0
 11
2161.685068
 21
-313.437453
 31
0.0
  0
LINE
  5
3FE
  8
1
 10
2175.682593
 20
-313.937365
 30
0.0
 11
2175.682593
 21
-319.936304
 31
0.0
  0
LINE
  5
3FF
  8
1
 10
2161.185156
 20
-313.937365
 30
0.0
 11
2161.185156
 21
-319.936304
 31
0.0
  0
ARC
  5
400
  8
1
 10
2175.182682
 20
-319.936304
 30
0.0
 40
0.499912
 50
270.0
 51
0.0
  0
ARC
  5
401
  8
1
 10
2175.182682
 20
-313.937365
 30
0.0
 40
0.499912
 50
0.0
 51
90.0
  0
ARC
  5
402
  8
1
 10
2161.685068
 20
-313.937365
 30
0.0
 40
0.499912
 50
90.0
 51
180.0
  0
ARC
  5
403
  8
1
 10
2161.685068
 20
-319.936304
 30
0.0
 40
0.499912
 50
180.0
 51
270.0
  0
LINE
  5
404
  8
1
 10
941.150855
 20
-274.1446
 30
0.0
 11
941.150855
 21
-290.141772
 31
0.0
  0
LINE
  5
405
  8
1
 10
891.159693
 20
-274.1446
 30
0.0
 11
891.159693
 21
-290.141772
 31
0.0
  0
LINE
  5
406
  8
1
 10
893.15934
 20
-292.141418
 30
0.0
 11
939.151209
 21
-292.141418
 31
0.0
  0
LINE
  5
407
  8
1
 10
893.15934
 20
-272.144954
 30
0.0
 11
939.151209
 21
-272.144954
 31
0.0
  0
ARC
  5
408
  8
1
 10
893.15934
 20
-290.141772
 30
0.0
 40
1.999646
 50
180.0
 51
270.0
  0
ARC
  5
409
  8
1
 10
893.15934
 20
-274.1446
 30
0.0
 40
1.999646
 50
90.0
 51
180.0
  0
ARC
  5
40A
  8
1
 10
939.151209
 20
-290.141772
 30
0.0
 40
1.999646
 50
270.0
 51
0.0
  0
ARC
  5
40B
  8
1
 10
939.151209
 20
-274.1446
 30
0.0
 40
1.999646
 50
0.0
 51
90.0
  0
LINE
  5
40C
  8
1
 10
909.406467
 20
-320.436216
 30
0.0
 11
922.904081
 21
-320.436216
 31
0.0
  0
LINE
  5
40D
  8
1
 10
909.406467
 20
-313.437453
 30
0.0
 11
922.904081
 21
-313.437453
 31
0.0
  0
LINE
  5
40E
  8
1
 10
908.906556
 20
-313.937365
 30
0.0
 11
908.906556
 21
-319.936304
 31
0.0
  0
LINE
  5
40F
  8
1
 10
923.403993
 20
-313.937365
 30
0.0
 11
923.403993
 21
-319.936304
 31
0.0
  0
ARC
  5
410
  8
1
 10
909.406467
 20
-319.936304
 30
0.0
 40
0.499912
 50
180.0
 51
270.0
  0
ARC
  5
411
  8
1
 10
909.406467
 20
-313.937365
 30
0.0
 40
0.499912
 50
90.0
 51
180.0
  0
ARC
  5
412
  8
1
 10
922.904081
 20
-313.937365
 30
0.0
 40
0.499912
 50
0.0
 51
90.0
  0
ARC
  5
413
  8
1
 10
922.904081
 20
-319.936304
 30
0.0
 40
0.499912
 50
270.0
 51
0.0
  0
LINE
  5
414
  8
1
 10
879.41177
 20
-223.875888
 30
0.0
 11
2205.177379
 21
-223.875888
 31
0.0
  0
LINE
  5
415
  8
1
 10
879.41177
 20
345.345976
 30
0.0
 11
2205.177379
 21
345.345976
 31
0.0
  0
ARC
  5
416
  8
1
 10
2029.20849
 20
-266.885084
 30
0.0
 40
0.999823
 50
180.0
 51
0.1135
  0
LINE
  5
417
  8
1
 10
2028.208666
 20
-279.705117
 30
0.0
 11
2028.208666
 21
-290.256752
 31
0.0
  0
LINE
  5
418
  8
1
 10
2030.208313
 20
-279.705117
 30
0.0
 11
2030.208313
 21
-290.256752
 31
0.0
  0
LINE
  5
419
  8
1
 10
2035.207429
 20
-265.828171
 30
0.0
 11
2093.197177
 21
-265.828171
 31
0.0
  0
LINE
  5
41A
  8
1
 10
1993.214853
 20
-257.511541
 30
0.0
 11
1993.214853
 21
-266.886583
 31
0.0
  0
LINE
  5
41B
  8
1
 10
1991.215207
 20
-257.511541
 30
0.0
 11
1991.215207
 21
-266.886583
 31
0.0
  0
LINE
  5
41C
  8
1
 10
1998.213969
 20
-266.198005
 30
0.0
 11
1998.213969
 21
-264.482009
 31
0.0
  0
LINE
  5
41D
  8
1
 10
1986.21609
 20
-264.482009
 30
0.0
 11
1986.21609
 21
-266.198005
 31
0.0
  0
LINE
  5
41E
  8
1
 10
1993.214853
 20
-259.333219
 30
0.0
 11
1997.35962
 21
-262.89269
 31
0.0
  0
LINE
  5
41F
  8
1
 10
1991.215207
 20
-259.333219
 30
0.0
 11
1987.070339
 21
-262.89269
 31
0.0
  0
ARC
  5
420
  8
1
 10
1992.21503
 20
-266.885084
 30
0.0
 40
0.999823
 50
180.0
 51
0.1135
  0
LINE
  5
421
  8
1
 10
1991.215207
 20
-279.705117
 30
0.0
 11
1991.215207
 21
-290.256752
 31
0.0
  0
LINE
  5
422
  8
1
 10
1993.214853
 20
-279.705117
 30
0.0
 11
1993.214853
 21
-290.256752
 31
0.0
  0
LINE
  5
423
  8
1
 10
1956.221393
 20
-257.511541
 30
0.0
 11
1956.221393
 21
-266.886583
 31
0.0
  0
LINE
  5
424
  8
1
 10
1954.221747
 20
-257.511541
 30
0.0
 11
1954.221747
 21
-266.886583
 31
0.0
  0
LINE
  5
425
  8
1
 10
1961.22051
 20
-266.198005
 30
0.0
 11
1961.22051
 21
-264.482009
 31
0.0
  0
LINE
  5
426
  8
1
 10
1949.222631
 20
-264.482009
 30
0.0
 11
1949.222631
 21
-266.198005
 31
0.0
  0
LINE
  5
427
  8
1
 10
1956.221393
 20
-259.333219
 30
0.0
 11
1960.366161
 21
-262.89269
 31
0.0
  0
LINE
  5
428
  8
1
 10
1954.221747
 20
-259.333219
 30
0.0
 11
1950.07688
 21
-262.89269
 31
0.0
  0
ARC
  5
429
  8
1
 10
1955.22157
 20
-266.885084
 30
0.0
 40
0.999823
 50
180.0
 51
0.1135
  0
LINE
  5
42A
  8
1
 10
1954.221747
 20
-279.705117
 30
0.0
 11
1954.221747
 21
-290.256752
 31
0.0
  0
LINE
  5
42B
  8
1
 10
1956.221393
 20
-279.705117
 30
0.0
 11
1956.221393
 21
-290.256752
 31
0.0
  0
LINE
  5
42C
  8
1
 10
1919.227934
 20
-257.511541
 30
0.0
 11
1919.227934
 21
-266.886583
 31
0.0
  0
LINE
  5
42D
  8
1
 10
1917.228287
 20
-257.511541
 30
0.0
 11
1917.228287
 21
-266.886583
 31
0.0
  0
LINE
  5
42E
  8
1
 10
1924.22705
 20
-266.198005
 30
0.0
 11
1924.22705
 21
-264.482009
 31
0.0
  0
LINE
  5
42F
  8
1
 10
1912.229171
 20
-264.482009
 30
0.0
 11
1912.229171
 21
-266.198005
 31
0.0
  0
LINE
  5
430
  8
1
 10
1919.227934
 20
-259.333219
 30
0.0
 11
1923.372701
 21
-262.89269
 31
0.0
  0
LINE
  5
431
  8
1
 10
1917.228287
 20
-259.333219
 30
0.0
 11
1913.08342
 21
-262.89269
 31
0.0
  0
ARC
  5
432
  8
1
 10
1918.228111
 20
-266.885084
 30
0.0
 40
0.999823
 50
180.0
 51
0.1135
  0
LINE
  5
433
  8
1
 10
1917.228287
 20
-279.705117
 30
0.0
 11
1917.228287
 21
-290.256752
 31
0.0
  0
LINE
  5
434
  8
1
 10
1919.227934
 20
-279.705117
 30
0.0
 11
1919.227934
 21
-290.256752
 31
0.0
  0
LINE
  5
435
  8
1
 10
1998.213969
 20
-265.828171
 30
0.0
 11
2023.20955
 21
-265.828171
 31
0.0
  0
LINE
  5
436
  8
1
 10
1961.22051
 20
-265.828171
 30
0.0
 11
1986.21609
 21
-265.828171
 31
0.0
  0
LINE
  5
437
  8
1
 10
1924.22705
 20
-265.828171
 30
0.0
 11
1949.222631
 21
-265.828171
 31
0.0
  0
LINE
  5
438
  8
1
 10
1747.258338
 20
-257.511541
 30
0.0
 11
1747.258338
 21
-266.886583
 31
0.0
  0
LINE
  5
439
  8
1
 10
1745.258691
 20
-257.511541
 30
0.0
 11
1745.258691
 21
-266.886583
 31
0.0
  0
LINE
  5
43A
  8
1
 10
1752.257454
 20
-266.198005
 30
0.0
 11
1752.257454
 21
-264.482009
 31
0.0
  0
LINE
  5
43B
  8
1
 10
1740.259575
 20
-264.482009
 30
0.0
 11
1740.259575
 21
-266.198005
 31
0.0
  0
LINE
  5
43C
  8
1
 10
1747.258338
 20
-259.333219
 30
0.0
 11
1751.403105
 21
-262.89269
 31
0.0
  0
LINE
  5
43D
  8
1
 10
1745.258691
 20
-259.333219
 30
0.0
 11
1741.113824
 21
-262.89269
 31
0.0
  0
ARC
  5
43E
  8
1
 10
1746.258514
 20
-266.885084
 30
0.0
 40
0.999823
 50
180.0
 51
0.1135
  0
LINE
  5
43F
  8
1
 10
1745.258691
 20
-279.705117
 30
0.0
 11
1745.258691
 21
-290.256752
 31
0.0
  0
LINE
  5
440
  8
1
 10
1747.258338
 20
-279.705117
 30
0.0
 11
1747.258338
 21
-290.256752
 31
0.0
  0
LINE
  5
441
  8
1
 10
1710.264878
 20
-257.511541
 30
0.0
 11
1710.264878
 21
-266.886583
 31
0.0
  0
LINE
  5
442
  8
1
 10
1708.265231
 20
-257.511541
 30
0.0
 11
1708.265231
 21
-266.886583
 31
0.0
  0
LINE
  5
443
  8
1
 10
1715.263994
 20
-266.198005
 30
0.0
 11
1715.263994
 21
-264.482009
 31
0.0
  0
LINE
  5
444
  8
1
 10
1703.266115
 20
-264.482009
 30
0.0
 11
1703.266115
 21
-266.198005
 31
0.0
  0
LINE
  5
445
  8
1
 10
1710.264878
 20
-259.333219
 30
0.0
 11
1714.409645
 21
-262.89269
 31
0.0
  0
LINE
  5
446
  8
1
 10
1708.265231
 20
-259.333219
 30
0.0
 11
1704.120364
 21
-262.89269
 31
0.0
  0
ARC
  5
447
  8
1
 10
1709.265055
 20
-266.885084
 30
0.0
 40
0.999823
 50
180.0
 51
0.1135
  0
LINE
  5
448
  8
1
 10
1708.265231
 20
-279.705117
 30
0.0
 11
1708.265231
 21
-290.256752
 31
0.0
  0
LINE
  5
449
  8
1
 10
1710.264878
 20
-279.705117
 30
0.0
 11
1710.264878
 21
-290.256752
 31
0.0
  0
LINE
  5
44A
  8
1
 10
1673.271418
 20
-257.511541
 30
0.0
 11
1673.271418
 21
-266.886583
 31
0.0
  0
LINE
  5
44B
  8
1
 10
1671.271772
 20
-257.511541
 30
0.0
 11
1671.271772
 21
-266.886583
 31
0.0
  0
LINE
  5
44C
  8
1
 10
1678.270534
 20
-266.198005
 30
0.0
 11
1678.270534
 21
-264.482009
 31
0.0
  0
LINE
  5
44D
  8
1
 10
1666.272656
 20
-264.482009
 30
0.0
 11
1666.272656
 21
-266.198005
 31
0.0
  0
LINE
  5
44E
  8
1
 10
1673.271418
 20
-259.333219
 30
0.0
 11
1677.416185
 21
-262.89269
 31
0.0
  0
LINE
  5
44F
  8
1
 10
1671.271772
 20
-259.333219
 30
0.0
 11
1667.126905
 21
-262.89269
 31
0.0
  0
ARC
  5
450
  8
1
 10
1672.271595
 20
-266.885084
 30
0.0
 40
0.999823
 50
180.0
 51
0.1135
  0
LINE
  5
451
  8
1
 10
1671.271772
 20
-279.705117
 30
0.0
 11
1671.271772
 21
-290.256752
 31
0.0
  0
LINE
  5
452
  8
1
 10
1673.271418
 20
-279.705117
 30
0.0
 11
1673.271418
 21
-290.256752
 31
0.0
  0
LINE
  5
453
  8
1
 10
1636.277959
 20
-257.511541
 30
0.0
 11
1636.277959
 21
-266.886583
 31
0.0
  0
LINE
  5
454
  8
1
 10
1634.278312
 20
-257.511541
 30
0.0
 11
1634.278312
 21
-266.886583
 31
0.0
  0
LINE
  5
455
  8
1
 10
1641.277075
 20
-266.198005
 30
0.0
 11
1641.277075
 21
-264.482009
 31
0.0
  0
LINE
  5
456
  8
1
 10
1629.279196
 20
-264.482009
 30
0.0
 11
1629.279196
 21
-266.198005
 31
0.0
  0
LINE
  5
457
  8
1
 10
1636.277959
 20
-259.333219
 30
0.0
 11
1640.422726
 21
-262.89269
 31
0.0
  0
LINE
  5
458
  8
1
 10
1634.278312
 20
-259.333219
 30
0.0
 11
1630.133445
 21
-262.89269
 31
0.0
  0
ARC
  5
459
  8
1
 10
1635.278135
 20
-266.885084
 30
0.0
 40
0.999823
 50
180.0
 51
0.1135
  0
LINE
  5
45A
  8
1
 10
1634.278312
 20
-279.705117
 30
0.0
 11
1634.278312
 21
-290.256752
 31
0.0
  0
LINE
  5
45B
  8
1
 10
1636.277959
 20
-279.705117
 30
0.0
 11
1636.277959
 21
-290.256752
 31
0.0
  0
LINE
  5
45C
  8
1
 10
1752.257454
 20
-265.828171
 30
0.0
 11
1912.229171
 21
-265.828171
 31
0.0
  0
LINE
  5
45D
  8
1
 10
1715.263994
 20
-265.828171
 30
0.0
 11
1740.259575
 21
-265.828171
 31
0.0
  0
LINE
  5
45E
  8
1
 10
1678.270534
 20
-265.828171
 30
0.0
 11
1703.266115
 21
-265.828171
 31
0.0
  0
LINE
  5
45F
  8
1
 10
1641.277075
 20
-265.828171
 30
0.0
 11
1666.272656
 21
-265.828171
 31
0.0
  0
LINE
  5
460
  8
1
 10
1054.380836
 20
-257.511541
 30
0.0
 11
1054.380836
 21
-266.886583
 31
0.0
  0
LINE
  5
461
  8
1
 10
1056.380483
 20
-257.511541
 30
0.0
 11
1056.380483
 21
-266.886583
 31
0.0
  0
LINE
  5
462
  8
1
 10
1049.38172
 20
-266.198005
 30
0.0
 11
1049.38172
 21
-264.482009
 31
0.0
  0
LINE
  5
463
  8
1
 10
1061.379599
 20
-264.482009
 30
0.0
 11
1061.379599
 21
-266.198005
 31
0.0
  0
LINE
  5
464
  8
1
 10
1054.380836
 20
-259.333219
 30
0.0
 11
1050.235969
 21
-262.89269
 31
0.0
  0
LINE
  5
465
  8
1
 10
1056.380483
 20
-259.333219
 30
0.0
 11
1060.52525
 21
-262.89269
 31
0.0
  0
ARC
  5
466
  8
1
 10
1055.38066
 20
-266.885084
 30
0.0
 40
0.999823
 50
179.8868
 51
0.0
  0
LINE
  5
467
  8
1
 10
1056.380483
 20
-279.705117
 30
0.0
 11
1056.380483
 21
-290.256752
 31
0.0
  0
LINE
  5
468
  8
1
 10
1054.380836
 20
-279.705117
 30
0.0
 11
1054.380836
 21
-290.256752
 31
0.0
  0
LINE
  5
469
  8
1
 10
1091.374296
 20
-257.511541
 30
0.0
 11
1091.374296
 21
-266.886583
 31
0.0
  0
LINE
  5
46A
  8
1
 10
1093.373942
 20
-257.511541
 30
0.0
 11
1093.373942
 21
-266.886583
 31
0.0
  0
LINE
  5
46B
  8
1
 10
1086.37518
 20
-266.198005
 30
0.0
 11
1086.37518
 21
-264.482009
 31
0.0
  0
LINE
  5
46C
  8
1
 10
1098.373059
 20
-264.482009
 30
0.0
 11
1098.373059
 21
-266.198005
 31
0.0
  0
LINE
  5
46D
  8
1
 10
1091.374296
 20
-259.333219
 30
0.0
 11
1087.229429
 21
-262.89269
 31
0.0
  0
LINE
  5
46E
  8
1
 10
1093.373942
 20
-259.333219
 30
0.0
 11
1097.51871
 21
-262.89269
 31
0.0
  0
ARC
  5
46F
  8
1
 10
1092.374119
 20
-266.885084
 30
0.0
 40
0.999823
 50
179.8868
 51
0.0
  0
LINE
  5
470
  8
1
 10
1093.373942
 20
-279.705117
 30
0.0
 11
1093.373942
 21
-290.256752
 31
0.0
  0
LINE
  5
471
  8
1
 10
1091.374296
 20
-279.705117
 30
0.0
 11
1091.374296
 21
-290.256752
 31
0.0
  0
LINE
  5
472
  8
1
 10
1128.367756
 20
-257.511541
 30
0.0
 11
1128.367756
 21
-266.886583
 31
0.0
  0
LINE
  5
473
  8
1
 10
1130.367402
 20
-257.511541
 30
0.0
 11
1130.367402
 21
-266.886583
 31
0.0
  0
LINE
  5
474
  8
1
 10
1123.368639
 20
-266.198005
 30
0.0
 11
1123.368639
 21
-264.482009
 31
0.0
  0
LINE
  5
475
  8
1
 10
1135.366518
 20
-264.482009
 30
0.0
 11
1135.366518
 21
-266.198005
 31
0.0
  0
LINE
  5
476
  8
1
 10
1128.367756
 20
-259.333219
 30
0.0
 11
1124.222888
 21
-262.89269
 31
0.0
  0
LINE
  5
477
  8
1
 10
1130.367402
 20
-259.333219
 30
0.0
 11
1134.512169
 21
-262.89269
 31
0.0
  0
ARC
  5
478
  8
1
 10
1129.367579
 20
-266.885084
 30
0.0
 40
0.999823
 50
179.8868
 51
0.0
  0
LINE
  5
479
  8
1
 10
1130.367402
 20
-279.705117
 30
0.0
 11
1130.367402
 21
-290.256752
 31
0.0
  0
LINE
  5
47A
  8
1
 10
1128.367756
 20
-279.705117
 30
0.0
 11
1128.367756
 21
-290.256752
 31
0.0
  0
LINE
  5
47B
  8
1
 10
1165.361215
 20
-257.511541
 30
0.0
 11
1165.361215
 21
-266.886583
 31
0.0
  0
LINE
  5
47C
  8
1
 10
1167.360862
 20
-257.511541
 30
0.0
 11
1167.360862
 21
-266.886583
 31
0.0
  0
LINE
  5
47D
  8
1
 10
1160.362099
 20
-266.198005
 30
0.0
 11
1160.362099
 21
-264.482009
 31
0.0
  0
LINE
  5
47E
  8
1
 10
1172.359978
 20
-264.482009
 30
0.0
 11
1172.359978
 21
-266.198005
 31
0.0
  0
LINE
  5
47F
  8
1
 10
1165.361215
 20
-259.333219
 30
0.0
 11
1161.216348
 21
-262.89269
 31
0.0
  0
LINE
  5
480
  8
1
 10
1167.360862
 20
-259.333219
 30
0.0
 11
1171.505629
 21
-262.89269
 31
0.0
  0
ARC
  5
481
  8
1
 10
1166.361039
 20
-266.885084
 30
0.0
 40
0.999823
 50
179.8868
 51
0.0
  0
LINE
  5
482
  8
1
 10
1167.360862
 20
-279.705117
 30
0.0
 11
1167.360862
 21
-290.256752
 31
0.0
  0
LINE
  5
483
  8
1
 10
1165.361215
 20
-279.705117
 30
0.0
 11
1165.361215
 21
-290.256752
 31
0.0
  0
LINE
  5
484
  8
1
 10
1337.330812
 20
-257.511541
 30
0.0
 11
1337.330812
 21
-266.886583
 31
0.0
  0
LINE
  5
485
  8
1
 10
1339.330458
 20
-257.511541
 30
0.0
 11
1339.330458
 21
-266.886583
 31
0.0
  0
LINE
  5
486
  8
1
 10
1332.331695
 20
-266.198005
 30
0.0
 11
1332.331695
 21
-264.482009
 31
0.0
  0
LINE
  5
487
  8
1
 10
1344.329574
 20
-264.482009
 30
0.0
 11
1344.329574
 21
-266.198005
 31
0.0
  0
LINE
  5
488
  8
1
 10
1337.330812
 20
-259.333219
 30
0.0
 11
1333.185944
 21
-262.89269
 31
0.0
  0
LINE
  5
489
  8
1
 10
1339.330458
 20
-259.333219
 30
0.0
 11
1343.475225
 21
-262.89269
 31
0.0
  0
ARC
  5
48A
  8
1
 10
1338.330635
 20
-266.885084
 30
0.0
 40
0.999823
 50
179.8868
 51
0.0
  0
LINE
  5
48B
  8
1
 10
1339.330458
 20
-279.705117
 30
0.0
 11
1339.330458
 21
-290.256752
 31
0.0
  0
LINE
  5
48C
  8
1
 10
1337.330812
 20
-279.705117
 30
0.0
 11
1337.330812
 21
-290.256752
 31
0.0
  0
LINE
  5
48D
  8
1
 10
1374.324271
 20
-257.511541
 30
0.0
 11
1374.324271
 21
-266.886583
 31
0.0
  0
LINE
  5
48E
  8
1
 10
1376.323918
 20
-257.511541
 30
0.0
 11
1376.323918
 21
-266.886583
 31
0.0
  0
LINE
  5
48F
  8
1
 10
1369.325155
 20
-266.198005
 30
0.0
 11
1369.325155
 21
-264.482009
 31
0.0
  0
LINE
  5
490
  8
1
 10
1381.323034
 20
-264.482009
 30
0.0
 11
1381.323034
 21
-266.198005
 31
0.0
  0
LINE
  5
491
  8
1
 10
1374.324271
 20
-259.333219
 30
0.0
 11
1370.179404
 21
-262.89269
 31
0.0
  0
LINE
  5
492
  8
1
 10
1376.323918
 20
-259.333219
 30
0.0
 11
1380.468685
 21
-262.89269
 31
0.0
  0
ARC
  5
493
  8
1
 10
1375.324094
 20
-266.885084
 30
0.0
 40
0.999823
 50
179.8868
 51
0.0
  0
LINE
  5
494
  8
1
 10
1376.323918
 20
-279.705117
 30
0.0
 11
1376.323918
 21
-290.256752
 31
0.0
  0
LINE
  5
495
  8
1
 10
1374.324271
 20
-279.705117
 30
0.0
 11
1374.324271
 21
-290.256752
 31
0.0
  0
LINE
  5
496
  8
1
 10
1411.317731
 20
-257.511541
 30
0.0
 11
1411.317731
 21
-266.886583
 31
0.0
  0
LINE
  5
497
  8
1
 10
1413.317377
 20
-257.511541
 30
0.0
 11
1413.317377
 21
-266.886583
 31
0.0
  0
LINE
  5
498
  8
1
 10
1406.318615
 20
-266.198005
 30
0.0
 11
1406.318615
 21
-264.482009
 31
0.0
  0
LINE
  5
499
  8
1
 10
1418.316494
 20
-264.482009
 30
0.0
 11
1418.316494
 21
-266.198005
 31
0.0
  0
LINE
  5
49A
  8
1
 10
1411.317731
 20
-259.333219
 30
0.0
 11
1407.172864
 21
-262.89269
 31
0.0
  0
LINE
  5
49B
  8
1
 10
1413.317377
 20
-259.333219
 30
0.0
 11
1417.462145
 21
-262.89269
 31
0.0
  0
ARC
  5
49C
  8
1
 10
1412.317554
 20
-266.885084
 30
0.0
 40
0.999823
 50
179.8868
 51
0.0
  0
LINE
  5
49D
  8
1
 10
1413.317377
 20
-279.705117
 30
0.0
 11
1413.317377
 21
-290.256752
 31
0.0
  0
LINE
  5
49E
  8
1
 10
1411.317731
 20
-279.705117
 30
0.0
 11
1411.317731
 21
-290.256752
 31
0.0
  0
LINE
  5
49F
  8
1
 10
1448.311191
 20
-257.511541
 30
0.0
 11
1448.311191
 21
-266.886583
 31
0.0
  0
LINE
  5
4A0
  8
1
 10
1450.310837
 20
-257.511541
 30
0.0
 11
1450.310837
 21
-266.886583
 31
0.0
  0
LINE
  5
4A1
  8
1
 10
1443.312074
 20
-266.198005
 30
0.0
 11
1443.312074
 21
-264.482009
 31
0.0
  0
LINE
  5
4A2
  8
1
 10
1455.309953
 20
-264.482009
 30
0.0
 11
1455.309953
 21
-266.198005
 31
0.0
  0
LINE
  5
4A3
  8
1
 10
1448.311191
 20
-259.333219
 30
0.0
 11
1444.166323
 21
-262.89269
 31
0.0
  0
LINE
  5
4A4
  8
1
 10
1450.310837
 20
-259.333219
 30
0.0
 11
1454.455604
 21
-262.89269
 31
0.0
  0
ARC
  5
4A5
  8
1
 10
1449.311014
 20
-266.885084
 30
0.0
 40
0.999823
 50
179.8868
 51
0.0
  0
LINE
  5
4A6
  8
1
 10
1450.310837
 20
-279.705117
 30
0.0
 11
1450.310837
 21
-290.256752
 31
0.0
  0
LINE
  5
4A7
  8
1
 10
1448.311191
 20
-279.705117
 30
0.0
 11
1448.311191
 21
-290.256752
 31
0.0
  0
LINE
  5
4A8
  8
1
 10
1455.309953
 20
-265.828171
 30
0.0
 11
1629.279196
 21
-265.828171
 31
0.0
  0
LINE
  5
4A9
  8
1
 10
1418.316494
 20
-265.828171
 30
0.0
 11
1443.312074
 21
-265.828171
 31
0.0
  0
LINE
  5
4AA
  8
1
 10
1381.323034
 20
-265.828171
 30
0.0
 11
1406.318615
 21
-265.828171
 31
0.0
  0
LINE
  5
4AB
  8
1
 10
1344.329574
 20
-265.828171
 30
0.0
 11
1369.325155
 21
-265.828171
 31
0.0
  0
LINE
  5
4AC
  8
1
 10
1172.359978
 20
-265.828171
 30
0.0
 11
1332.331695
 21
-265.828171
 31
0.0
  0
LINE
  5
4AD
  8
1
 10
1135.366518
 20
-265.828171
 30
0.0
 11
1160.362099
 21
-265.828171
 31
0.0
  0
LINE
  5
4AE
  8
1
 10
1098.373059
 20
-265.828171
 30
0.0
 11
1123.368639
 21
-265.828171
 31
0.0
  0
LINE
  5
4AF
  8
1
 10
1061.379599
 20
-265.828171
 30
0.0
 11
1086.37518
 21
-265.828171
 31
0.0
  0
LINE
  5
4B0
  8
1
 10
991.391973
 20
-239.855262
 30
0.0
 11
991.391973
 21
-258.239412
 31
0.0
  0
LINE
  5
4B1
  8
1
 10
977.394447
 20
-238.856839
 30
0.0
 11
977.394447
 21
-306.629757
 31
0.0
  0
LINE
  5
4B2
  8
1
 10
975.3965
 20
-288.941784
 30
0.0
 11
970.395685
 21
-288.941784
 31
0.0
  0
LINE
  5
4B3
  8
1
 10
975.3965
 20
-278.943552
 30
0.0
 11
970.395685
 21
-278.943552
 31
0.0
  0
LINE
  5
4B4
  8
1
 10
990.392149
 20
-306.629757
 30
0.0
 11
977.394447
 21
-306.629757
 31
0.0
  0
LINE
  5
4B5
  8
1
 10
990.392149
 20
-288.146525
 30
0.0
 11
977.394447
 21
-288.146525
 31
0.0
  0
LINE
  5
4B6
  8
1
 10
990.392149
 20
-281.434511
 30
0.0
 11
977.394447
 21
-281.434511
 31
0.0
  0
LINE
  5
4B7
  8
1
 10
990.392149
 20
-264.052085
 30
0.0
 11
977.394447
 21
-264.052085
 31
0.0
  0
LINE
  5
4B8
  8
1
 10
990.392149
 20
-259.238736
 30
0.0
 11
977.394447
 21
-259.238736
 31
0.0
  0
LINE
  5
4B9
  8
1
 10
990.392149
 20
-238.856839
 30
0.0
 11
977.394447
 21
-238.856839
 31
0.0
  0
LINE
  5
4BA
  8
1
 10
991.391973
 20
-289.145548
 30
0.0
 11
991.391973
 21
-305.631433
 31
0.0
  0
LINE
  5
4BB
  8
1
 10
991.391973
 20
-265.050508
 30
0.0
 11
991.391973
 21
-280.436188
 31
0.0
  0
ARC
  5
4BC
  8
1
 10
990.392149
 20
-305.629934
 30
0.0
 40
0.999823
 50
270.0
 51
0.0
  0
ARC
  5
4BD
  8
1
 10
990.392149
 20
-289.146348
 30
0.0
 40
0.999823
 50
0.0
 51
90.0
  0
ARC
  5
4BE
  8
1
 10
990.392149
 20
-280.434688
 30
0.0
 40
0.999823
 50
270.0
 51
0.0
  0
ARC
  5
4BF
  8
1
 10
990.392149
 20
-265.051908
 30
0.0
 40
0.999823
 50
0.0
 51
90.0
  0
ARC
  5
4C0
  8
1
 10
990.392149
 20
-258.238912
 30
0.0
 40
0.999823
 50
270.0
 51
0.0
  0
ARC
  5
4C1
  8
1
 10
990.392149
 20
-239.856662
 30
0.0
 40
0.999823
 50
0.0
 51
90.0
  0
ARC
  5
4C2
  8
1
 10
975.394801
 20
-290.941431
 30
0.0
 40
1.999646
 50
0.0
 51
90.0
  0
ARC
  5
4C3
  8
1
 10
975.394801
 20
-276.943905
 30
0.0
 40
1.999646
 50
270.0
 51
0.0
  0
LINE
  5
4C4
  8
1
 10
1534.295989
 20
-274.019822
 30
0.0
 11
1548.293514
 21
-274.019822
 31
0.0
  0
ARC
  5
4C5
  8
1
 10
1548.293514
 20
-273.519911
 30
0.0
 40
0.499912
 50
270.0
 51
0.0
  0
ARC
  5
4C6
  8
1
 10
1534.295989
 20
-273.519911
 30
0.0
 40
0.499912
 50
180.0
 51
270.0
  0
LINE
  5
4C7
  8
1
 10
1534.295989
 20
-249.011844
 30
0.0
 11
1548.293514
 21
-249.011844
 31
0.0
  0
ARC
  5
4C8
  8
1
 10
1534.295989
 20
-248.511932
 30
0.0
 40
0.499912
 50
180.0
 51
270.0
  0
ARC
  5
4C9
  8
1
 10
1548.293514
 20
-248.511932
 30
0.0
 40
0.499912
 50
270.0
 51
0.0
  0
LINE
  5
4CA
  8
1
 10
2142.088433
 20
111.487421
 30
0.0
 11
2142.088433
 21
87.491664
 31
0.0
  0
LINE
  5
4CB
  8
1
 10
2127.291149
 20
111.487421
 30
0.0
 11
2127.291149
 21
87.491664
 31
0.0
  0
LINE
  5
4CC
  8
1
 10
1841.141639
 20
111.487421
 30
0.0
 11
1841.141639
 21
87.491664
 31
0.0
  0
LINE
  5
4CD
  8
1
 10
1826.344355
 20
111.487421
 30
0.0
 11
1826.344355
 21
87.491664
 31
0.0
  0
LINE
  5
4CE
  8
1
 10
1700.166563
 20
111.487421
 30
0.0
 11
1700.166563
 21
87.491664
 31
0.0
  0
LINE
  5
4CF
  8
1
 10
1685.369279
 20
111.487421
 30
0.0
 11
1685.369279
 21
87.491664
 31
0.0
  0
LINE
  5
4D0
  8
1
 10
1399.21977
 20
111.487421
 30
0.0
 11
1399.21977
 21
87.491664
 31
0.0
  0
LINE
  5
4D1
  8
1
 10
1384.422486
 20
111.487421
 30
0.0
 11
1384.422486
 21
87.491664
 31
0.0
  0
LINE
  5
4D2
  8
1
 10
1258.244694
 20
111.487421
 30
0.0
 11
1258.244694
 21
87.491664
 31
0.0
  0
LINE
  5
4D3
  8
1
 10
1243.44741
 20
111.487421
 30
0.0
 11
1243.44741
 21
87.491664
 31
0.0
  0
LINE
  5
4D4
  8
1
 10
957.2981
 20
111.487421
 30
0.0
 11
957.2981
 21
87.491664
 31
0.0
  0
LINE
  5
4D5
  8
1
 10
942.500616
 20
111.487421
 30
0.0
 11
942.500616
 21
87.491664
 31
0.0
  0
LINE
  5
4D6
  8
1
  6
DASHDOT
 10
1542.294575
 20
-445.914132
 30
0.0
 11
1542.294575
 21
84.733351
 31
0.0
  0
LINE
  5
4D7
  8
1
 10
2174.432814
 20
-279.902382
 30
0.0
 11
2165.367517
 21
-288.143525
 31
0.0
  0
LINE
  5
4D8
  8
1
 10
2174.432814
 20
-273.146177
 30
0.0
 11
2157.935731
 21
-288.143525
 31
0.0
  0
LINE
  5
4D9
  8
1
 10
2174.432814
 20
-273.146177
 30
0.0
 11
2174.432814
 21
-288.143525
 31
0.0
  0
LINE
  5
4DA
  8
1
 10
2174.432814
 20
-288.143525
 30
0.0
 11
2157.935731
 21
-288.143525
 31
0.0
  0
LINE
  5
4DB
  8
1
 10
952.898778
 20
-311.13806
 30
0.0
 11
879.41177
 21
-311.13806
 31
0.0
  0
LINE
  5
4DC
  8
1
 10
952.898778
 20
-287.941961
 30
0.0
 11
941.150855
 21
-287.941961
 31
0.0
  0
LINE
  5
4DD
  8
1
 10
891.159693
 20
-287.941961
 30
0.0
 11
879.41177
 21
-287.941961
 31
0.0
  0
LINE
  5
4DE
  8
1
 10
891.159693
 20
-276.344111
 30
0.0
 11
879.41177
 21
-276.344111
 31
0.0
  0
LINE
  5
4DF
  8
1
 10
952.898778
 20
-276.344111
 30
0.0
 11
941.150855
 21
-276.344111
 31
0.0
  0
LINE
  5
4E0
  8
1
 10
952.898778
 20
-253.148312
 30
0.0
 11
879.41177
 21
-253.148312
 31
0.0
  0
LINE
  5
4E1
  8
1
 10
2131.940327
 20
-311.13806
 30
0.0
 11
2205.177379
 21
-311.13806
 31
0.0
  0
LINE
  5
4E2
  8
1
 10
2193.429456
 20
-287.941961
 30
0.0
 11
2205.177379
 21
-287.941961
 31
0.0
  0
LINE
  5
4E3
  8
1
 10
2131.690371
 20
-287.941961
 30
0.0
 11
2143.438294
 21
-287.941961
 31
0.0
  0
LINE
  5
4E4
  8
1
 10
2131.690371
 20
-276.344111
 30
0.0
 11
2143.438294
 21
-276.344111
 31
0.0
  0
LINE
  5
4E5
  8
1
 10
2193.429456
 20
-276.344111
 30
0.0
 11
2205.177379
 21
-276.344111
 31
0.0
  0
LINE
  5
4E6
  8
1
 10
2131.690371
 20
-253.148312
 30
0.0
 11
2205.177379
 21
-253.148312
 31
0.0
  0
LINE
  5
4E7
  8
1
 10
1321.33364
 20
345.345976
 30
0.0
 11
1321.33364
 21
75.493785
 31
0.0
  0
LINE
  5
4E8
  8
1
 10
1763.255509
 20
345.345976
 30
0.0
 11
1763.255509
 21
75.493785
 31
0.0
  0
LINE
  5
4E9
  8
1
 10
1984.216444
 20
87.491664
 30
0.0
 11
1984.216444
 21
339.447119
 31
0.0
  0
LINE
  5
4EA
  8
1
  6
DASHDOT
 10
1542.294575
 20
341.320587
 30
0.0
 11
1542.294575
 21
453.926879
 31
0.0
  0
LINE
  5
4EB
  8
1
 10
1542.294575
 20
87.491664
 30
0.0
 11
1542.294575
 21
339.447119
 31
0.0
  0
LINE
  5
4EC
  8
1
 10
1100.372705
 20
87.491664
 30
0.0
 11
1100.372705
 21
339.447119
 31
0.0
  0
LINE
  5
4ED
  8
1
 10
879.41177
 20
339.447119
 30
0.0
 11
1321.33364
 21
339.447119
 31
0.0
  0
LINE
  5
4EE
  8
1
 10
879.41177
 20
111.487421
 30
0.0
 11
2205.177379
 21
111.487421
 31
0.0
  0
LINE
  5
4EF
  8
1
 10
879.41177
 20
135.483179
 30
0.0
 11
2205.177379
 21
135.483179
 31
0.0
  0
LINE
  5
4F0
  8
1
 10
879.41177
 20
159.478936
 30
0.0
 11
2205.177379
 21
159.478936
 31
0.0
  0
LINE
  5
4F1
  8
1
 10
879.41177
 20
183.474694
 30
0.0
 11
2205.177379
 21
183.474694
 31
0.0
  0
LINE
  5
4F2
  8
1
 10
879.41177
 20
207.470452
 30
0.0
 11
2205.177379
 21
207.470452
 31
0.0
  0
LINE
  5
4F3
  8
1
 10
879.41177
 20
231.466209
 30
0.0
 11
1321.33364
 21
231.466209
 31
0.0
  0
LINE
  5
4F4
  8
1
 10
879.41177
 20
255.461967
 30
0.0
 11
1321.33364
 21
255.461967
 31
0.0
  0
LINE
  5
4F5
  8
1
 10
879.41177
 20
279.457724
 30
0.0
 11
1321.33364
 21
279.457724
 31
0.0
  0
LINE
  5
4F6
  8
1
 10
879.41177
 20
303.453482
 30
0.0
 11
1321.33384
 21
303.453482
 31
0.0
  0
LINE
  5
4F7
  8
1
 10
879.41177
 20
327.44924
 30
0.0
 11
1321.33384
 21
327.44924
 31
0.0
  0
LINE
  5
4F8
  8
1
 10
1321.33364
 20
339.447119
 30
0.0
 11
2205.177379
 21
339.447119
 31
0.0
  0
LINE
  5
4F9
  8
1
 10
1321.33364
 20
327.44924
 30
0.0
 11
2205.177379
 21
327.44924
 31
0.0
  0
LINE
  5
4FA
  8
1
 10
1321.33364
 20
303.453482
 30
0.0
 11
2205.177379
 21
303.453482
 31
0.0
  0
LINE
  5
4FB
  8
1
 10
1321.33364
 20
279.457724
 30
0.0
 11
2205.177379
 21
279.457724
 31
0.0
  0
LINE
  5
4FC
  8
1
 10
1321.33364
 20
255.461967
 30
0.0
 11
2205.177379
 21
255.461967
 31
0.0
  0
LINE
  5
4FD
  8
1
 10
1321.33364
 20
231.466514
 30
0.0
 11
2205.177379
 21
231.466209
 31
0.0
  0
LINE
  5
4FE
  8
1
  6
DASHDOT
 10
568.682335
 20
3.506512
 30
0.0
 11
211.34038
 21
3.506512
 31
0.0
  0
TEXT
  8
3
  40
100
  5
556
  72
0
  71
0
 10
880.294
 20
-899.483
 30
0.000000
  1

  0
TEXT
  8
3
  40
100
  5
557
  72
0
  71
0
 10
880.294
 20
-1029.48
 30
0.000000
  1

  0
TEXT
  8
3
  40
100
  5
558
  72
0
  71
0
 10
880.294
 20
-1159.48
 30
0.000000
  1
GBK6_2
  0
TEXT
  8
3
  40
100
  5
559
  72
0
  71
0
 10
880.294
 20
-1289.48
 30
0.000000
  1
FXYK63KV1
  0
TEXT
  8
3
  40
100
  5
55A
  72
0
  71
0
 10
880.294
 20
-1419.48
 30
0.000000
  1
FXYK63KVAL
  0
ENDSEC
  0
EOF
