  0
SECTION
  2
HEADER
  9
$ACADVER
  1
AC1009
  9
$DWGCODEPAGE
  3
dos932
  9
$INSBASE
 10
0.0
 20
0.0
 30
0.0
  9
$EXTMIN
 10
-4195.48
 20
-2055.146314
 30
0.0
  9
$EXTMAX
 10
2058.504883
 20
2771.32
 30
0.0
  9
$LIMMIN
 10
0.0
 20
0.0
  9
$LIMMAX
 10
420.0
 20
296.987823
  9
$ORTHOMODE
 70
     0
  9
$REGENMODE
 70
     1
  9
$FILLMODE
 70
     1
  9
$QTEXTMODE
 70
     0
  9
$MIRRTEXT
 70
     0
  9
$DRAGMODE
 70
     2
  9
$LTSCALE
 40
1.0
  9
$OSMODE
 70
     0
  9
$ATTMODE
 70
     1
  9
$TEXTSIZE
 40
0.2
  9
$TRACEWID
 40
0.05
  9
$TEXTSTYLE
  7
STANDARD
  9
$CLAYER
  8
0
  9
$CELTYPE
  6
BYLAYER
  9
$CECOLOR
 62
   256
  9
$DIMSCALE
 40
1.0
  9
$DIMASZ
 40
0.18
  9
$DIMEXO
 40
3.0
  9
$DIMDLI
 40
0.38
  9
$DIMRND
 40
0.0
  9
$DIMDLE
 40
0.0
  9
$DIMEXE
 40
5.0
  9
$DIMTP
 40
0.0
  9
$DIMTM
 40
0.0
  9
$DIMTXT
 40
0.18
  9
$DIMCEN
 40
0.09
  9
$DIMTSZ
 40
0.0
  9
$DIMTOL
 70
     0
  9
$DIMLIM
 70
     0
  9
$DIMTIH
 70
     1
  9
$DIMTOH
 70
     1
  9
$DIMSE1
 70
     0
  9
$DIMSE2
 70
     0
  9
$DIMTAD
 70
     1
  9
$DIMZIN
 70
     0
  9
$DIMBLK
  1

  9
$DIMASO
 70
     1
  9
$DIMSHO
 70
     0
  9
$DIMPOST
  1

  9
$DIMAPOST
  1

  9
$DIMALT
 70
     0
  9
$DIMALTD
 70
     2
  9
$DIMALTF
 40
25.4
  9
$DIMLFAC
 40
1.0
  9
$DIMTOFL
 70
     0
  9
$DIMTVP
 40
1.0
  9
$DIMTIX
 70
     0
  9
$DIMSOXD
 70
     0
  9
$DIMSAH
 70
     0
  9
$DIMBLK1
  1

  9
$DIMBLK2
  1

  9
$DIMSTYLE
  2
STANDARD
  9
$DIMCLRD
 70
     0
  9
$DIMCLRE
 70
     0
  9
$DIMCLRT
 70
     0
  9
$DIMTFAC
 40
1.0
  9
$DIMGAP
 40
0.09
  9
$LUNITS
 70
     2
  9
$LUPREC
 70
     4
  9
$SKETCHINC
 40
0.1
  9
$FILLETRAD
 40
0.05
  9
$AUNITS
 70
     0
  9
$AUPREC
 70
     0
  9
$MENU
  1
acad
  9
$ELEVATION
 40
0.0
  9
$PELEVATION
 40
0.0
  9
$THICKNESS
 40
0.0
  9
$LIMCHECK
 70
     0
  9
$BLIPMODE
 70
     1
  9
$CHAMFERA
 40
0.0
  9
$CHAMFERB
 40
0.0
  9
$SKPOLY
 70
     0
  9
$TDCREATE
 40
0.0
  9
$TDUPDATE
 40
0.0
  9
$TDINDWG
 40
0.0
  9
$TDUSRTIMER
 40
0.0
  9
$USRTIMER
 70
     1
  9
$ANGBASE
 50
0.0
  9
$ANGDIR
 70
     0
  9
$PDMODE
 70
     0
  9
$PDSIZE
 40
0.0
  9
$PLINEWID
 40
0.0
  9
$COORDS
 70
     0
  9
$SPLFRAME
 70
     0
  9
$SPLINETYPE
 70
     6
  9
$SPLINESEGS
 70
     8
  9
$ATTDIA
 70
     1
  9
$ATTREQ
 70
     1
  9
$HANDLING
 70
     1
  9
$HANDSEED
  5
C7B
  9
$SURFTAB1
 70
     6
  9
$SURFTAB2
 70
     6
  9
$SURFTYPE
 70
     6
  9
$SURFU
 70
     6
  9
$SURFV
 70
     6
  9
$UCSNAME
  2

  9
$UCSORG
 10
0.0
 20
0.0
 30
0.0
  9
$UCSXDIR
 10
1.0
 20
0.0
 30
0.0
  9
$UCSYDIR
 10
0.0
 20
1.0
 30
0.0
  9
$PUCSNAME
  2

  9
$PUCSORG
 10
0.0
 20
0.0
 30
0.0
  9
$PUCSXDIR
 10
1.0
 20
0.0
 30
0.0
  9
$PUCSYDIR
 10
0.0
 20
1.0
 30
0.0
  9
$USERI1
 70
     0
  9
$USERI2
 70
     0
  9
$USERI3
 70
     0
  9
$USERI4
 70
     0
  9
$USERI5
 70
     0
  9
$USERR1
 40
0.0
  9
$USERR2
 40
0.0
  9
$USERR3
 40
0.0
  9
$USERR4
 40
0.0
  9
$USERR5
 40
0.0
  9
$WORLDVIEW
 70
     1
  9
$SHADEDGE
 70
     3
  9
$SHADEDIF
 70
    70
  9
$TILEMODE
 70
     1
  9
$MAXACTVP
 70
    16
  9
$PINSBASE
 10
0.0
 20
0.0
 30
0.0
  9
$PLIMCHECK
 70
     0
  9
$PEXTMIN
 10
1.000000E+020
 20
1.000000E+020
 30
1.000000E+020
  9
$PEXTMAX
 10
-1.000000E+020
 20
-1.000000E+020
 30
-1.000000E+020
  9
$PLIMMIN
 10
0.0
 20
0.0
  9
$PLIMMAX
 10
12.0
 20
9.0
  9
$UNITMODE
 70
     0
  9
$VISRETAIN
 70
     0
  9
$PLINEGEN
 70
     0
  9
$PSLTSCALE
 70
     1
  9
$TREEDEPTH
 70
  3020
  0
ENDSEC
  0
SECTION
  2
TABLES
  0
TABLE
  2
VPORT
 70
     2
  0
VPORT
  2
*ACTIVE
 70
     0
 10
0.0
 20
0.0
 11
1.0
 21
1.0
 12
2003.114357
 22
25.324599
 13
0.0
 23
0.0
 14
1.0
 24
1.0
 15
0.0
 25
0.0
 16
0.0
 26
0.0
 36
1.0
 17
0.0
 27
0.0
 37
0.0
 40
5162.119129
 41
2.076923
 42
50.0
 43
0.0
 44
0.0
 50
0.0
 51
0.0
 71
     0
 72
   100
 73
     1
 74
     1
 75
     0
 76
     0
 77
     0
 78
     0
  0
ENDTAB
  0
TABLE
  2
LTYPE
 70
     5
  0
LTYPE
  2
CONTINUOUS
 70
    64
  3
Solid line
 72
    65
 73
     0
 40
0.0
  0
LTYPE
  2
DASHDOT
 70
    64
  3
__ . __ . __ . __ . __ . __ . __ . __ . __ . __
 72
    65
 73
     4
 40
1.0
 49
0.5
 49
-0.25
 49
0.0
 49
-0.25
  0
LTYPE
  2
DIVIDE
 70
    64
  3
__ . . __ . . __ . . __ . . __ . . __ . . __
 72
    65
 73
     6
 40
1.25
 49
0.5
 49
-0.25
 49
0.0
 49
-0.25
 49
0.0
 49
-0.25
  0
LTYPE
  2
DASHED
 70
    64
  3
__ __ __ __ __ __ __ __ __ __ __ __ __ __ __
 72
    65
 73
     2
 40
0.75
 49
0.5
 49
-0.25
  0
LTYPE
  2
DOT
 70
    64
  3
...............................................
 72
    65
 73
     2
 40
0.25
 49
0.0
 49
-0.25
  0
ENDTAB
  0
TABLE
  2
LAYER
 70
     5
  0
LAYER
  2
0
 70
     0
 62
     7
  6
CONTINUOUS
  0
LAYER
  2
DEFPOINTS
 70
     0
 62
    -7
  6
CONTINUOUS
  0
LAYER
  2
1
 70
     0
 62
     7
  6
CONTINUOUS
  0
LAYER
  2
2
 70
     0
 62
     7
  6
DOT
  0
LAYER
  2
3
 70
     0
 62
     7
  6
CONTINUOUS
  0
ENDTAB
  0
TABLE
  2
STYLE
 70
     3
  0
STYLE
  2
STANDARD
 70
    64
 40
100.0
 41
0.8
 50
0.0
 71
     0
 42
0.2
  3
txt
  4

  0
STYLE
  2
MONOTXT
 70
    64
 40
0.0
 41
0.5
 50
0.0
 71
     0
 42
4.191412
  3
monotxt
  4
BIGFONT
  0
STYLE
  2
VERTICAL
 70
    68
 40
0.0
 41
0.5
 50
0.0
 71
     0
 42
4.191412
  3
monotxt
  4
BIGFONT
  0
ENDTAB
  0
TABLE
  2
VIEW
 70
     0
  0
ENDTAB
  0
TABLE
  2
UCS
 70
     0
  0
ENDTAB
  0
TABLE
  2
APPID
 70
     1
  0
APPID
  2
ACAD
 70
     0
  0
ENDTAB
  0
TABLE
  2
DIMSTYLE
 70
     1
  0
DIMSTYLE
  2
STANDARD
 70
     0
  3

  4

  5

  6

  7

 40
1.0
 41
0.18
 42
0.0625
 43
0.38
 44
0.18
 45
0.0
 46
0.0
 47
0.0
 48
0.0
140
0.18
141
0.09
142
0.0
143
25.4
144
1.0
145
0.0
146
1.0
147
0.09
 71
     0
 72
     0
 73
     1
 74
     1
 75
     0
 76
     0
 77
     0
 78
     0
170
     0
171
     2
172
     0
173
     0
174
     0
175
     0
176
     0
177
     0
178
     0
  0
ENDTAB
  0
ENDSEC
  0
SECTION
  2
BLOCKS
  0
BLOCK
  5
C35
  8
0
  2
$MODEL_SPACE
 70
     0
 10
0.0
 20
0.0
 30
0.0
  3
$MODEL_SPACE
  1

  0
ENDBLK
  5
C36
  8
0
  0
BLOCK
  5
C32
 67
     1
  8
0
  2
$PAPER_SPACE
 70
     0
 10
0.0
 20
0.0
 30
0.0
  3
$PAPER_SPACE
  1

  0
ENDBLK
  5
C33
 67
     1
  8
0
  0
BLOCK
  5
2B
  8
1
  2
*U2
 70
    65
 10
0.0
 20
0.0
 30
0.0
  3
*U2
  1

  0
LINE
  5
2C
  8
1
 10
397.763749
 20
432.51341
 30
0.0
 11
342.77586
 21
432.51341
 31
0.0
  0
LINE
  5
2D
  8
1
 10
342.77586
 20
405.816255
 30
0.0
 11
342.77586
 21
432.51341
 31
0.0
  0
LINE
  5
2E
  8
1
 10
342.77586
 20
362.528825
 30
0.0
 11
342.77586
 21
376.847193
 31
0.0
  0
LINE
  5
2F
  8
1
 10
397.763749
 20
362.528825
 30
0.0
 11
342.77586
 21
362.528825
 31
0.0
  0
LINE
  5
30
  8
1
 10
397.763749
 20
362.528825
 30
0.0
 11
397.763749
 21
387.600403
 31
0.0
  0
LINE
  5
31
  8
1
 10
397.763749
 20
397.098311
 30
0.0
 11
397.763749
 21
432.51341
 31
0.0
  0
ENDBLK
  5
32
  8
0
  0
BLOCK
  5
34
  8
1
  2
*U3
 70
    65
 10
0.0
 20
0.0
 30
0.0
  3
*U3
  1

  0
LINE
  5
35
  8
1
  6
DASHDOT
 10
291.070447
 20
949.325428
 30
0.0
 11
416.278942
 21
949.325428
 31
0.0
  0
LINE
  5
36
  8
1
 10
388.527696
 20
969.741136
 30
0.0
 11
390.100054
 21
969.741136
 31
0.0
  0
LINE
  5
37
  8
1
 10
387.527916
 20
925.451122
 30
0.0
 11
387.527916
 21
968.741357
 31
0.0
  0
LINE
  5
38
  8
1
 10
387.527916
 20
965.852032
 30
0.0
 11
334.812141
 21
965.324874
 31
0.0
  0
ARC
  5
39
  8
1
 10
388.527696
 20
968.741357
 30
0.0
 40
0.99978
 50
90.0
 51
180.0
  0
LINE
  5
3A
  8
1
 10
388.527696
 20
924.451342
 30
0.0
 11
389.990954
 21
924.451342
 31
0.0
  0
ARC
  5
3B
  8
1
 10
388.527696
 20
925.451122
 30
0.0
 40
0.99978
 50
180.0
 51
270.0
  0
LINE
  5
3C
  8
1
 10
334.812141
 20
933.325983
 30
0.0
 11
387.527916
 21
932.798825
 31
0.0
  0
ENDBLK
  5
3D
  8
0
  0
BLOCK
  5
3F
  8
1
  2
*U4
 70
    65
 10
0.0
 20
0.0
 30
0.0
  3
*U4
  1

  0
LINE
  5
40
  8
1
 10
405.084594
 20
-457.748719
 30
0.0
 11
405.084594
 21
-444.007672
 31
0.0
  0
LINE
  5
41
  8
1
 10
406.215716
 20
-457.748703
 30
0.0
 11
406.215716
 21
-450.750208
 31
0.0
  0
POLYLINE
  5
42
  8
1
 66
     1
 10
0.0
 20
0.0
 30
0.0
 70
     8
  0
VERTEX
  5
43
  8
1
 10
404.094863
 20
-460.748005
 30
0.0
 70
    32
  0
VERTEX
  5
44
  8
1
 10
404.174679
 20
-460.74588
 30
0.0
 70
    32
  0
VERTEX
  5
45
  8
1
 10
404.254269
 20
-460.739521
 30
0.0
 70
    32
  0
VERTEX
  5
46
  8
1
 10
404.333411
 20
-460.728972
 30
0.0
 70
    32
  0
VERTEX
  5
47
  8
1
 10
404.411887
 20
-460.714307
 30
0.0
 70
    32
  0
VERTEX
  5
48
  8
1
 10
404.489491
 20
-460.695626
 30
0.0
 70
    32
  0
VERTEX
  5
49
  8
1
 10
404.566025
 20
-460.673054
 30
0.0
 70
    32
  0
VERTEX
  5
4A
  8
1
 10
404.641306
 20
-460.646741
 30
0.0
 70
    32
  0
VERTEX
  5
4B
  8
1
 10
404.715164
 20
-460.616851
 30
0.0
 70
    32
  0
VERTEX
  5
4C
  8
1
 10
404.787449
 20
-460.583571
 30
0.0
 70
    32
  0
VERTEX
  5
4D
  8
1
 10
404.858025
 20
-460.547095
 30
0.0
 70
    32
  0
VERTEX
  5
4E
  8
1
 10
404.926775
 20
-460.50763
 30
0.0
 70
    32
  0
VERTEX
  5
4F
  8
1
 10
404.9936
 20
-460.465388
 30
0.0
 70
    32
  0
VERTEX
  5
50
  8
1
 10
405.05842
 20
-460.420585
 30
0.0
 70
    32
  0
VERTEX
  5
51
  8
1
 10
405.121171
 20
-460.373436
 30
0.0
 70
    32
  0
VERTEX
  5
52
  8
1
 10
405.181805
 20
-460.324156
 30
0.0
 70
    32
  0
VERTEX
  5
53
  8
1
 10
405.240291
 20
-460.272953
 30
0.0
 70
    32
  0
VERTEX
  5
54
  8
1
 10
405.29661
 20
-460.22003
 30
0.0
 70
    32
  0
VERTEX
  5
55
  8
1
 10
405.350759
 20
-460.165582
 30
0.0
 70
    32
  0
VERTEX
  5
56
  8
1
 10
405.402745
 20
-460.109794
 30
0.0
 70
    32
  0
VERTEX
  5
57
  8
1
 10
405.452585
 20
-460.05284
 30
0.0
 70
    32
  0
VERTEX
  5
58
  8
1
 10
405.500305
 20
-459.994885
 30
0.0
 70
    32
  0
VERTEX
  5
59
  8
1
 10
405.545941
 20
-459.936081
 30
0.0
 70
    32
  0
VERTEX
  5
5A
  8
1
 10
405.589532
 20
-459.876568
 30
0.0
 70
    32
  0
VERTEX
  5
5B
  8
1
 10
405.631124
 20
-459.816476
 30
0.0
 70
    32
  0
VERTEX
  5
5C
  8
1
 10
405.670768
 20
-459.755923
 30
0.0
 70
    32
  0
VERTEX
  5
5D
  8
1
 10
405.708517
 20
-459.695015
 30
0.0
 70
    32
  0
VERTEX
  5
5E
  8
1
 10
405.744427
 20
-459.633848
 30
0.0
 70
    32
  0
VERTEX
  5
5F
  8
1
 10
405.778555
 20
-459.572507
 30
0.0
 70
    32
  0
VERTEX
  5
60
  8
1
 10
405.810959
 20
-459.511069
 30
0.0
 70
    32
  0
VERTEX
  5
61
  8
1
 10
405.841697
 20
-459.449601
 30
0.0
 70
    32
  0
VERTEX
  5
62
  8
1
 10
405.870827
 20
-459.388159
 30
0.0
 70
    32
  0
VERTEX
  5
63
  8
1
 10
405.898407
 20
-459.326796
 30
0.0
 70
    32
  0
VERTEX
  5
64
  8
1
 10
405.924493
 20
-459.265552
 30
0.0
 70
    32
  0
VERTEX
  5
65
  8
1
 10
405.94914
 20
-459.204465
 30
0.0
 70
    32
  0
VERTEX
  5
66
  8
1
 10
405.9724
 20
-459.143565
 30
0.0
 70
    32
  0
VERTEX
  5
67
  8
1
 10
405.994326
 20
-459.082875
 30
0.0
 70
    32
  0
VERTEX
  5
68
  8
1
 10
406.014967
 20
-459.022416
 30
0.0
 70
    32
  0
VERTEX
  5
69
  8
1
 10
406.034369
 20
-458.9622
 30
0.0
 70
    32
  0
VERTEX
  5
6A
  8
1
 10
406.052579
 20
-458.902239
 30
0.0
 70
    32
  0
VERTEX
  5
6B
  8
1
 10
406.069639
 20
-458.842538
 30
0.0
 70
    32
  0
VERTEX
  5
6C
  8
1
 10
406.085589
 20
-458.783102
 30
0.0
 70
    32
  0
VERTEX
  5
6D
  8
1
 10
406.100468
 20
-458.723928
 30
0.0
 70
    32
  0
VERTEX
  5
6E
  8
1
 10
406.114311
 20
-458.665016
 30
0.0
 70
    32
  0
VERTEX
  5
6F
  8
1
 10
406.127152
 20
-458.606359
 30
0.0
 70
    32
  0
VERTEX
  5
70
  8
1
 10
406.139023
 20
-458.54795
 30
0.0
 70
    32
  0
VERTEX
  5
71
  8
1
 10
406.149953
 20
-458.48978
 30
0.0
 70
    32
  0
VERTEX
  5
72
  8
1
 10
406.159968
 20
-458.431837
 30
0.0
 70
    32
  0
VERTEX
  5
73
  8
1
 10
406.169093
 20
-458.374109
 30
0.0
 70
    32
  0
VERTEX
  5
74
  8
1
 10
406.17735
 20
-458.316582
 30
0.0
 70
    32
  0
VERTEX
  5
75
  8
1
 10
406.184761
 20
-458.259242
 30
0.0
 70
    32
  0
VERTEX
  5
76
  8
1
 10
406.191343
 20
-458.202071
 30
0.0
 70
    32
  0
VERTEX
  5
77
  8
1
 10
406.197113
 20
-458.145053
 30
0.0
 70
    32
  0
VERTEX
  5
78
  8
1
 10
406.202085
 20
-458.08817
 30
0.0
 70
    32
  0
VERTEX
  5
79
  8
1
 10
406.206272
 20
-458.031405
 30
0.0
 70
    32
  0
VERTEX
  5
7A
  8
1
 10
406.209683
 20
-457.974738
 30
0.0
 70
    32
  0
VERTEX
  5
7B
  8
1
 10
406.212327
 20
-457.91815
 30
0.0
 70
    32
  0
VERTEX
  5
7C
  8
1
 10
406.214212
 20
-457.861622
 30
0.0
 70
    32
  0
VERTEX
  5
7D
  8
1
 10
406.21534
 20
-457.805134
 30
0.0
 70
    32
  0
VERTEX
  5
7E
  8
1
 10
406.215716
 20
-457.748666
 30
0.0
 70
    32
  0
SEQEND
  5
7F
  8
DEFPOINTS
  0
POLYLINE
  5
80
  8
1
 66
     1
 10
0.0
 20
0.0
 30
0.0
 70
     8
  0
VERTEX
  5
81
  8
1
 10
402.963741
 20
-460.748005
 30
0.0
 70
    32
  0
VERTEX
  5
82
  8
1
 10
403.043557
 20
-460.74588
 30
0.0
 70
    32
  0
VERTEX
  5
83
  8
1
 10
403.123147
 20
-460.739521
 30
0.0
 70
    32
  0
VERTEX
  5
84
  8
1
 10
403.202289
 20
-460.728972
 30
0.0
 70
    32
  0
VERTEX
  5
85
  8
1
 10
403.280766
 20
-460.714307
 30
0.0
 70
    32
  0
VERTEX
  5
86
  8
1
 10
403.358369
 20
-460.695626
 30
0.0
 70
    32
  0
VERTEX
  5
87
  8
1
 10
403.434903
 20
-460.673054
 30
0.0
 70
    32
  0
VERTEX
  5
88
  8
1
 10
403.510184
 20
-460.646741
 30
0.0
 70
    32
  0
VERTEX
  5
89
  8
1
 10
403.584043
 20
-460.616851
 30
0.0
 70
    32
  0
VERTEX
  5
8A
  8
1
 10
403.656327
 20
-460.583571
 30
0.0
 70
    32
  0
VERTEX
  5
8B
  8
1
 10
403.726903
 20
-460.547095
 30
0.0
 70
    32
  0
VERTEX
  5
8C
  8
1
 10
403.795653
 20
-460.50763
 30
0.0
 70
    32
  0
VERTEX
  5
8D
  8
1
 10
403.862479
 20
-460.465388
 30
0.0
 70
    32
  0
VERTEX
  5
8E
  8
1
 10
403.927299
 20
-460.420585
 30
0.0
 70
    32
  0
VERTEX
  5
8F
  8
1
 10
403.990049
 20
-460.373436
 30
0.0
 70
    32
  0
VERTEX
  5
90
  8
1
 10
404.050683
 20
-460.324156
 30
0.0
 70
    32
  0
VERTEX
  5
91
  8
1
 10
404.109169
 20
-460.272953
 30
0.0
 70
    32
  0
VERTEX
  5
92
  8
1
 10
404.165489
 20
-460.22003
 30
0.0
 70
    32
  0
VERTEX
  5
93
  8
1
 10
404.219637
 20
-460.165582
 30
0.0
 70
    32
  0
VERTEX
  5
94
  8
1
 10
404.271623
 20
-460.109794
 30
0.0
 70
    32
  0
VERTEX
  5
95
  8
1
 10
404.321463
 20
-460.05284
 30
0.0
 70
    32
  0
VERTEX
  5
96
  8
1
 10
404.369183
 20
-459.994885
 30
0.0
 70
    32
  0
VERTEX
  5
97
  8
1
 10
404.414819
 20
-459.936081
 30
0.0
 70
    32
  0
VERTEX
  5
98
  8
1
 10
404.45841
 20
-459.876568
 30
0.0
 70
    32
  0
VERTEX
  5
99
  8
1
 10
404.500002
 20
-459.816476
 30
0.0
 70
    32
  0
VERTEX
  5
9A
  8
1
 10
404.539647
 20
-459.755923
 30
0.0
 70
    32
  0
VERTEX
  5
9B
  8
1
 10
404.577396
 20
-459.695015
 30
0.0
 70
    32
  0
VERTEX
  5
9C
  8
1
 10
404.613306
 20
-459.633848
 30
0.0
 70
    32
  0
VERTEX
  5
9D
  8
1
 10
404.647433
 20
-459.572507
 30
0.0
 70
    32
  0
VERTEX
  5
9E
  8
1
 10
404.679837
 20
-459.511069
 30
0.0
 70
    32
  0
VERTEX
  5
9F
  8
1
 10
404.710575
 20
-459.449601
 30
0.0
 70
    32
  0
VERTEX
  5
A0
  8
1
 10
404.739705
 20
-459.388159
 30
0.0
 70
    32
  0
VERTEX
  5
A1
  8
1
 10
404.767285
 20
-459.326796
 30
0.0
 70
    32
  0
VERTEX
  5
A2
  8
1
 10
404.793371
 20
-459.265552
 30
0.0
 70
    32
  0
VERTEX
  5
A3
  8
1
 10
404.818018
 20
-459.204465
 30
0.0
 70
    32
  0
VERTEX
  5
A4
  8
1
 10
404.841279
 20
-459.143565
 30
0.0
 70
    32
  0
VERTEX
  5
A5
  8
1
 10
404.863204
 20
-459.082875
 30
0.0
 70
    32
  0
VERTEX
  5
A6
  8
1
 10
404.883845
 20
-459.022416
 30
0.0
 70
    32
  0
VERTEX
  5
A7
  8
1
 10
404.903248
 20
-458.9622
 30
0.0
 70
    32
  0
VERTEX
  5
A8
  8
1
 10
404.921457
 20
-458.902239
 30
0.0
 70
    32
  0
VERTEX
  5
A9
  8
1
 10
404.938517
 20
-458.842538
 30
0.0
 70
    32
  0
VERTEX
  5
AA
  8
1
 10
404.954467
 20
-458.783102
 30
0.0
 70
    32
  0
VERTEX
  5
AB
  8
1
 10
404.969346
 20
-458.723928
 30
0.0
 70
    32
  0
VERTEX
  5
AC
  8
1
 10
404.983189
 20
-458.665016
 30
0.0
 70
    32
  0
VERTEX
  5
AD
  8
1
 10
404.99603
 20
-458.606359
 30
0.0
 70
    32
  0
VERTEX
  5
AE
  8
1
 10
405.007901
 20
-458.54795
 30
0.0
 70
    32
  0
VERTEX
  5
AF
  8
1
 10
405.018831
 20
-458.48978
 30
0.0
 70
    32
  0
VERTEX
  5
B0
  8
1
 10
405.028846
 20
-458.431837
 30
0.0
 70
    32
  0
VERTEX
  5
B1
  8
1
 10
405.037971
 20
-458.374109
 30
0.0
 70
    32
  0
VERTEX
  5
B2
  8
1
 10
405.046229
 20
-458.316582
 30
0.0
 70
    32
  0
VERTEX
  5
B3
  8
1
 10
405.053639
 20
-458.259242
 30
0.0
 70
    32
  0
VERTEX
  5
B4
  8
1
 10
405.060222
 20
-458.202071
 30
0.0
 70
    32
  0
VERTEX
  5
B5
  8
1
 10
405.065992
 20
-458.145053
 30
0.0
 70
    32
  0
VERTEX
  5
B6
  8
1
 10
405.070964
 20
-458.08817
 30
0.0
 70
    32
  0
VERTEX
  5
B7
  8
1
 10
405.07515
 20
-458.031405
 30
0.0
 70
    32
  0
VERTEX
  5
B8
  8
1
 10
405.078561
 20
-457.974738
 30
0.0
 70
    32
  0
VERTEX
  5
B9
  8
1
 10
405.081206
 20
-457.91815
 30
0.0
 70
    32
  0
VERTEX
  5
BA
  8
1
 10
405.08309
 20
-457.861622
 30
0.0
 70
    32
  0
VERTEX
  5
BB
  8
1
 10
405.084219
 20
-457.805134
 30
0.0
 70
    32
  0
VERTEX
  5
BC
  8
1
 10
405.084594
 20
-457.748666
 30
0.0
 70
    32
  0
SEQEND
  5
BD
  8
DEFPOINTS
  0
ENDBLK
  5
BE
  8
0
  0
BLOCK
  5
C0
  8
1
  2
*U5
 70
    65
 10
0.0
 20
0.0
 30
0.0
  3
*U5
  1

  0
POLYLINE
  5
C1
  8
1
 66
     1
 10
0.0
 20
0.0
 30
0.0
 70
     8
  0
VERTEX
  5
C2
  8
1
 10
400.573901
 20
-457.707264
 30
0.0
 70
    32
  0
VERTEX
  5
C3
  8
1
 10
400.574277
 20
-457.763732
 30
0.0
 70
    32
  0
VERTEX
  5
C4
  8
1
 10
400.575406
 20
-457.82022
 30
0.0
 70
    32
  0
VERTEX
  5
C5
  8
1
 10
400.57729
 20
-457.876748
 30
0.0
 70
    32
  0
VERTEX
  5
C6
  8
1
 10
400.579935
 20
-457.933336
 30
0.0
 70
    32
  0
VERTEX
  5
C7
  8
1
 10
400.583346
 20
-457.990003
 30
0.0
 70
    32
  0
VERTEX
  5
C8
  8
1
 10
400.587532
 20
-458.046768
 30
0.0
 70
    32
  0
VERTEX
  5
C9
  8
1
 10
400.592504
 20
-458.103651
 30
0.0
 70
    32
  0
VERTEX
  5
CA
  8
1
 10
400.598274
 20
-458.160669
 30
0.0
 70
    32
  0
VERTEX
  5
CB
  8
1
 10
400.604856
 20
-458.217839
 30
0.0
 70
    32
  0
VERTEX
  5
CC
  8
1
 10
400.612267
 20
-458.27518
 30
0.0
 70
    32
  0
VERTEX
  5
CD
  8
1
 10
400.620525
 20
-458.332707
 30
0.0
 70
    32
  0
VERTEX
  5
CE
  8
1
 10
400.62965
 20
-458.390435
 30
0.0
 70
    32
  0
VERTEX
  5
CF
  8
1
 10
400.639665
 20
-458.448378
 30
0.0
 70
    32
  0
VERTEX
  5
D0
  8
1
 10
400.650595
 20
-458.506548
 30
0.0
 70
    32
  0
VERTEX
  5
D1
  8
1
 10
400.662465
 20
-458.564957
 30
0.0
 70
    32
  0
VERTEX
  5
D2
  8
1
 10
400.675307
 20
-458.623614
 30
0.0
 70
    32
  0
VERTEX
  5
D3
  8
1
 10
400.68915
 20
-458.682526
 30
0.0
 70
    32
  0
VERTEX
  5
D4
  8
1
 10
400.704029
 20
-458.741699
 30
0.0
 70
    32
  0
VERTEX
  5
D5
  8
1
 10
400.719979
 20
-458.801136
 30
0.0
 70
    32
  0
VERTEX
  5
D6
  8
1
 10
400.737038
 20
-458.860837
 30
0.0
 70
    32
  0
VERTEX
  5
D7
  8
1
 10
400.755248
 20
-458.920798
 30
0.0
 70
    32
  0
VERTEX
  5
D8
  8
1
 10
400.774651
 20
-458.981014
 30
0.0
 70
    32
  0
VERTEX
  5
D9
  8
1
 10
400.795291
 20
-459.041473
 30
0.0
 70
    32
  0
VERTEX
  5
DA
  8
1
 10
400.817217
 20
-459.102163
 30
0.0
 70
    32
  0
VERTEX
  5
DB
  8
1
 10
400.840478
 20
-459.163063
 30
0.0
 70
    32
  0
VERTEX
  5
DC
  8
1
 10
400.865125
 20
-459.22415
 30
0.0
 70
    32
  0
VERTEX
  5
DD
  8
1
 10
400.89121
 20
-459.285393
 30
0.0
 70
    32
  0
VERTEX
  5
DE
  8
1
 10
400.91879
 20
-459.346757
 30
0.0
 70
    32
  0
VERTEX
  5
DF
  8
1
 10
400.947921
 20
-459.408199
 30
0.0
 70
    32
  0
VERTEX
  5
E0
  8
1
 10
400.978659
 20
-459.469667
 30
0.0
 70
    32
  0
VERTEX
  5
E1
  8
1
 10
401.011063
 20
-459.531105
 30
0.0
 70
    32
  0
VERTEX
  5
E2
  8
1
 10
401.04519
 20
-459.592446
 30
0.0
 70
    32
  0
VERTEX
  5
E3
  8
1
 10
401.0811
 20
-459.653613
 30
0.0
 70
    32
  0
VERTEX
  5
E4
  8
1
 10
401.118849
 20
-459.714521
 30
0.0
 70
    32
  0
VERTEX
  5
E5
  8
1
 10
401.158494
 20
-459.775074
 30
0.0
 70
    32
  0
VERTEX
  5
E6
  8
1
 10
401.200086
 20
-459.835166
 30
0.0
 70
    32
  0
VERTEX
  5
E7
  8
1
 10
401.243677
 20
-459.894679
 30
0.0
 70
    32
  0
VERTEX
  5
E8
  8
1
 10
401.289312
 20
-459.953483
 30
0.0
 70
    32
  0
VERTEX
  5
E9
  8
1
 10
401.337033
 20
-460.011438
 30
0.0
 70
    32
  0
VERTEX
  5
EA
  8
1
 10
401.386873
 20
-460.068392
 30
0.0
 70
    32
  0
VERTEX
  5
EB
  8
1
 10
401.438858
 20
-460.12418
 30
0.0
 70
    32
  0
VERTEX
  5
EC
  8
1
 10
401.493007
 20
-460.178628
 30
0.0
 70
    32
  0
VERTEX
  5
ED
  8
1
 10
401.549327
 20
-460.231551
 30
0.0
 70
    32
  0
VERTEX
  5
EE
  8
1
 10
401.607812
 20
-460.282754
 30
0.0
 70
    32
  0
VERTEX
  5
EF
  8
1
 10
401.668446
 20
-460.332034
 30
0.0
 70
    32
  0
VERTEX
  5
F0
  8
1
 10
401.731197
 20
-460.379182
 30
0.0
 70
    32
  0
VERTEX
  5
F1
  8
1
 10
401.796017
 20
-460.423986
 30
0.0
 70
    32
  0
VERTEX
  5
F2
  8
1
 10
401.862843
 20
-460.466228
 30
0.0
 70
    32
  0
VERTEX
  5
F3
  8
1
 10
401.931593
 20
-460.505693
 30
0.0
 70
    32
  0
VERTEX
  5
F4
  8
1
 10
402.002169
 20
-460.542169
 30
0.0
 70
    32
  0
VERTEX
  5
F5
  8
1
 10
402.074453
 20
-460.575449
 30
0.0
 70
    32
  0
VERTEX
  5
F6
  8
1
 10
402.148312
 20
-460.605338
 30
0.0
 70
    32
  0
VERTEX
  5
F7
  8
1
 10
402.223592
 20
-460.631652
 30
0.0
 70
    32
  0
VERTEX
  5
F8
  8
1
 10
402.300126
 20
-460.654224
 30
0.0
 70
    32
  0
VERTEX
  5
F9
  8
1
 10
402.37773
 20
-460.672905
 30
0.0
 70
    32
  0
VERTEX
  5
FA
  8
1
 10
402.456207
 20
-460.68757
 30
0.0
 70
    32
  0
VERTEX
  5
FB
  8
1
 10
402.535349
 20
-460.698119
 30
0.0
 70
    32
  0
VERTEX
  5
FC
  8
1
 10
402.614939
 20
-460.704478
 30
0.0
 70
    32
  0
VERTEX
  5
FD
  8
1
 10
402.694755
 20
-460.706603
 30
0.0
 70
    32
  0
SEQEND
  5
FE
  8
DEFPOINTS
  0
LINE
  5
FF
  8
1
 10
404.644802
 20
-460.706603
 30
0.0
 11
402.694725
 21
-460.706603
 31
0.0
  0
LINE
  5
100
  8
1
 10
400.573901
 20
-457.707329
 30
0.0
 11
400.573901
 21
-444.007672
 31
0.0
  0
ENDBLK
  5
101
  8
0
  0
BLOCK
  5
103
  8
1
  2
*U6
 70
    65
 10
0.0
 20
0.0
 30
0.0
  3
*U6
  1

  0
LINE
  5
104
  8
1
 10
396.380593
 20
-457.80991
 30
0.0
 11
396.380593
 21
-444.007672
 31
0.0
  0
LINE
  5
105
  8
1
 10
397.511714
 20
-457.809885
 30
0.0
 11
397.511714
 21
-450.811394
 31
0.0
  0
LINE
  5
106
  8
1
 10
400.573901
 20
-450.811394
 30
0.0
 11
397.511714
 21
-450.811394
 31
0.0
  0
POLYLINE
  5
107
  8
1
 66
     1
 10
0.0
 20
0.0
 30
0.0
 70
     8
  0
VERTEX
  5
108
  8
1
 10
395.390861
 20
-460.809191
 30
0.0
 70
    32
  0
VERTEX
  5
109
  8
1
 10
395.470677
 20
-460.807066
 30
0.0
 70
    32
  0
VERTEX
  5
10A
  8
1
 10
395.550267
 20
-460.800707
 30
0.0
 70
    32
  0
VERTEX
  5
10B
  8
1
 10
395.629409
 20
-460.790158
 30
0.0
 70
    32
  0
VERTEX
  5
10C
  8
1
 10
395.707886
 20
-460.775492
 30
0.0
 70
    32
  0
VERTEX
  5
10D
  8
1
 10
395.785489
 20
-460.756811
 30
0.0
 70
    32
  0
VERTEX
  5
10E
  8
1
 10
395.862023
 20
-460.73424
 30
0.0
 70
    32
  0
VERTEX
  5
10F
  8
1
 10
395.937304
 20
-460.707926
 30
0.0
 70
    32
  0
VERTEX
  5
110
  8
1
 10
396.011163
 20
-460.678037
 30
0.0
 70
    32
  0
VERTEX
  5
111
  8
1
 10
396.083447
 20
-460.644756
 30
0.0
 70
    32
  0
VERTEX
  5
112
  8
1
 10
396.154023
 20
-460.60828
 30
0.0
 70
    32
  0
VERTEX
  5
113
  8
1
 10
396.222773
 20
-460.568815
 30
0.0
 70
    32
  0
VERTEX
  5
114
  8
1
 10
396.289599
 20
-460.526573
 30
0.0
 70
    32
  0
VERTEX
  5
115
  8
1
 10
396.354419
 20
-460.48177
 30
0.0
 70
    32
  0
VERTEX
  5
116
  8
1
 10
396.417169
 20
-460.434622
 30
0.0
 70
    32
  0
VERTEX
  5
117
  8
1
 10
396.477803
 20
-460.385341
 30
0.0
 70
    32
  0
VERTEX
  5
118
  8
1
 10
396.536289
 20
-460.334139
 30
0.0
 70
    32
  0
VERTEX
  5
119
  8
1
 10
396.592608
 20
-460.281216
 30
0.0
 70
    32
  0
VERTEX
  5
11A
  8
1
 10
396.646757
 20
-460.226768
 30
0.0
 70
    32
  0
VERTEX
  5
11B
  8
1
 10
396.698743
 20
-460.170979
 30
0.0
 70
    32
  0
VERTEX
  5
11C
  8
1
 10
396.748583
 20
-460.114026
 30
0.0
 70
    32
  0
VERTEX
  5
11D
  8
1
 10
396.796303
 20
-460.056071
 30
0.0
 70
    32
  0
VERTEX
  5
11E
  8
1
 10
396.841939
 20
-459.997266
 30
0.0
 70
    32
  0
VERTEX
  5
11F
  8
1
 10
396.88553
 20
-459.937754
 30
0.0
 70
    32
  0
VERTEX
  5
120
  8
1
 10
396.927122
 20
-459.877662
 30
0.0
 70
    32
  0
VERTEX
  5
121
  8
1
 10
396.966766
 20
-459.817108
 30
0.0
 70
    32
  0
VERTEX
  5
122
  8
1
 10
397.004516
 20
-459.7562
 30
0.0
 70
    32
  0
VERTEX
  5
123
  8
1
 10
397.040425
 20
-459.695033
 30
0.0
 70
    32
  0
VERTEX
  5
124
  8
1
 10
397.074553
 20
-459.633693
 30
0.0
 70
    32
  0
VERTEX
  5
125
  8
1
 10
397.106957
 20
-459.572255
 30
0.0
 70
    32
  0
VERTEX
  5
126
  8
1
 10
397.137695
 20
-459.510786
 30
0.0
 70
    32
  0
VERTEX
  5
127
  8
1
 10
397.166825
 20
-459.449345
 30
0.0
 70
    32
  0
VERTEX
  5
128
  8
1
 10
397.194405
 20
-459.387981
 30
0.0
 70
    32
  0
VERTEX
  5
129
  8
1
 10
397.220491
 20
-459.326738
 30
0.0
 70
    32
  0
VERTEX
  5
12A
  8
1
 10
397.245138
 20
-459.265651
 30
0.0
 70
    32
  0
VERTEX
  5
12B
  8
1
 10
397.268398
 20
-459.204751
 30
0.0
 70
    32
  0
VERTEX
  5
12C
  8
1
 10
397.290324
 20
-459.144061
 30
0.0
 70
    32
  0
VERTEX
  5
12D
  8
1
 10
397.310965
 20
-459.083601
 30
0.0
 70
    32
  0
VERTEX
  5
12E
  8
1
 10
397.330368
 20
-459.023386
 30
0.0
 70
    32
  0
VERTEX
  5
12F
  8
1
 10
397.348577
 20
-458.963424
 30
0.0
 70
    32
  0
VERTEX
  5
130
  8
1
 10
397.365637
 20
-458.903724
 30
0.0
 70
    32
  0
VERTEX
  5
131
  8
1
 10
397.381587
 20
-458.844287
 30
0.0
 70
    32
  0
VERTEX
  5
132
  8
1
 10
397.396466
 20
-458.785114
 30
0.0
 70
    32
  0
VERTEX
  5
133
  8
1
 10
397.410309
 20
-458.726202
 30
0.0
 70
    32
  0
VERTEX
  5
134
  8
1
 10
397.42315
 20
-458.667545
 30
0.0
 70
    32
  0
VERTEX
  5
135
  8
1
 10
397.435021
 20
-458.609136
 30
0.0
 70
    32
  0
VERTEX
  5
136
  8
1
 10
397.445951
 20
-458.550965
 30
0.0
 70
    32
  0
VERTEX
  5
137
  8
1
 10
397.455966
 20
-458.493023
 30
0.0
 70
    32
  0
VERTEX
  5
138
  8
1
 10
397.465091
 20
-458.435295
 30
0.0
 70
    32
  0
VERTEX
  5
139
  8
1
 10
397.473349
 20
-458.377768
 30
0.0
 70
    32
  0
VERTEX
  5
13A
  8
1
 10
397.480759
 20
-458.320427
 30
0.0
 70
    32
  0
VERTEX
  5
13B
  8
1
 10
397.487342
 20
-458.263256
 30
0.0
 70
    32
  0
VERTEX
  5
13C
  8
1
 10
397.493112
 20
-458.206238
 30
0.0
 70
    32
  0
VERTEX
  5
13D
  8
1
 10
397.498084
 20
-458.149356
 30
0.0
 70
    32
  0
VERTEX
  5
13E
  8
1
 10
397.50227
 20
-458.092591
 30
0.0
 70
    32
  0
VERTEX
  5
13F
  8
1
 10
397.505681
 20
-458.035924
 30
0.0
 70
    32
  0
VERTEX
  5
140
  8
1
 10
397.508326
 20
-457.979336
 30
0.0
 70
    32
  0
VERTEX
  5
141
  8
1
 10
397.51021
 20
-457.922808
 30
0.0
 70
    32
  0
VERTEX
  5
142
  8
1
 10
397.511338
 20
-457.866319
 30
0.0
 70
    32
  0
VERTEX
  5
143
  8
1
 10
397.511714
 20
-457.809851
 30
0.0
 70
    32
  0
SEQEND
  5
144
  8
DEFPOINTS
  0
POLYLINE
  5
145
  8
1
 66
     1
 10
0.0
 20
0.0
 30
0.0
 70
     8
  0
VERTEX
  5
146
  8
1
 10
394.259739
 20
-460.809191
 30
0.0
 70
    32
  0
VERTEX
  5
147
  8
1
 10
394.339555
 20
-460.807066
 30
0.0
 70
    32
  0
VERTEX
  5
148
  8
1
 10
394.419145
 20
-460.800707
 30
0.0
 70
    32
  0
VERTEX
  5
149
  8
1
 10
394.498287
 20
-460.790158
 30
0.0
 70
    32
  0
VERTEX
  5
14A
  8
1
 10
394.576764
 20
-460.775492
 30
0.0
 70
    32
  0
VERTEX
  5
14B
  8
1
 10
394.654368
 20
-460.756811
 30
0.0
 70
    32
  0
VERTEX
  5
14C
  8
1
 10
394.730902
 20
-460.73424
 30
0.0
 70
    32
  0
VERTEX
  5
14D
  8
1
 10
394.806182
 20
-460.707926
 30
0.0
 70
    32
  0
VERTEX
  5
14E
  8
1
 10
394.880041
 20
-460.678037
 30
0.0
 70
    32
  0
VERTEX
  5
14F
  8
1
 10
394.952325
 20
-460.644756
 30
0.0
 70
    32
  0
VERTEX
  5
150
  8
1
 10
395.022901
 20
-460.60828
 30
0.0
 70
    32
  0
VERTEX
  5
151
  8
1
 10
395.091651
 20
-460.568815
 30
0.0
 70
    32
  0
VERTEX
  5
152
  8
1
 10
395.158477
 20
-460.526573
 30
0.0
 70
    32
  0
VERTEX
  5
153
  8
1
 10
395.223297
 20
-460.48177
 30
0.0
 70
    32
  0
VERTEX
  5
154
  8
1
 10
395.286048
 20
-460.434622
 30
0.0
 70
    32
  0
VERTEX
  5
155
  8
1
 10
395.346682
 20
-460.385341
 30
0.0
 70
    32
  0
VERTEX
  5
156
  8
1
 10
395.405167
 20
-460.334139
 30
0.0
 70
    32
  0
VERTEX
  5
157
  8
1
 10
395.461487
 20
-460.281216
 30
0.0
 70
    32
  0
VERTEX
  5
158
  8
1
 10
395.515636
 20
-460.226768
 30
0.0
 70
    32
  0
VERTEX
  5
159
  8
1
 10
395.567621
 20
-460.170979
 30
0.0
 70
    32
  0
VERTEX
  5
15A
  8
1
 10
395.617461
 20
-460.114026
 30
0.0
 70
    32
  0
VERTEX
  5
15B
  8
1
 10
395.665182
 20
-460.056071
 30
0.0
 70
    32
  0
VERTEX
  5
15C
  8
1
 10
395.710817
 20
-459.997266
 30
0.0
 70
    32
  0
VERTEX
  5
15D
  8
1
 10
395.754408
 20
-459.937754
 30
0.0
 70
    32
  0
VERTEX
  5
15E
  8
1
 10
395.796001
 20
-459.877662
 30
0.0
 70
    32
  0
VERTEX
  5
15F
  8
1
 10
395.835645
 20
-459.817108
 30
0.0
 70
    32
  0
VERTEX
  5
160
  8
1
 10
395.873394
 20
-459.7562
 30
0.0
 70
    32
  0
VERTEX
  5
161
  8
1
 10
395.909304
 20
-459.695033
 30
0.0
 70
    32
  0
VERTEX
  5
162
  8
1
 10
395.943432
 20
-459.633693
 30
0.0
 70
    32
  0
VERTEX
  5
163
  8
1
 10
395.975835
 20
-459.572255
 30
0.0
 70
    32
  0
VERTEX
  5
164
  8
1
 10
396.006573
 20
-459.510786
 30
0.0
 70
    32
  0
VERTEX
  5
165
  8
1
 10
396.035704
 20
-459.449345
 30
0.0
 70
    32
  0
VERTEX
  5
166
  8
1
 10
396.063284
 20
-459.387981
 30
0.0
 70
    32
  0
VERTEX
  5
167
  8
1
 10
396.089369
 20
-459.326738
 30
0.0
 70
    32
  0
VERTEX
  5
168
  8
1
 10
396.114016
 20
-459.265651
 30
0.0
 70
    32
  0
VERTEX
  5
169
  8
1
 10
396.137277
 20
-459.204751
 30
0.0
 70
    32
  0
VERTEX
  5
16A
  8
1
 10
396.159203
 20
-459.144061
 30
0.0
 70
    32
  0
VERTEX
  5
16B
  8
1
 10
396.179843
 20
-459.083601
 30
0.0
 70
    32
  0
VERTEX
  5
16C
  8
1
 10
396.199246
 20
-459.023386
 30
0.0
 70
    32
  0
VERTEX
  5
16D
  8
1
 10
396.217456
 20
-458.963424
 30
0.0
 70
    32
  0
VERTEX
  5
16E
  8
1
 10
396.234515
 20
-458.903724
 30
0.0
 70
    32
  0
VERTEX
  5
16F
  8
1
 10
396.250465
 20
-458.844287
 30
0.0
 70
    32
  0
VERTEX
  5
170
  8
1
 10
396.265344
 20
-458.785114
 30
0.0
 70
    32
  0
VERTEX
  5
171
  8
1
 10
396.279187
 20
-458.726202
 30
0.0
 70
    32
  0
VERTEX
  5
172
  8
1
 10
396.292029
 20
-458.667545
 30
0.0
 70
    32
  0
VERTEX
  5
173
  8
1
 10
396.3039
 20
-458.609136
 30
0.0
 70
    32
  0
VERTEX
  5
174
  8
1
 10
396.314829
 20
-458.550965
 30
0.0
 70
    32
  0
VERTEX
  5
175
  8
1
 10
396.324844
 20
-458.493023
 30
0.0
 70
    32
  0
VERTEX
  5
176
  8
1
 10
396.333969
 20
-458.435295
 30
0.0
 70
    32
  0
VERTEX
  5
177
  8
1
 10
396.342227
 20
-458.377768
 30
0.0
 70
    32
  0
VERTEX
  5
178
  8
1
 10
396.349638
 20
-458.320427
 30
0.0
 70
    32
  0
VERTEX
  5
179
  8
1
 10
396.35622
 20
-458.263256
 30
0.0
 70
    32
  0
VERTEX
  5
17A
  8
1
 10
396.36199
 20
-458.206238
 30
0.0
 70
    32
  0
VERTEX
  5
17B
  8
1
 10
396.366962
 20
-458.149356
 30
0.0
 70
    32
  0
VERTEX
  5
17C
  8
1
 10
396.371148
 20
-458.092591
 30
0.0
 70
    32
  0
VERTEX
  5
17D
  8
1
 10
396.37456
 20
-458.035924
 30
0.0
 70
    32
  0
VERTEX
  5
17E
  8
1
 10
396.377204
 20
-457.979336
 30
0.0
 70
    32
  0
VERTEX
  5
17F
  8
1
 10
396.379088
 20
-457.922808
 30
0.0
 70
    32
  0
VERTEX
  5
180
  8
1
 10
396.380217
 20
-457.866319
 30
0.0
 70
    32
  0
VERTEX
  5
181
  8
1
 10
396.380593
 20
-457.809851
 30
0.0
 70
    32
  0
SEQEND
  5
182
  8
DEFPOINTS
  0
ENDBLK
  5
183
  8
0
  0
BLOCK
  5
185
  8
1
  2
*U7
 70
    65
 10
0.0
 20
0.0
 30
0.0
  3
*U7
  1

  0
LINE
  5
186
  8
1
 10
391.851323
 20
-457.809888
 30
0.0
 11
391.851323
 21
-444.007672
 31
0.0
  0
POLYLINE
  5
187
  8
1
 66
     1
 10
0.0
 20
0.0
 30
0.0
 70
     8
  0
VERTEX
  5
188
  8
1
 10
391.851323
 20
-457.809851
 30
0.0
 70
    32
  0
VERTEX
  5
189
  8
1
 10
391.851698
 20
-457.866319
 30
0.0
 70
    32
  0
VERTEX
  5
18A
  8
1
 10
391.852827
 20
-457.922808
 30
0.0
 70
    32
  0
VERTEX
  5
18B
  8
1
 10
391.854711
 20
-457.979336
 30
0.0
 70
    32
  0
VERTEX
  5
18C
  8
1
 10
391.857356
 20
-458.035924
 30
0.0
 70
    32
  0
VERTEX
  5
18D
  8
1
 10
391.860767
 20
-458.092591
 30
0.0
 70
    32
  0
VERTEX
  5
18E
  8
1
 10
391.864953
 20
-458.149356
 30
0.0
 70
    32
  0
VERTEX
  5
18F
  8
1
 10
391.869925
 20
-458.206238
 30
0.0
 70
    32
  0
VERTEX
  5
190
  8
1
 10
391.875695
 20
-458.263256
 30
0.0
 70
    32
  0
VERTEX
  5
191
  8
1
 10
391.882278
 20
-458.320427
 30
0.0
 70
    32
  0
VERTEX
  5
192
  8
1
 10
391.889688
 20
-458.377768
 30
0.0
 70
    32
  0
VERTEX
  5
193
  8
1
 10
391.897946
 20
-458.435295
 30
0.0
 70
    32
  0
VERTEX
  5
194
  8
1
 10
391.907071
 20
-458.493023
 30
0.0
 70
    32
  0
VERTEX
  5
195
  8
1
 10
391.917086
 20
-458.550965
 30
0.0
 70
    32
  0
VERTEX
  5
196
  8
1
 10
391.928016
 20
-458.609136
 30
0.0
 70
    32
  0
VERTEX
  5
197
  8
1
 10
391.939887
 20
-458.667545
 30
0.0
 70
    32
  0
VERTEX
  5
198
  8
1
 10
391.952728
 20
-458.726202
 30
0.0
 70
    32
  0
VERTEX
  5
199
  8
1
 10
391.966571
 20
-458.785114
 30
0.0
 70
    32
  0
VERTEX
  5
19A
  8
1
 10
391.98145
 20
-458.844287
 30
0.0
 70
    32
  0
VERTEX
  5
19B
  8
1
 10
391.9974
 20
-458.903724
 30
0.0
 70
    32
  0
VERTEX
  5
19C
  8
1
 10
392.01446
 20
-458.963424
 30
0.0
 70
    32
  0
VERTEX
  5
19D
  8
1
 10
392.032669
 20
-459.023386
 30
0.0
 70
    32
  0
VERTEX
  5
19E
  8
1
 10
392.052072
 20
-459.083601
 30
0.0
 70
    32
  0
VERTEX
  5
19F
  8
1
 10
392.072713
 20
-459.144061
 30
0.0
 70
    32
  0
VERTEX
  5
1A0
  8
1
 10
392.094638
 20
-459.204751
 30
0.0
 70
    32
  0
VERTEX
  5
1A1
  8
1
 10
392.117899
 20
-459.265651
 30
0.0
 70
    32
  0
VERTEX
  5
1A2
  8
1
 10
392.142546
 20
-459.326738
 30
0.0
 70
    32
  0
VERTEX
  5
1A3
  8
1
 10
392.168632
 20
-459.387981
 30
0.0
 70
    32
  0
VERTEX
  5
1A4
  8
1
 10
392.196212
 20
-459.449345
 30
0.0
 70
    32
  0
VERTEX
  5
1A5
  8
1
 10
392.225342
 20
-459.510786
 30
0.0
 70
    32
  0
VERTEX
  5
1A6
  8
1
 10
392.25608
 20
-459.572255
 30
0.0
 70
    32
  0
VERTEX
  5
1A7
  8
1
 10
392.288484
 20
-459.633693
 30
0.0
 70
    32
  0
VERTEX
  5
1A8
  8
1
 10
392.322611
 20
-459.695033
 30
0.0
 70
    32
  0
VERTEX
  5
1A9
  8
1
 10
392.358521
 20
-459.7562
 30
0.0
 70
    32
  0
VERTEX
  5
1AA
  8
1
 10
392.39627
 20
-459.817108
 30
0.0
 70
    32
  0
VERTEX
  5
1AB
  8
1
 10
392.435915
 20
-459.877662
 30
0.0
 70
    32
  0
VERTEX
  5
1AC
  8
1
 10
392.477507
 20
-459.937754
 30
0.0
 70
    32
  0
VERTEX
  5
1AD
  8
1
 10
392.521098
 20
-459.997266
 30
0.0
 70
    32
  0
VERTEX
  5
1AE
  8
1
 10
392.566734
 20
-460.056071
 30
0.0
 70
    32
  0
VERTEX
  5
1AF
  8
1
 10
392.614454
 20
-460.114026
 30
0.0
 70
    32
  0
VERTEX
  5
1B0
  8
1
 10
392.664294
 20
-460.170979
 30
0.0
 70
    32
  0
VERTEX
  5
1B1
  8
1
 10
392.71628
 20
-460.226768
 30
0.0
 70
    32
  0
VERTEX
  5
1B2
  8
1
 10
392.770428
 20
-460.281216
 30
0.0
 70
    32
  0
VERTEX
  5
1B3
  8
1
 10
392.826748
 20
-460.334139
 30
0.0
 70
    32
  0
VERTEX
  5
1B4
  8
1
 10
392.885234
 20
-460.385341
 30
0.0
 70
    32
  0
VERTEX
  5
1B5
  8
1
 10
392.945868
 20
-460.434622
 30
0.0
 70
    32
  0
VERTEX
  5
1B6
  8
1
 10
393.008618
 20
-460.48177
 30
0.0
 70
    32
  0
VERTEX
  5
1B7
  8
1
 10
393.073438
 20
-460.526573
 30
0.0
 70
    32
  0
VERTEX
  5
1B8
  8
1
 10
393.140264
 20
-460.568815
 30
0.0
 70
    32
  0
VERTEX
  5
1B9
  8
1
 10
393.209014
 20
-460.60828
 30
0.0
 70
    32
  0
VERTEX
  5
1BA
  8
1
 10
393.27959
 20
-460.644756
 30
0.0
 70
    32
  0
VERTEX
  5
1BB
  8
1
 10
393.351874
 20
-460.678037
 30
0.0
 70
    32
  0
VERTEX
  5
1BC
  8
1
 10
393.425733
 20
-460.707926
 30
0.0
 70
    32
  0
VERTEX
  5
1BD
  8
1
 10
393.501014
 20
-460.73424
 30
0.0
 70
    32
  0
VERTEX
  5
1BE
  8
1
 10
393.577548
 20
-460.756811
 30
0.0
 70
    32
  0
VERTEX
  5
1BF
  8
1
 10
393.655151
 20
-460.775492
 30
0.0
 70
    32
  0
VERTEX
  5
1C0
  8
1
 10
393.733628
 20
-460.790158
 30
0.0
 70
    32
  0
VERTEX
  5
1C1
  8
1
 10
393.81277
 20
-460.800707
 30
0.0
 70
    32
  0
VERTEX
  5
1C2
  8
1
 10
393.89236
 20
-460.807066
 30
0.0
 70
    32
  0
VERTEX
  5
1C3
  8
1
 10
393.972176
 20
-460.809191
 30
0.0
 70
    32
  0
SEQEND
  5
1C4
  8
DEFPOINTS
  0
LINE
  5
1C5
  8
1
 10
394.259767
 20
-460.809191
 30
0.0
 11
393.972148
 21
-460.809191
 31
0.0
  0
ENDBLK
  5
1C6
  8
0
  0
BLOCK
  5
1C8
  8
2
  2
*D8
 70
    65
 10
0.0
 20
0.0
 30
0.0
  3
*D8
  1

  0
POINT
  5
1C9
  8
DEFPOINTS
 10
335.625884
 20
325.864002
 30
0.0
  0
POINT
  5
1CA
  8
DEFPOINTS
 10
950.490451
 20
143.055073
 30
0.0
  0
POINT
  5
1CB
  8
DEFPOINTS
 10
566.283955
 20
58.209985
 30
0.0
  0
LINE
  5
1CC
  8
2
  6
CONTINUOUS
 10
335.625884
 20
314.514002
 30
0.0
 11
335.625884
 21
46.859984
 31
0.0
  0
LINE
  5
1CD
  8
2
  6
CONTINUOUS
 10
950.490451
 20
131.705072
 30
0.0
 11
950.490451
 21
46.859984
 31
0.0
  0
LINE
  5
1CE
  8
2
  6
CONTINUOUS
 10
335.625884
 20
58.209985
 30
0.0
 11
950.490451
 21
58.209985
 31
0.0
  0
LINE
  5
1CF
  8
2
  6
CONTINUOUS
 10
373.629619
 20
64.911069
 30
0.0
 11
335.625884
 21
58.209985
 31
0.0
  0
LINE
  5
1D0
  8
2
  6
CONTINUOUS
 10
373.629619
 20
51.508901
 30
0.0
 11
335.625884
 21
58.209985
 31
0.0
  0
LINE
  5
1D1
  8
2
  6
CONTINUOUS
 10
912.486716
 20
51.508901
 30
0.0
 11
950.490451
 21
58.209985
 31
0.0
  0
LINE
  5
1D2
  8
2
  6
CONTINUOUS
 10
912.486716
 20
64.911069
 30
0.0
 11
950.490451
 21
58.209985
 31
0.0
  0
TEXT
  5
1D3
  8
2
  6
CONTINUOUS
 10
566.786194
 20
62.749985
 30
0.0
 40
63.560001
  1
６１５
 41
0.9
  7
MONOTXT
  0
ENDBLK
  5
1D4
  8
0
  0
BLOCK
  5
1D6
  8
2
  2
*D9
 70
    65
 10
0.0
 20
0.0
 30
0.0
  3
*D9
  1

  0
POINT
  5
1D7
  8
DEFPOINTS
 10
334.812141
 20
965.324874
 30
0.0
  0
POINT
  5
1D8
  8
DEFPOINTS
 10
950.490451
 20
1155.674387
 30
0.0
  0
POINT
  5
1D9
  8
DEFPOINTS
 10
677.647236
 20
1174.241454
 30
0.0
  0
LINE
  5
1DA
  8
2
  6
CONTINUOUS
 10
334.812141
 20
976.674875
 30
0.0
 11
334.812141
 21
1185.591455
 31
0.0
  0
LINE
  5
1DB
  8
2
  6
CONTINUOUS
 10
950.490451
 20
1167.024388
 30
0.0
 11
950.490451
 21
1185.591455
 31
0.0
  0
LINE
  5
1DC
  8
2
  6
CONTINUOUS
 10
334.812141
 20
1174.241454
 30
0.0
 11
950.490451
 21
1174.241454
 31
0.0
  0
LINE
  5
1DD
  8
2
  6
CONTINUOUS
 10
372.815876
 20
1180.942538
 30
0.0
 11
334.812141
 21
1174.241454
 31
0.0
  0
LINE
  5
1DE
  8
2
  6
CONTINUOUS
 10
372.815876
 20
1167.540371
 30
0.0
 11
334.812141
 21
1174.241454
 31
0.0
  0
LINE
  5
1DF
  8
2
  6
CONTINUOUS
 10
912.486716
 20
1167.540371
 30
0.0
 11
950.490451
 21
1174.241454
 31
0.0
  0
LINE
  5
1E0
  8
2
  6
CONTINUOUS
 10
912.486716
 20
1180.942538
 30
0.0
 11
950.490451
 21
1174.241454
 31
0.0
  0
TEXT
  5
1E1
  8
2
  6
CONTINUOUS
 10
566.379272
 20
1178.781494
 30
0.0
 40
63.560001
  1
６１５
 41
0.9
  7
MONOTXT
  0
ENDBLK
  5
1E2
  8
0
  0
BLOCK
  5
1E4
  8
2
  2
*D10
 70
    65
 10
0.0
 20
0.0
 30
0.0
  3
*D10
  1

  0
POINT
  5
1E5
  8
DEFPOINTS
 10
1582.851165
 20
212.888891
 30
0.0
  0
POINT
  5
1E6
  8
DEFPOINTS
 10
1582.851165
 20
1087.696202
 30
0.0
  0
POINT
  5
1E7
  8
DEFPOINTS
 10
1853.351455
 20
536.952992
 30
0.0
  0
LINE
  5
1E8
  8
2
  6
CONTINUOUS
 10
1594.201165
 20
212.888891
 30
0.0
 11
1864.701455
 21
212.888891
 31
0.0
  0
LINE
  5
1E9
  8
2
  6
CONTINUOUS
 10
1594.201165
 20
1087.696202
 30
0.0
 11
1864.701455
 21
1087.696202
 31
0.0
  0
LINE
  5
1EA
  8
2
  6
CONTINUOUS
 10
1853.351455
 20
212.888891
 30
0.0
 11
1853.351455
 21
1087.696202
 31
0.0
  0
LINE
  5
1EB
  8
2
  6
CONTINUOUS
 10
1846.650369
 20
250.892626
 30
0.0
 11
1853.351455
 21
212.888891
 31
0.0
  0
LINE
  5
1EC
  8
2
  6
CONTINUOUS
 10
1860.052537
 20
250.892626
 30
0.0
 11
1853.351455
 21
212.888891
 31
0.0
  0
LINE
  5
1ED
  8
2
  6
CONTINUOUS
 10
1860.05254
 20
1049.692467
 30
0.0
 11
1853.351455
 21
1087.696202
 31
0.0
  0
LINE
  5
1EE
  8
2
  6
CONTINUOUS
 10
1846.650372
 20
1049.692467
 30
0.0
 11
1853.351455
 21
1087.696202
 31
0.0
  0
TEXT
  5
1EF
  8
2
  6
CONTINUOUS
 10
1848.811523
 20
294.356537
 30
0.0
 40
63.560001
  1
８６０～８９０（天井開口部）
 50
90.000003
 41
0.9
  7
MONOTXT
  0
ENDBLK
  5
1F0
  8
0
  0
BLOCK
  5
1F2
  8
2
  2
*D11
 70
    65
 10
0.0
 20
0.0
 30
0.0
  3
*D11
  1

  0
POINT
  5
1F3
  8
DEFPOINTS
 10
1524.133355
 20
262.389467
 30
0.0
  0
POINT
  5
1F4
  8
DEFPOINTS
 10
1524.254072
 20
1038.077131
 30
0.0
  0
POINT
  5
1F5
  8
DEFPOINTS
 10
1753.582712
 20
536.952992
 30
0.0
  0
LINE
  5
1F6
  8
2
  6
CONTINUOUS
 10
1535.483355
 20
262.389467
 30
0.0
 11
1764.932712
 21
262.389467
 31
0.0
  0
LINE
  5
1F7
  8
2
  6
CONTINUOUS
 10
1535.604072
 20
1038.077131
 30
0.0
 11
1764.932712
 21
1038.077131
 31
0.0
  0
LINE
  5
1F8
  8
2
  6
CONTINUOUS
 10
1753.582712
 20
262.389467
 30
0.0
 11
1753.582712
 21
1038.077131
 31
0.0
  0
LINE
  5
1F9
  8
2
  6
CONTINUOUS
 10
1746.881627
 20
300.393201
 30
0.0
 11
1753.582712
 21
262.389467
 31
0.0
  0
LINE
  5
1FA
  8
2
  6
CONTINUOUS
 10
1760.283794
 20
300.393202
 30
0.0
 11
1753.582712
 21
262.389467
 31
0.0
  0
LINE
  5
1FB
  8
2
  6
CONTINUOUS
 10
1760.283798
 20
1000.073396
 30
0.0
 11
1753.582712
 21
1038.077131
 31
0.0
  0
LINE
  5
1FC
  8
2
  6
CONTINUOUS
 10
1746.88163
 20
1000.073396
 30
0.0
 11
1753.582712
 21
1038.077131
 31
0.0
  0
TEXT
  5
1FD
  8
2
  6
CONTINUOUS
 10
1749.042725
 20
421.417297
 30
0.0
 40
63.560001
  1
７８０（吊り位置）
 50
90.000003
 41
0.9
  7
MONOTXT
  0
ENDBLK
  5
1FE
  8
0
  0
BLOCK
  5
200
  8
2
  2
*D12
 70
    65
 10
0.0
 20
0.0
 30
0.0
  3
*D12
  1

  0
POINT
  5
201
  8
DEFPOINTS
 10
318.129738
 20
1087.696202
 30
0.0
  0
POINT
  5
202
  8
DEFPOINTS
 10
1582.851165
 20
1087.696202
 30
0.0
  0
POINT
  5
203
  8
DEFPOINTS
 10
911.783946
 20
1366.280665
 30
0.0
  0
LINE
  5
204
  8
2
  6
CONTINUOUS
 10
318.129738
 20
1099.046202
 30
0.0
 11
318.129738
 21
1377.630665
 31
0.0
  0
LINE
  5
205
  8
2
  6
CONTINUOUS
 10
1582.851165
 20
1099.046202
 30
0.0
 11
1582.851165
 21
1377.630665
 31
0.0
  0
LINE
  5
206
  8
2
  6
CONTINUOUS
 10
318.129738
 20
1366.280665
 30
0.0
 11
1582.851165
 21
1366.280665
 31
0.0
  0
LINE
  5
207
  8
2
  6
CONTINUOUS
 10
356.133473
 20
1372.981749
 30
0.0
 11
318.129738
 21
1366.280665
 31
0.0
  0
LINE
  5
208
  8
2
  6
CONTINUOUS
 10
356.133473
 20
1359.579581
 30
0.0
 11
318.129738
 21
1366.280665
 31
0.0
  0
LINE
  5
209
  8
2
  6
CONTINUOUS
 10
1544.84743
 20
1359.579581
 30
0.0
 11
1582.851165
 21
1366.280665
 31
0.0
  0
LINE
  5
20A
  8
2
  6
CONTINUOUS
 10
1544.84743
 20
1372.981749
 30
0.0
 11
1582.851165
 21
1366.280665
 31
0.0
  0
TEXT
  5
20B
  8
2
  6
CONTINUOUS
 10
543.706482
 20
1370.820679
 30
0.0
 40
63.560001
  1
１２５０～１２８０（天井開口部）
 41
0.9
  7
MONOTXT
  0
ENDBLK
  5
20C
  8
0
  0
BLOCK
  5
20E
  8
2
  2
*D13
 70
    65
 10
0.0
 20
0.0
 30
0.0
  3
*D13
  1

  0
POINT
  5
20F
  8
DEFPOINTS
 10
416.718022
 20
1078.068323
 30
0.0
  0
POINT
  5
210
  8
DEFPOINTS
 10
1484.26288
 20
1078.068323
 30
0.0
  0
POINT
  5
211
  8
DEFPOINTS
 10
961.668318
 20
1260.276376
 30
0.0
  0
LINE
  5
212
  8
2
  6
CONTINUOUS
 10
416.718022
 20
1089.418323
 30
0.0
 11
416.718022
 21
1271.626376
 31
0.0
  0
LINE
  5
213
  8
2
  6
CONTINUOUS
 10
1484.26288
 20
1089.418323
 30
0.0
 11
1484.26288
 21
1271.626376
 31
0.0
  0
LINE
  5
214
  8
2
  6
CONTINUOUS
 10
416.718022
 20
1260.276376
 30
0.0
 11
1484.26288
 21
1260.276376
 31
0.0
  0
LINE
  5
215
  8
2
  6
CONTINUOUS
 10
454.721757
 20
1266.97746
 30
0.0
 11
416.718022
 21
1260.276376
 31
0.0
  0
LINE
  5
216
  8
2
  6
CONTINUOUS
 10
454.721757
 20
1253.575292
 30
0.0
 11
416.718022
 21
1260.276376
 31
0.0
  0
LINE
  5
217
  8
2
  6
CONTINUOUS
 10
1446.259145
 20
1253.575292
 30
0.0
 11
1484.26288
 21
1260.276376
 31
0.0
  0
LINE
  5
218
  8
2
  6
CONTINUOUS
 10
1446.259145
 20
1266.97746
 30
0.0
 11
1484.26288
 21
1260.276376
 31
0.0
  0
TEXT
  5
219
  8
2
  6
CONTINUOUS
 10
696.250427
 20
1264.816406
 30
0.0
 40
63.560001
  1
１０７０（吊り位置）
 41
0.9
  7
MONOTXT
  0
ENDBLK
  5
21A
  8
0
  0
BLOCK
  5
21C
  8
2
  2
*D14
 70
    65
 10
0.0
 20
0.0
 30
0.0
  3
*D14
  1

  0
POINT
  5
21D
  8
DEFPOINTS
 10
950.86632
 20
-680.640396
 30
0.0
  0
POINT
  5
21E
  8
DEFPOINTS
 10
989.857732
 20
-479.619879
 30
0.0
  0
POINT
  5
21F
  8
DEFPOINTS
 10
881.644202
 20
-725.97513
 30
0.0
  0
LINE
  5
220
  8
2
  6
CONTINUOUS
 10
950.86632
 20
-691.990397
 30
0.0
 11
950.86632
 21
-737.32513
 31
0.0
  0
LINE
  5
221
  8
2
  6
CONTINUOUS
 10
989.857732
 20
-490.969879
 30
0.0
 11
989.857732
 21
-737.32513
 31
0.0
  0
LINE
  5
222
  8
2
  6
CONTINUOUS
 10
893.860717
 20
-725.97513
 30
0.0
 11
1142.401738
 21
-725.97513
 31
0.0
  0
LINE
  5
223
  8
2
  6
CONTINUOUS
 10
912.862585
 20
-732.676213
 30
0.0
 11
950.86632
 21
-725.97513
 31
0.0
  0
LINE
  5
224
  8
2
  6
CONTINUOUS
 10
912.862585
 20
-719.274046
 30
0.0
 11
950.86632
 21
-725.97513
 31
0.0
  0
LINE
  5
225
  8
2
  6
CONTINUOUS
 10
1027.861467
 20
-719.274046
 30
0.0
 11
989.857732
 21
-725.97513
 31
0.0
  0
LINE
  5
226
  8
2
  6
CONTINUOUS
 10
1027.861467
 20
-732.676213
 30
0.0
 11
989.857732
 21
-725.97513
 31
0.0
  0
TEXT
  5
227
  8
2
  6
CONTINUOUS
 10
1015.281738
 20
-721.43512
 30
0.0
 40
63.560001
  1
４０
 41
0.9
  7
MONOTXT
  0
ENDBLK
  5
228
  8
0
  0
BLOCK
  5
22A
  8
2
  2
*D15
 70
    65
 10
0.0
 20
0.0
 30
0.0
  3
*D15
  1

  0
POINT
  5
22B
  8
DEFPOINTS
 10
974.861035
 20
-339.630662
 30
0.0
  0
POINT
  5
22C
  8
DEFPOINTS
 10
1004.854429
 20
-339.630662
 30
0.0
  0
POINT
  5
22D
  8
DEFPOINTS
 10
1081.059748
 20
-234.948832
 30
0.0
  0
LINE
  5
22E
  8
2
  6
CONTINUOUS
 10
974.861035
 20
-328.280661
 30
0.0
 11
974.861035
 21
-223.598831
 31
0.0
  0
LINE
  5
22F
  8
2
  6
CONTINUOUS
 10
1004.854429
 20
-328.280661
 30
0.0
 11
1004.854429
 21
-223.598831
 31
0.0
  0
LINE
  5
230
  8
2
  6
CONTINUOUS
 10
917.855431
 20
-234.948832
 30
0.0
 11
1157.398435
 21
-234.948832
 31
0.0
  0
LINE
  5
231
  8
2
  6
CONTINUOUS
 10
936.8573
 20
-241.649916
 30
0.0
 11
974.861035
 21
-234.948832
 31
0.0
  0
LINE
  5
232
  8
2
  6
CONTINUOUS
 10
936.8573
 20
-228.247748
 30
0.0
 11
974.861035
 21
-234.948832
 31
0.0
  0
LINE
  5
233
  8
2
  6
CONTINUOUS
 10
1042.858164
 20
-228.247748
 30
0.0
 11
1004.854429
 21
-234.948832
 31
0.0
  0
LINE
  5
234
  8
2
  6
CONTINUOUS
 10
1042.858164
 20
-241.649916
 30
0.0
 11
1004.854429
 21
-234.948832
 31
0.0
  0
TEXT
  5
235
  8
2
  6
CONTINUOUS
 10
1030.278442
 20
-230.408829
 30
0.0
 40
63.560001
  1
３０
 41
0.9
  7
MONOTXT
  0
ENDBLK
  5
236
  8
0
  0
BLOCK
  5
238
  8
2
  2
*D16
 70
    65
 10
0.0
 20
0.0
 30
0.0
  3
*D16
  1

  0
POINT
  5
239
  8
DEFPOINTS
 10
336.001753
 20
-303.438634
 30
0.0
  0
POINT
  5
23A
  8
DEFPOINTS
 10
1565.730888
 20
-303.438634
 30
0.0
  0
POINT
  5
23B
  8
DEFPOINTS
 10
1014.587899
 20
-54.525242
 30
0.0
  0
LINE
  5
23C
  8
2
  6
CONTINUOUS
 10
336.001753
 20
-292.088633
 30
0.0
 11
336.001753
 21
-43.175242
 31
0.0
  0
LINE
  5
23D
  8
2
  6
CONTINUOUS
 10
1565.730888
 20
-292.088633
 30
0.0
 11
1565.730888
 21
-43.175242
 31
0.0
  0
LINE
  5
23E
  8
2
  6
CONTINUOUS
 10
336.001753
 20
-54.525242
 30
0.0
 11
1565.730888
 21
-54.525242
 31
0.0
  0
LINE
  5
23F
  8
2
  6
CONTINUOUS
 10
374.005488
 20
-47.824158
 30
0.0
 11
336.001753
 21
-54.525242
 31
0.0
  0
LINE
  5
240
  8
2
  6
CONTINUOUS
 10
374.005488
 20
-61.226326
 30
0.0
 11
336.001753
 21
-54.525242
 31
0.0
  0
LINE
  5
241
  8
2
  6
CONTINUOUS
 10
1527.727153
 20
-61.226326
 30
0.0
 11
1565.730888
 21
-54.525242
 31
0.0
  0
LINE
  5
242
  8
2
  6
CONTINUOUS
 10
1527.727153
 20
-47.824158
 30
0.0
 11
1565.730888
 21
-54.525242
 31
0.0
  0
TEXT
  5
243
  8
2
  6
CONTINUOUS
 10
849.170349
 20
-49.985241
 30
0.0
 40
63.560001
  1
１２３０
 41
0.9
  7
MONOTXT
  0
ENDBLK
  5
244
  8
0
  0
BLOCK
  5
246
  8
2
  2
*D17
 70
    65
 10
0.0
 20
0.0
 30
0.0
  3
*D17
  1

  0
POINT
  5
247
  8
DEFPOINTS
 10
281.013865
 20
-595.574287
 30
0.0
  0
POINT
  5
248
  8
DEFPOINTS
 10
336.001753
 20
-303.438634
 30
0.0
  0
POINT
  5
249
  8
DEFPOINTS
 10
336.001753
 20
-54.525242
 30
0.0
  0
LINE
  5
24A
  8
2
  6
CONTINUOUS
 10
281.013865
 20
-584.224286
 30
0.0
 11
281.013865
 21
-43.175242
 31
0.0
  0
LINE
  5
24B
  8
2
  6
CONTINUOUS
 10
336.001753
 20
-292.088633
 30
0.0
 11
336.001753
 21
-43.175242
 31
0.0
  0
LINE
  5
24C
  8
2
  6
CONTINUOUS
 10
128.469859
 20
-54.525242
 30
0.0
 11
393.007357
 21
-54.525242
 31
0.0
  0
LINE
  5
24D
  8
2
  6
CONTINUOUS
 10
243.01013
 20
-61.226326
 30
0.0
 11
281.013865
 21
-54.525242
 31
0.0
  0
LINE
  5
24E
  8
2
  6
CONTINUOUS
 10
243.01013
 20
-47.824158
 30
0.0
 11
281.013865
 21
-54.525242
 31
0.0
  0
LINE
  5
24F
  8
2
  6
CONTINUOUS
 10
374.005488
 20
-47.824158
 30
0.0
 11
336.001753
 21
-54.525242
 31
0.0
  0
LINE
  5
250
  8
2
  6
CONTINUOUS
 10
374.005488
 20
-61.226326
 30
0.0
 11
336.001753
 21
-54.525242
 31
0.0
  0
TEXT
  5
251
  8
2
  6
CONTINUOUS
 10
153.89386
 20
-49.985241
 30
0.0
 40
63.560001
  1
５５
 41
0.9
  7
MONOTXT
  0
ENDBLK
  5
252
  8
0
  0
BLOCK
  5
254
  8
2
  2
*D18
 70
    65
 10
0.0
 20
0.0
 30
0.0
  3
*D18
  1

  0
POINT
  5
255
  8
DEFPOINTS
 10
1565.730888
 20
-303.438634
 30
0.0
  0
POINT
  5
256
  8
DEFPOINTS
 10
1620.718776
 20
-595.574287
 30
0.0
  0
POINT
  5
257
  8
DEFPOINTS
 10
1565.730888
 20
-54.525242
 30
0.0
  0
LINE
  5
258
  8
2
  6
CONTINUOUS
 10
1565.730888
 20
-292.088633
 30
0.0
 11
1565.730888
 21
-43.175242
 31
0.0
  0
LINE
  5
259
  8
2
  6
CONTINUOUS
 10
1620.718776
 20
-584.224286
 30
0.0
 11
1620.718776
 21
-43.175242
 31
0.0
  0
LINE
  5
25A
  8
2
  6
CONTINUOUS
 10
1508.725284
 20
-54.525242
 30
0.0
 11
1773.262782
 21
-54.525242
 31
0.0
  0
LINE
  5
25B
  8
2
  6
CONTINUOUS
 10
1527.727153
 20
-61.226326
 30
0.0
 11
1565.730888
 21
-54.525242
 31
0.0
  0
LINE
  5
25C
  8
2
  6
CONTINUOUS
 10
1527.727153
 20
-47.824158
 30
0.0
 11
1565.730888
 21
-54.525242
 31
0.0
  0
LINE
  5
25D
  8
2
  6
CONTINUOUS
 10
1658.722511
 20
-47.824158
 30
0.0
 11
1620.718776
 21
-54.525242
 31
0.0
  0
LINE
  5
25E
  8
2
  6
CONTINUOUS
 10
1658.722511
 20
-61.226326
 30
0.0
 11
1620.718776
 21
-54.525242
 31
0.0
  0
TEXT
  5
25F
  8
2
  6
CONTINUOUS
 10
1646.142822
 20
-49.985241
 30
0.0
 40
63.560001
  1
５５
 41
0.9
  7
MONOTXT
  0
ENDBLK
  5
260
  8
0
  0
BLOCK
  5
262
  8
2
  2
*D19
 70
    65
 10
0.0
 20
0.0
 30
0.0
  3
*D19
  1

  0
POINT
  5
263
  8
DEFPOINTS
 10
621.938771
 20
-463.603355
 30
0.0
  0
POINT
  5
264
  8
DEFPOINTS
 10
1357.776693
 20
-463.603355
 30
0.0
  0
POINT
  5
265
  8
DEFPOINTS
 10
1047.748459
 20
-822.285278
 30
0.0
  0
LINE
  5
266
  8
2
  6
CONTINUOUS
 10
621.938771
 20
-474.953355
 30
0.0
 11
621.938771
 21
-833.635279
 31
0.0
  0
LINE
  5
267
  8
2
  6
CONTINUOUS
 10
1357.776693
 20
-474.953355
 30
0.0
 11
1357.776693
 21
-833.635279
 31
0.0
  0
LINE
  5
268
  8
2
  6
CONTINUOUS
 10
621.938771
 20
-822.285278
 30
0.0
 11
1357.776693
 21
-822.285278
 31
0.0
  0
LINE
  5
269
  8
2
  6
CONTINUOUS
 10
659.942507
 20
-815.584194
 30
0.0
 11
621.938771
 21
-822.285278
 31
0.0
  0
LINE
  5
26A
  8
2
  6
CONTINUOUS
 10
659.942507
 20
-828.986362
 30
0.0
 11
621.938771
 21
-822.285278
 31
0.0
  0
LINE
  5
26B
  8
2
  6
CONTINUOUS
 10
1319.772957
 20
-828.986362
 30
0.0
 11
1357.776693
 21
-822.285278
 31
0.0
  0
LINE
  5
26C
  8
2
  6
CONTINUOUS
 10
1319.772957
 20
-815.584194
 30
0.0
 11
1357.776693
 21
-822.285278
 31
0.0
  0
TEXT
  5
26D
  8
2
  6
CONTINUOUS
 10
913.585754
 20
-817.7453
 30
0.0
 40
63.560001
  1
７３５
 41
0.9
  7
MONOTXT
  0
ENDBLK
  5
26E
  8
0
  0
BLOCK
  5
270
  8
2
  2
*D20
 70
    65
 10
0.0
 20
0.0
 30
0.0
  3
*D20
  1

  0
POINT
  5
271
  8
DEFPOINTS
 10
1355.777133
 20
-465.602915
 30
0.0
  0
POINT
  5
272
  8
DEFPOINTS
 10
1355.777133
 20
-330.632644
 30
0.0
  0
POINT
  5
273
  8
DEFPOINTS
 10
1753.582712
 20
262.389467
 30
0.0
  0
LINE
  5
274
  8
2
  6
CONTINUOUS
 10
1367.127133
 20
-465.602915
 30
0.0
 11
1764.932712
 21
-465.602915
 31
0.0
  0
LINE
  5
275
  8
2
  6
CONTINUOUS
 10
1367.127133
 20
-330.632644
 30
0.0
 11
1764.932712
 21
-330.632644
 31
0.0
  0
LINE
  5
276
  8
2
  6
CONTINUOUS
 10
1753.582712
 20
-522.608518
 30
0.0
 11
1753.582712
 21
-127.240646
 31
0.0
  0
LINE
  5
277
  8
2
  6
CONTINUOUS
 10
1760.283798
 20
-503.606649
 30
0.0
 11
1753.582712
 21
-465.602915
 31
0.0
  0
LINE
  5
278
  8
2
  6
CONTINUOUS
 10
1746.88163
 20
-503.60665
 30
0.0
 11
1753.582712
 21
-465.602915
 31
0.0
  0
LINE
  5
279
  8
2
  6
CONTINUOUS
 10
1746.881627
 20
-292.628909
 30
0.0
 11
1753.582712
 21
-330.632644
 31
0.0
  0
LINE
  5
27A
  8
2
  6
CONTINUOUS
 10
1760.283794
 20
-292.628908
 30
0.0
 11
1753.582712
 21
-330.632644
 31
0.0
  0
TEXT
  5
27B
  8
2
  6
CONTINUOUS
 10
1749.042725
 20
-305.208649
 30
0.0
 40
63.560001
  1
１３５
 50
90.000003
 41
0.9
  7
MONOTXT
  0
ENDBLK
  5
27C
  8
0
  0
BLOCK
  5
27E
  8
2
  2
*D21
 70
    65
 10
0.0
 20
0.0
 30
0.0
  3
*D21
  1

  0
POINT
  5
27F
  8
DEFPOINTS
 10
-1303.567766
 20
-572.779308
 30
0.0
  0
POINT
  5
280
  8
DEFPOINTS
 10
-1297.269153
 20
-295.640351
 30
0.0
  0
POINT
  5
281
  8
DEFPOINTS
 10
-1688.015674
 20
-367.365986
 30
0.0
  0
LINE
  5
282
  8
2
  6
CONTINUOUS
 10
-1314.917766
 20
-572.779308
 30
0.0
 11
-1699.365674
 21
-572.779308
 31
0.0
  0
LINE
  5
283
  8
2
  6
CONTINUOUS
 10
-1308.619153
 20
-295.640351
 30
0.0
 11
-1699.365674
 21
-295.640351
 31
0.0
  0
LINE
  5
284
  8
2
  6
CONTINUOUS
 10
-1688.015674
 20
-572.779308
 30
0.0
 11
-1688.015674
 21
-295.640351
 31
0.0
  0
LINE
  5
285
  8
2
  6
CONTINUOUS
 10
-1694.716759
 20
-534.775573
 30
0.0
 11
-1688.015674
 21
-572.779308
 31
0.0
  0
LINE
  5
286
  8
2
  6
CONTINUOUS
 10
-1681.314592
 20
-534.775572
 30
0.0
 11
-1688.015674
 21
-572.779308
 31
0.0
  0
LINE
  5
287
  8
2
  6
CONTINUOUS
 10
-1681.314588
 20
-333.644086
 30
0.0
 11
-1688.015674
 21
-295.640351
 31
0.0
  0
LINE
  5
288
  8
2
  6
CONTINUOUS
 10
-1694.716756
 20
-333.644087
 30
0.0
 11
-1688.015674
 21
-295.640351
 31
0.0
  0
TEXT
  5
289
  8
2
  6
CONTINUOUS
 10
-1692.555664
 20
-510.481842
 30
0.0
 40
63.560001
  1
２８０
 50
90.000003
 41
0.9
  7
MONOTXT
  0
ENDBLK
  5
28A
  8
0
  0
BLOCK
  5
28C
  8
2
  2
*D22
 70
    65
 10
0.0
 20
0.0
 30
0.0
  3
*D22
  1

  0
POINT
  5
28D
  8
DEFPOINTS
 10
-1230.723962
 20
-622.568341
 30
0.0
  0
POINT
  5
28E
  8
DEFPOINTS
 10
-1303.567766
 20
-572.779308
 30
0.0
  0
POINT
  5
28F
  8
DEFPOINTS
 10
-1688.015674
 20
-601.229438
 30
0.0
  0
LINE
  5
290
  8
2
  6
CONTINUOUS
 10
-1242.073963
 20
-622.568341
 30
0.0
 11
-1699.365674
 21
-622.568341
 31
0.0
  0
LINE
  5
291
  8
2
  6
CONTINUOUS
 10
-1314.917766
 20
-572.779308
 30
0.0
 11
-1699.365674
 21
-572.779308
 31
0.0
  0
LINE
  5
292
  8
2
  6
CONTINUOUS
 10
-1688.015674
 20
-775.112347
 30
0.0
 11
-1688.015674
 21
-515.773704
 31
0.0
  0
LINE
  5
293
  8
2
  6
CONTINUOUS
 10
-1681.314588
 20
-660.572076
 30
0.0
 11
-1688.015674
 21
-622.568341
 31
0.0
  0
LINE
  5
294
  8
2
  6
CONTINUOUS
 10
-1694.716756
 20
-660.572076
 30
0.0
 11
-1688.015674
 21
-622.568341
 31
0.0
  0
LINE
  5
295
  8
2
  6
CONTINUOUS
 10
-1694.716759
 20
-534.775573
 30
0.0
 11
-1688.015674
 21
-572.779308
 31
0.0
  0
LINE
  5
296
  8
2
  6
CONTINUOUS
 10
-1681.314592
 20
-534.775572
 30
0.0
 11
-1688.015674
 21
-572.779308
 31
0.0
  0
TEXT
  5
297
  8
2
  6
CONTINUOUS
 10
-1692.555664
 20
-749.688354
 30
0.0
 40
63.560001
  1
５０
 50
90.000003
 41
0.9
  7
MONOTXT
  0
ENDBLK
  5
298
  8
0
  0
BLOCK
  5
29A
  8
2
  2
*D23
 70
    65
 10
0.0
 20
0.0
 30
0.0
  3
*D23
  1

  0
POINT
  5
29B
  8
DEFPOINTS
 10
-1360.055324
 20
-595.574287
 30
0.0
  0
POINT
  5
29C
  8
DEFPOINTS
 10
-1203.586453
 20
-375.82269
 30
0.0
  0
POINT
  5
29D
  8
DEFPOINTS
 10
-1512.17255
 20
-526.231644
 30
0.0
  0
LINE
  5
29E
  8
2
  6
CONTINUOUS
 10
-1371.405324
 20
-595.574287
 30
0.0
 11
-1523.52255
 21
-595.574287
 31
0.0
  0
LINE
  5
29F
  8
2
  6
CONTINUOUS
 10
-1214.936453
 20
-375.82269
 30
0.0
 11
-1523.52255
 21
-375.82269
 31
0.0
  0
LINE
  5
2A0
  8
2
  6
CONTINUOUS
 10
-1512.17255
 20
-652.57989
 30
0.0
 11
-1512.17255
 21
-318.817086
 31
0.0
  0
LINE
  5
2A1
  8
2
  6
CONTINUOUS
 10
-1505.471464
 20
-633.578021
 30
0.0
 11
-1512.17255
 21
-595.574287
 31
0.0
  0
LINE
  5
2A2
  8
2
  6
CONTINUOUS
 10
-1518.873632
 20
-633.578022
 30
0.0
 11
-1512.17255
 21
-595.574287
 31
0.0
  0
LINE
  5
2A3
  8
2
  6
CONTINUOUS
 10
-1518.873635
 20
-337.818955
 30
0.0
 11
-1512.17255
 21
-375.82269
 31
0.0
  0
LINE
  5
2A4
  8
2
  6
CONTINUOUS
 10
-1505.471467
 20
-337.818955
 30
0.0
 11
-1512.17255
 21
-375.82269
 31
0.0
  0
TEXT
  5
2A5
  8
2
  6
CONTINUOUS
 10
-1516.712524
 20
-561.97052
 30
0.0
 40
63.560001
  1
２２０
 50
90.000003
 41
0.9
  7
MONOTXT
  0
ENDBLK
  5
2A6
  8
0
  0
BLOCK
  5
2A8
  8
2
  2
*D24
 70
    65
 10
0.0
 20
0.0
 30
0.0
  3
*D24
  1

  0
POINT
  5
2A9
  8
DEFPOINTS
 10
-1305.067435
 20
-303.438634
 30
0.0
  0
POINT
  5
2AA
  8
DEFPOINTS
 10
-465.252417
 20
-303.438634
 30
0.0
  0
POINT
  5
2AB
  8
DEFPOINTS
 10
383.967495
 20
-54.525242
 30
0.0
  0
LINE
  5
2AC
  8
2
  6
CONTINUOUS
 10
-1305.067435
 20
-292.088633
 30
0.0
 11
-1305.067435
 21
-43.175242
 31
0.0
  0
LINE
  5
2AD
  8
2
  6
CONTINUOUS
 10
-465.252417
 20
-292.088633
 30
0.0
 11
-465.252417
 21
-43.175242
 31
0.0
  0
LINE
  5
2AE
  8
2
  6
CONTINUOUS
 10
-1305.067435
 20
-54.525242
 30
0.0
 11
-465.252417
 21
-54.525242
 31
0.0
  0
LINE
  5
2AF
  8
2
  6
CONTINUOUS
 10
-1267.0637
 20
-47.824158
 30
0.0
 11
-1305.067435
 21
-54.525242
 31
0.0
  0
LINE
  5
2B0
  8
2
  6
CONTINUOUS
 10
-1267.0637
 20
-61.226326
 30
0.0
 11
-1305.067435
 21
-54.525242
 31
0.0
  0
LINE
  5
2B1
  8
2
  6
CONTINUOUS
 10
-503.256152
 20
-61.226326
 30
0.0
 11
-465.252417
 21
-54.525242
 31
0.0
  0
LINE
  5
2B2
  8
2
  6
CONTINUOUS
 10
-503.256152
 20
-47.824158
 30
0.0
 11
-465.252417
 21
-54.525242
 31
0.0
  0
TEXT
  5
2B3
  8
2
  6
CONTINUOUS
 10
-961.431946
 20
-49.985241
 30
0.0
 40
63.560001
  1
８４０
 41
0.9
  7
MONOTXT
  0
ENDBLK
  5
2B4
  8
0
  0
BLOCK
  5
2B6
  8
2
  2
*D25
 70
    65
 10
0.0
 20
0.0
 30
0.0
  3
*D25
  1

  0
POINT
  5
2B7
  8
DEFPOINTS
 10
-465.252417
 20
-303.438634
 30
0.0
  0
POINT
  5
2B8
  8
DEFPOINTS
 10
-410.264529
 20
-595.574287
 30
0.0
  0
POINT
  5
2B9
  8
DEFPOINTS
 10
383.967495
 20
-54.525242
 30
0.0
  0
LINE
  5
2BA
  8
2
  6
CONTINUOUS
 10
-465.252417
 20
-292.088633
 30
0.0
 11
-465.252417
 21
-43.175242
 31
0.0
  0
LINE
  5
2BB
  8
2
  6
CONTINUOUS
 10
-410.264529
 20
-584.224286
 30
0.0
 11
-410.264529
 21
-43.175242
 31
0.0
  0
LINE
  5
2BC
  8
2
  6
CONTINUOUS
 10
-522.25802
 20
-54.525242
 30
0.0
 11
-257.720522
 21
-54.525242
 31
0.0
  0
LINE
  5
2BD
  8
2
  6
CONTINUOUS
 10
-503.256152
 20
-61.226326
 30
0.0
 11
-465.252417
 21
-54.525242
 31
0.0
  0
LINE
  5
2BE
  8
2
  6
CONTINUOUS
 10
-503.256152
 20
-47.824158
 30
0.0
 11
-465.252417
 21
-54.525242
 31
0.0
  0
LINE
  5
2BF
  8
2
  6
CONTINUOUS
 10
-372.260793
 20
-47.824158
 30
0.0
 11
-410.264529
 21
-54.525242
 31
0.0
  0
LINE
  5
2C0
  8
2
  6
CONTINUOUS
 10
-372.260793
 20
-61.226326
 30
0.0
 11
-410.264529
 21
-54.525242
 31
0.0
  0
TEXT
  5
2C1
  8
2
  6
CONTINUOUS
 10
-384.840515
 20
-49.985241
 30
0.0
 40
63.560001
  1
５５
 41
0.9
  7
MONOTXT
  0
ENDBLK
  5
2C2
  8
0
  0
BLOCK
  5
2C4
  8
2
  2
*D26
 70
    65
 10
0.0
 20
0.0
 30
0.0
  3
*D26
  1

  0
POINT
  5
2C5
  8
DEFPOINTS
 10
-1360.055324
 20
-595.574287
 30
0.0
  0
POINT
  5
2C6
  8
DEFPOINTS
 10
-1305.067435
 20
-303.438634
 30
0.0
  0
POINT
  5
2C7
  8
DEFPOINTS
 10
383.967495
 20
-54.525242
 30
0.0
  0
LINE
  5
2C8
  8
2
  6
CONTINUOUS
 10
-1360.055324
 20
-584.224286
 30
0.0
 11
-1360.055324
 21
-43.175242
 31
0.0
  0
LINE
  5
2C9
  8
2
  6
CONTINUOUS
 10
-1305.067435
 20
-292.088633
 30
0.0
 11
-1305.067435
 21
-43.175242
 31
0.0
  0
LINE
  5
2CA
  8
2
  6
CONTINUOUS
 10
-1512.59933
 20
-54.525242
 30
0.0
 11
-1248.061832
 21
-54.525242
 31
0.0
  0
LINE
  5
2CB
  8
2
  6
CONTINUOUS
 10
-1398.059059
 20
-61.226326
 30
0.0
 11
-1360.055324
 21
-54.525242
 31
0.0
  0
LINE
  5
2CC
  8
2
  6
CONTINUOUS
 10
-1398.059059
 20
-47.824158
 30
0.0
 11
-1360.055324
 21
-54.525242
 31
0.0
  0
LINE
  5
2CD
  8
2
  6
CONTINUOUS
 10
-1267.0637
 20
-47.824158
 30
0.0
 11
-1305.067435
 21
-54.525242
 31
0.0
  0
LINE
  5
2CE
  8
2
  6
CONTINUOUS
 10
-1267.0637
 20
-61.226326
 30
0.0
 11
-1305.067435
 21
-54.525242
 31
0.0
  0
TEXT
  5
2CF
  8
2
  6
CONTINUOUS
 10
-1487.175293
 20
-49.985241
 30
0.0
 40
63.560001
  1
５５
 41
0.9
  7
MONOTXT
  0
ENDBLK
  5
2D0
  8
0
  0
BLOCK
  5
2D2
  8
2
  2
*D27
 70
    65
 10
0.0
 20
0.0
 30
0.0
  3
*D27
  1

  0
POINT
  5
2D3
  8
DEFPOINTS
 10
-1179.095183
 20
-347.00215
 30
0.0
  0
POINT
  5
2D4
  8
DEFPOINTS
 10
-885.159926
 20
-279.827816
 30
0.0
  0
POINT
  5
2D5
  8
DEFPOINTS
 10
737.889538
 20
-154.183866
 30
0.0
  0
LINE
  5
2D6
  8
2
  6
CONTINUOUS
 10
-1179.095183
 20
-335.65215
 30
0.0
 11
-1179.095183
 21
-142.833865
 31
0.0
  0
LINE
  5
2D7
  8
2
  6
CONTINUOUS
 10
-885.159926
 20
-268.477816
 30
0.0
 11
-885.159926
 21
-142.833865
 31
0.0
  0
LINE
  5
2D8
  8
2
  6
CONTINUOUS
 10
-1179.095183
 20
-154.183866
 30
0.0
 11
-885.159926
 21
-154.183866
 31
0.0
  0
LINE
  5
2D9
  8
2
  6
CONTINUOUS
 10
-1141.091448
 20
-147.482782
 30
0.0
 11
-1179.095183
 21
-154.183866
 31
0.0
  0
LINE
  5
2DA
  8
2
  6
CONTINUOUS
 10
-1141.091448
 20
-160.88495
 30
0.0
 11
-1179.095183
 21
-154.183866
 31
0.0
  0
LINE
  5
2DB
  8
2
  6
CONTINUOUS
 10
-923.163661
 20
-160.88495
 30
0.0
 11
-885.159926
 21
-154.183866
 31
0.0
  0
LINE
  5
2DC
  8
2
  6
CONTINUOUS
 10
-923.163661
 20
-147.482782
 30
0.0
 11
-885.159926
 21
-154.183866
 31
0.0
  0
TEXT
  5
2DD
  8
2
  6
CONTINUOUS
 10
-1108.399536
 20
-149.64386
 30
0.0
 40
63.560001
  1
２９５
 41
0.9
  7
MONOTXT
  0
ENDBLK
  5
2DE
  8
0
  0
BLOCK
  5
2E0
  8
2
  2
*D28
 70
    65
 10
0.0
 20
0.0
 30
0.0
  3
*D28
  1

  0
POINT
  5
2E1
  8
DEFPOINTS
 10
-1126.554064
 20
-567.780409
 30
0.0
  0
POINT
  5
2E2
  8
DEFPOINTS
 10
-885.159926
 20
-671.481489
 30
0.0
  0
POINT
  5
2E3
  8
DEFPOINTS
 10
596.920589
 20
-725.97513
 30
0.0
  0
LINE
  5
2E4
  8
2
  6
CONTINUOUS
 10
-1126.554064
 20
-579.130409
 30
0.0
 11
-1126.554064
 21
-737.32513
 31
0.0
  0
LINE
  5
2E5
  8
2
  6
CONTINUOUS
 10
-885.159926
 20
-682.831489
 30
0.0
 11
-885.159926
 21
-737.32513
 31
0.0
  0
LINE
  5
2E6
  8
2
  6
CONTINUOUS
 10
-1126.554064
 20
-725.97513
 30
0.0
 11
-885.159926
 21
-725.97513
 31
0.0
  0
LINE
  5
2E7
  8
2
  6
CONTINUOUS
 10
-1088.550329
 20
-719.274046
 30
0.0
 11
-1126.554064
 21
-725.97513
 31
0.0
  0
LINE
  5
2E8
  8
2
  6
CONTINUOUS
 10
-1088.550329
 20
-732.676213
 30
0.0
 11
-1126.554064
 21
-725.97513
 31
0.0
  0
LINE
  5
2E9
  8
2
  6
CONTINUOUS
 10
-923.163661
 20
-732.676213
 30
0.0
 11
-885.159926
 21
-725.97513
 31
0.0
  0
LINE
  5
2EA
  8
2
  6
CONTINUOUS
 10
-923.163661
 20
-719.274046
 30
0.0
 11
-885.159926
 21
-725.97513
 31
0.0
  0
TEXT
  5
2EB
  8
2
  6
CONTINUOUS
 10
-1082.129028
 20
-721.43512
 30
0.0
 40
63.560001
  1
２４０
 41
0.9
  7
MONOTXT
  0
ENDBLK
  5
2EC
  8
0
  0
BLOCK
  5
2EE
  8
2
  2
*D29
 70
    65
 10
0.0
 20
0.0
 30
0.0
  3
*D29
  1

  0
POINT
  5
2EF
  8
DEFPOINTS
 10
-885.159926
 20
-671.481489
 30
0.0
  0
POINT
  5
2F0
  8
DEFPOINTS
 10
-615.075012
 20
-569.478993
 30
0.0
  0
POINT
  5
2F1
  8
DEFPOINTS
 10
669.904513
 20
-822.285278
 30
0.0
  0
LINE
  5
2F2
  8
2
  6
CONTINUOUS
 10
-885.159926
 20
-682.831489
 30
0.0
 11
-885.159926
 21
-833.635279
 31
0.0
  0
LINE
  5
2F3
  8
2
  6
CONTINUOUS
 10
-615.075012
 20
-580.828993
 30
0.0
 11
-615.075012
 21
-833.635279
 31
0.0
  0
LINE
  5
2F4
  8
2
  6
CONTINUOUS
 10
-885.159926
 20
-822.285278
 30
0.0
 11
-615.075012
 21
-822.285278
 31
0.0
  0
LINE
  5
2F5
  8
2
  6
CONTINUOUS
 10
-847.156191
 20
-815.584194
 30
0.0
 11
-885.159926
 21
-822.285278
 31
0.0
  0
LINE
  5
2F6
  8
2
  6
CONTINUOUS
 10
-847.156191
 20
-828.986362
 30
0.0
 11
-885.159926
 21
-822.285278
 31
0.0
  0
LINE
  5
2F7
  8
2
  6
CONTINUOUS
 10
-653.078747
 20
-828.986362
 30
0.0
 11
-615.075012
 21
-822.285278
 31
0.0
  0
LINE
  5
2F8
  8
2
  6
CONTINUOUS
 10
-653.078747
 20
-815.584194
 30
0.0
 11
-615.075012
 21
-822.285278
 31
0.0
  0
TEXT
  5
2F9
  8
2
  6
CONTINUOUS
 10
-826.389465
 20
-817.7453
 30
0.0
 40
63.560001
  1
２７０
 41
0.9
  7
MONOTXT
  0
ENDBLK
  5
2FA
  8
0
  0
BLOCK
  5
2FC
  8
2
  2
*D30
 70
    65
 10
0.0
 20
0.0
 30
0.0
  3
*D30
  1

  0
POINT
  5
2FD
  8
DEFPOINTS
 10
-410.264529
 20
-595.574287
 30
0.0
  0
POINT
  5
2FE
  8
DEFPOINTS
 10
-473.050699
 20
-295.640351
 30
0.0
  0
POINT
  5
2FF
  8
DEFPOINTS
 10
-88.965629
 20
-493.880203
 30
0.0
  0
LINE
  5
300
  8
2
  6
CONTINUOUS
 10
-398.914528
 20
-595.574287
 30
0.0
 11
-77.615629
 21
-595.574287
 31
0.0
  0
LINE
  5
301
  8
2
  6
CONTINUOUS
 10
-461.700699
 20
-295.640351
 30
0.0
 11
-77.615629
 21
-295.640351
 31
0.0
  0
LINE
  5
302
  8
2
  6
CONTINUOUS
 10
-88.965629
 20
-595.574287
 30
0.0
 11
-88.965629
 21
-295.640351
 31
0.0
  0
LINE
  5
303
  8
2
  6
CONTINUOUS
 10
-95.666714
 20
-557.570552
 30
0.0
 11
-88.965629
 21
-595.574287
 31
0.0
  0
LINE
  5
304
  8
2
  6
CONTINUOUS
 10
-82.264547
 20
-557.570551
 30
0.0
 11
-88.965629
 21
-595.574287
 31
0.0
  0
LINE
  5
305
  8
2
  6
CONTINUOUS
 10
-82.264543
 20
-333.644086
 30
0.0
 11
-88.965629
 21
-295.640351
 31
0.0
  0
LINE
  5
306
  8
2
  6
CONTINUOUS
 10
-95.666711
 20
-333.644087
 30
0.0
 11
-88.965629
 21
-295.640351
 31
0.0
  0
TEXT
  5
307
  8
2
  6
CONTINUOUS
 10
-93.505623
 20
-521.879333
 30
0.0
 40
63.560001
  1
３００
 50
90.000003
 41
0.9
  7
MONOTXT
  0
ENDBLK
  5
308
  8
0
  0
BLOCK
  5
30A
  8
2
  2
*D31
 70
    65
 10
0.0
 20
0.0
 30
0.0
  3
*D31
  1

  0
POINT
  5
30B
  8
DEFPOINTS
 10
-225.65791
 20
175.397149
 30
0.0
  0
POINT
  5
30C
  8
DEFPOINTS
 10
-225.65791
 20
1125.187944
 30
0.0
  0
POINT
  5
30D
  8
DEFPOINTS
 10
-46.034098
 20
760.72913
 30
0.0
  0
LINE
  5
30E
  8
2
  6
CONTINUOUS
 10
-214.307909
 20
175.397149
 30
0.0
 11
-34.684097
 21
175.397149
 31
0.0
  0
LINE
  5
30F
  8
2
  6
CONTINUOUS
 10
-214.307909
 20
1125.187944
 30
0.0
 11
-34.684097
 21
1125.187944
 31
0.0
  0
LINE
  5
310
  8
2
  6
CONTINUOUS
 10
-46.034098
 20
175.397149
 30
0.0
 11
-46.034098
 21
1125.187944
 31
0.0
  0
LINE
  5
311
  8
2
  6
CONTINUOUS
 10
-52.735183
 20
213.400883
 30
0.0
 11
-46.034098
 21
175.397149
 31
0.0
  0
LINE
  5
312
  8
2
  6
CONTINUOUS
 10
-39.333015
 20
213.400884
 30
0.0
 11
-46.034098
 21
175.397149
 31
0.0
  0
LINE
  5
313
  8
2
  6
CONTINUOUS
 10
-39.333012
 20
1087.184209
 30
0.0
 11
-46.034098
 21
1125.187944
 31
0.0
  0
LINE
  5
314
  8
2
  6
CONTINUOUS
 10
-52.73518
 20
1087.184208
 30
0.0
 11
-46.034098
 21
1125.187944
 31
0.0
  0
TEXT
  5
315
  8
2
  6
CONTINUOUS
 10
-50.574093
 20
574.020569
 30
0.0
 40
63.560001
  1
９５０
 50
90.000003
 41
0.9
  7
MONOTXT
  0
ENDBLK
  5
316
  8
0
  0
BLOCK
  5
318
  8
2
  2
*D32
 70
    65
 10
0.0
 20
0.0
 30
0.0
  3
*D32
  1

  0
POINT
  5
319
  8
DEFPOINTS
 10
-1360.055324
 20
-595.574287
 30
0.0
  0
POINT
  5
31A
  8
DEFPOINTS
 10
-1303.567766
 20
-572.779308
 30
0.0
  0
POINT
  5
31B
  8
DEFPOINTS
 10
-1598.040046
 20
-579.282922
 30
0.0
  0
LINE
  5
31C
  8
2
  6
CONTINUOUS
 10
-1371.405324
 20
-595.574287
 30
0.0
 11
-1609.390047
 21
-595.574287
 31
0.0
  0
LINE
  5
31D
  8
2
  6
CONTINUOUS
 10
-1314.917766
 20
-572.779308
 30
0.0
 11
-1609.390047
 21
-572.779308
 31
0.0
  0
LINE
  5
31E
  8
2
  6
CONTINUOUS
 10
-1598.040046
 20
-635.813533
 30
0.0
 11
-1598.040046
 21
-420.235301
 31
0.0
  0
CIRCLE
  5
31F
  8
2
  6
CONTINUOUS
 10
-1598.040046
 20
-595.574287
 30
0.0
 40
6.81
  0
CIRCLE
  5
320
  8
2
  6
CONTINUOUS
 10
-1598.040046
 20
-595.574287
 30
0.0
 40
4.086
  0
LINE
  5
321
  8
2
  6
CONTINUOUS
 10
-1604.741132
 20
-534.775573
 30
0.0
 11
-1598.040046
 21
-572.779308
 31
0.0
  0
LINE
  5
322
  8
2
  6
CONTINUOUS
 10
-1591.338964
 20
-534.775572
 30
0.0
 11
-1598.040046
 21
-572.779308
 31
0.0
  0
TEXT
  5
323
  8
2
  6
CONTINUOUS
 10
-1602.580078
 20
-547.355286
 30
0.0
 40
63.560001
  1
２０
 50
90.000003
 41
0.9
  7
MONOTXT
  0
ENDBLK
  5
324
  8
0
  0
BLOCK
  5
326
  8
2
  2
*D33
 70
    65
 10
0.0
 20
0.0
 30
0.0
  3
*D33
  1

  0
POINT
  5
327
  8
DEFPOINTS
 10
-1230.723962
 20
-622.568341
 30
0.0
  0
POINT
  5
328
  8
DEFPOINTS
 10
-1360.055324
 20
-595.574287
 30
0.0
  0
POINT
  5
329
  8
DEFPOINTS
 10
-1598.040046
 20
-676.327942
 30
0.0
  0
LINE
  5
32A
  8
2
  6
CONTINUOUS
 10
-1242.073963
 20
-622.568341
 30
0.0
 11
-1609.390047
 21
-622.568341
 31
0.0
  0
LINE
  5
32B
  8
2
  6
CONTINUOUS
 10
-1371.405324
 20
-595.574287
 30
0.0
 11
-1609.390047
 21
-595.574287
 31
0.0
  0
LINE
  5
32C
  8
2
  6
CONTINUOUS
 10
-1598.040046
 20
-775.112347
 30
0.0
 11
-1598.040046
 21
-555.33504
 31
0.0
  0
LINE
  5
32D
  8
2
  6
CONTINUOUS
 10
-1591.338961
 20
-660.572076
 30
0.0
 11
-1598.040046
 21
-622.568341
 31
0.0
  0
LINE
  5
32E
  8
2
  6
CONTINUOUS
 10
-1604.741129
 20
-660.572076
 30
0.0
 11
-1598.040046
 21
-622.568341
 31
0.0
  0
CIRCLE
  5
32F
  8
2
  6
CONTINUOUS
 10
-1598.040046
 20
-595.574287
 30
0.0
 40
6.81
  0
CIRCLE
  5
330
  8
2
  6
CONTINUOUS
 10
-1598.040046
 20
-595.574287
 30
0.0
 40
4.086
  0
TEXT
  5
331
  8
2
  6
CONTINUOUS
 10
-1602.580078
 20
-749.688354
 30
0.0
 40
63.560001
  1
３０
 50
90.000003
 41
0.9
  7
MONOTXT
  0
ENDBLK
  5
332
  8
0
  0
BLOCK
  5
334
  8
2
  2
*D34
 70
    65
 10
0.0
 20
0.0
 30
0.0
  3
*D34
  1

  0
POINT
  5
335
  8
DEFPOINTS
 10
-1555.365023
 20
1115.190146
 30
0.0
  0
POINT
  5
336
  8
DEFPOINTS
 10
-215.660112
 20
1115.190146
 30
0.0
  0
POINT
  5
337
  8
DEFPOINTS
 10
416.718022
 20
1260.276376
 30
0.0
  0
LINE
  5
338
  8
2
  6
CONTINUOUS
 10
-1555.365023
 20
1126.540146
 30
0.0
 11
-1555.365023
 21
1271.626376
 31
0.0
  0
LINE
  5
339
  8
2
  6
CONTINUOUS
 10
-215.660112
 20
1126.540146
 30
0.0
 11
-215.660112
 21
1271.626376
 31
0.0
  0
LINE
  5
33A
  8
2
  6
CONTINUOUS
 10
-1555.365023
 20
1260.276376
 30
0.0
 11
-215.660112
 21
1260.276376
 31
0.0
  0
LINE
  5
33B
  8
2
  6
CONTINUOUS
 10
-1517.361288
 20
1266.97746
 30
0.0
 11
-1555.365023
 21
1260.276376
 31
0.0
  0
LINE
  5
33C
  8
2
  6
CONTINUOUS
 10
-1517.361288
 20
1253.575292
 30
0.0
 11
-1555.365023
 21
1260.276376
 31
0.0
  0
LINE
  5
33D
  8
2
  6
CONTINUOUS
 10
-253.663847
 20
1253.575292
 30
0.0
 11
-215.660112
 21
1260.276376
 31
0.0
  0
LINE
  5
33E
  8
2
  6
CONTINUOUS
 10
-253.663847
 20
1266.97746
 30
0.0
 11
-215.660112
 21
1260.276376
 31
0.0
  0
TEXT
  5
33F
  8
2
  6
CONTINUOUS
 10
-987.208557
 20
1264.816406
 30
0.0
 40
63.560001
  1
１３４０
 41
0.9
  7
MONOTXT
  0
ENDBLK
  5
340
  8
0
  0
BLOCK
  5
342
  8
2
  2
*D35
 70
    65
 10
0.0
 20
0.0
 30
0.0
  3
*D35
  1

  0
POINT
  5
343
  8
DEFPOINTS
 10
1618.990712
 20
-595.574287
 30
0.0
  0
POINT
  5
344
  8
DEFPOINTS
 10
1379.142677
 20
-398.117779
 30
0.0
  0
POINT
  5
345
  8
DEFPOINTS
 10
2047.154882
 20
-499.631115
 30
0.0
  0
LINE
  5
346
  8
2
  6
CONTINUOUS
 10
1630.340712
 20
-595.574287
 30
0.0
 11
2058.504883
 21
-595.574287
 31
0.0
  0
LINE
  5
347
  8
2
  6
CONTINUOUS
 10
1390.492678
 20
-398.117779
 30
0.0
 11
2058.504883
 21
-398.117779
 31
0.0
  0
LINE
  5
348
  8
2
  6
CONTINUOUS
 10
2047.154882
 20
-595.574287
 30
0.0
 11
2047.154882
 21
-398.117779
 31
0.0
  0
LINE
  5
349
  8
2
  6
CONTINUOUS
 10
2040.453797
 20
-557.570552
 30
0.0
 11
2047.154882
 21
-595.574287
 31
0.0
  0
LINE
  5
34A
  8
2
  6
CONTINUOUS
 10
2053.855965
 20
-557.570552
 30
0.0
 11
2047.154882
 21
-595.574287
 31
0.0
  0
LINE
  5
34B
  8
2
  6
CONTINUOUS
 10
2053.855968
 20
-436.121514
 30
0.0
 11
2047.154882
 21
-398.117779
 31
0.0
  0
LINE
  5
34C
  8
2
  6
CONTINUOUS
 10
2040.4538
 20
-436.121515
 30
0.0
 11
2047.154882
 21
-398.117779
 31
0.0
  0
TEXT
  5
34D
  8
2
  6
CONTINUOUS
 10
2042.614868
 20
-573.118042
 30
0.0
 40
63.560001
  1
２００
 50
90.000003
 41
0.9
  7
MONOTXT
  0
ENDBLK
  5
34E
  8
0
  0
BLOCK
  5
350
  8
2
  2
*D36
 70
    65
 10
0.0
 20
0.0
 30
0.0
  3
*D36
  1

  0
POINT
  5
351
  8
DEFPOINTS
 10
1618.990712
 20
-595.574287
 30
0.0
  0
POINT
  5
352
  8
DEFPOINTS
 10
1516.972972
 20
-444.007671
 30
0.0
  0
POINT
  5
353
  8
DEFPOINTS
 10
1958.471556
 20
-513.274704
 30
0.0
  0
LINE
  5
354
  8
2
  6
CONTINUOUS
 10
1630.340712
 20
-595.574287
 30
0.0
 11
1969.821556
 21
-595.574287
 31
0.0
  0
LINE
  5
355
  8
2
  6
CONTINUOUS
 10
1528.322973
 20
-444.007671
 30
0.0
 11
1969.821556
 21
-444.007671
 31
0.0
  0
LINE
  5
356
  8
2
  6
CONTINUOUS
 10
1958.471556
 20
-595.574287
 30
0.0
 11
1958.471556
 21
-444.007671
 31
0.0
  0
LINE
  5
357
  8
2
  6
CONTINUOUS
 10
1951.77047
 20
-557.570552
 30
0.0
 11
1958.471556
 21
-595.574287
 31
0.0
  0
LINE
  5
358
  8
2
  6
CONTINUOUS
 10
1965.172638
 20
-557.570552
 30
0.0
 11
1958.471556
 21
-595.574287
 31
0.0
  0
LINE
  5
359
  8
2
  6
CONTINUOUS
 10
1965.172641
 20
-482.011406
 30
0.0
 11
1958.471556
 21
-444.007671
 31
0.0
  0
LINE
  5
35A
  8
2
  6
CONTINUOUS
 10
1951.770473
 20
-482.011407
 30
0.0
 11
1958.471556
 21
-444.007671
 31
0.0
  0
TEXT
  5
35B
  8
2
  6
CONTINUOUS
 10
1953.931519
 20
-596.062988
 30
0.0
 40
63.560001
  1
１５５
 50
90.000003
 41
0.9
  7
MONOTXT
  0
ENDBLK
  5
35C
  8
0
  0
BLOCK
  5
35E
  8
2
  2
*D37
 70
    65
 10
0.0
 20
0.0
 30
0.0
  3
*D37
  1

  0
POINT
  5
35F
  8
DEFPOINTS
 10
-412.264088
 20
-595.574287
 30
0.0
  0
POINT
  5
360
  8
DEFPOINTS
 10
-547.896643
 20
-435.610622
 30
0.0
  0
POINT
  5
361
  8
DEFPOINTS
 10
-174.881624
 20
-516.791135
 30
0.0
  0
LINE
  5
362
  8
2
  6
CONTINUOUS
 10
-400.914088
 20
-595.574287
 30
0.0
 11
-163.531624
 21
-595.574287
 31
0.0
  0
LINE
  5
363
  8
2
  6
CONTINUOUS
 10
-536.546643
 20
-435.610622
 30
0.0
 11
-163.531624
 21
-435.610622
 31
0.0
  0
LINE
  5
364
  8
2
  6
CONTINUOUS
 10
-174.881624
 20
-652.57989
 30
0.0
 11
-174.881624
 21
-378.605018
 31
0.0
  0
LINE
  5
365
  8
2
  6
CONTINUOUS
 10
-168.180538
 20
-633.578021
 30
0.0
 11
-174.881624
 21
-595.574287
 31
0.0
  0
LINE
  5
366
  8
2
  6
CONTINUOUS
 10
-181.582706
 20
-633.578022
 30
0.0
 11
-174.881624
 21
-595.574287
 31
0.0
  0
LINE
  5
367
  8
2
  6
CONTINUOUS
 10
-181.58271
 20
-397.606887
 30
0.0
 11
-174.881624
 21
-435.610622
 31
0.0
  0
LINE
  5
368
  8
2
  6
CONTINUOUS
 10
-168.180542
 20
-397.606887
 30
0.0
 11
-174.881624
 21
-435.610622
 31
0.0
  0
TEXT
  5
369
  8
2
  6
CONTINUOUS
 10
-179.421616
 20
-591.864441
 30
0.0
 40
63.560001
  1
１６０
 50
90.000003
 41
0.9
  7
MONOTXT
  0
ENDBLK
  5
36A
  8
0
  0
BLOCK
  5
36C
  8
2
  2
*D38
 70
    65
 10
0.0
 20
0.0
 30
0.0
  3
*D38
  1

  0
POINT
  5
36D
  8
DEFPOINTS
 10
-885.159926
 20
-671.481489
 30
0.0
  0
POINT
  5
36E
  8
DEFPOINTS
 10
-572.728739
 20
-498.596765
 30
0.0
  0
POINT
  5
36F
  8
DEFPOINTS
 10
554.429948
 20
-909.163298
 30
0.0
  0
LINE
  5
370
  8
2
  6
CONTINUOUS
 10
-885.159926
 20
-682.831489
 30
0.0
 11
-885.159926
 21
-920.513299
 31
0.0
  0
LINE
  5
371
  8
2
  6
CONTINUOUS
 10
-572.728739
 20
-509.946766
 30
0.0
 11
-572.728739
 21
-920.513299
 31
0.0
  0
LINE
  5
372
  8
2
  6
CONTINUOUS
 10
-885.159926
 20
-909.163298
 30
0.0
 11
-572.728739
 21
-909.163298
 31
0.0
  0
LINE
  5
373
  8
2
  6
CONTINUOUS
 10
-847.156191
 20
-902.462215
 30
0.0
 11
-885.159926
 21
-909.163298
 31
0.0
  0
LINE
  5
374
  8
2
  6
CONTINUOUS
 10
-847.156191
 20
-915.864382
 30
0.0
 11
-885.159926
 21
-909.163298
 31
0.0
  0
LINE
  5
375
  8
2
  6
CONTINUOUS
 10
-610.732474
 20
-915.864382
 30
0.0
 11
-572.728739
 21
-909.163298
 31
0.0
  0
LINE
  5
376
  8
2
  6
CONTINUOUS
 10
-610.732474
 20
-902.462215
 30
0.0
 11
-572.728739
 21
-909.163298
 31
0.0
  0
TEXT
  5
377
  8
2
  6
CONTINUOUS
 10
-805.216309
 20
-904.623291
 30
0.0
 40
63.560001
  1
３１５
 41
0.9
  7
MONOTXT
  0
ENDBLK
  5
378
  8
0
  0
BLOCK
  5
37A
  8
2
  2
*D39
 70
    65
 10
0.0
 20
0.0
 30
0.0
  3
*D39
  1

  0
POINT
  5
37B
  8
DEFPOINTS
 10
-885.159926
 20
-671.481489
 30
0.0
  0
POINT
  5
37C
  8
DEFPOINTS
 10
-627.216749
 20
-482.316557
 30
0.0
  0
POINT
  5
37D
  8
DEFPOINTS
 10
596.920589
 20
-725.97513
 30
0.0
  0
LINE
  5
37E
  8
2
  6
CONTINUOUS
 10
-885.159926
 20
-682.831489
 30
0.0
 11
-885.159926
 21
-737.32513
 31
0.0
  0
LINE
  5
37F
  8
2
  6
CONTINUOUS
 10
-627.216749
 20
-493.666557
 30
0.0
 11
-627.216749
 21
-737.32513
 31
0.0
  0
LINE
  5
380
  8
2
  6
CONTINUOUS
 10
-885.159926
 20
-725.97513
 30
0.0
 11
-627.216749
 21
-725.97513
 31
0.0
  0
LINE
  5
381
  8
2
  6
CONTINUOUS
 10
-847.156191
 20
-719.274046
 30
0.0
 11
-885.159926
 21
-725.97513
 31
0.0
  0
LINE
  5
382
  8
2
  6
CONTINUOUS
 10
-847.156191
 20
-732.676213
 30
0.0
 11
-885.159926
 21
-725.97513
 31
0.0
  0
LINE
  5
383
  8
2
  6
CONTINUOUS
 10
-665.220484
 20
-732.676213
 30
0.0
 11
-627.216749
 21
-725.97513
 31
0.0
  0
LINE
  5
384
  8
2
  6
CONTINUOUS
 10
-665.220484
 20
-719.274046
 30
0.0
 11
-627.216749
 21
-725.97513
 31
0.0
  0
TEXT
  5
385
  8
2
  6
CONTINUOUS
 10
-832.460327
 20
-721.43512
 30
0.0
 40
63.560001
  1
２６０
 41
0.9
  7
MONOTXT
  0
ENDBLK
  5
386
  8
0
  0
BLOCK
  5
388
  8
2
  2
*D40
 70
    65
 10
0.0
 20
0.0
 30
0.0
  3
*D40
  1

  0
POINT
  5
389
  8
DEFPOINTS
 10
-412.264088
 20
-595.574287
 30
0.0
  0
POINT
  5
38A
  8
DEFPOINTS
 10
-605.503106
 20
-460.602915
 30
0.0
  0
POINT
  5
38B
  8
DEFPOINTS
 10
-260.797619
 20
-533.974334
 30
0.0
  0
LINE
  5
38C
  8
2
  6
CONTINUOUS
 10
-400.914088
 20
-595.574287
 30
0.0
 11
-249.447619
 21
-595.574287
 31
0.0
  0
LINE
  5
38D
  8
2
  6
CONTINUOUS
 10
-594.153106
 20
-460.602915
 30
0.0
 11
-249.447619
 21
-460.602915
 31
0.0
  0
LINE
  5
38E
  8
2
  6
CONTINUOUS
 10
-260.797619
 20
-595.574287
 30
0.0
 11
-260.797619
 21
-460.602915
 31
0.0
  0
LINE
  5
38F
  8
2
  6
CONTINUOUS
 10
-267.498705
 20
-557.570552
 30
0.0
 11
-260.797619
 21
-595.574287
 31
0.0
  0
LINE
  5
390
  8
2
  6
CONTINUOUS
 10
-254.096537
 20
-557.570551
 30
0.0
 11
-260.797619
 21
-595.574287
 31
0.0
  0
LINE
  5
391
  8
2
  6
CONTINUOUS
 10
-254.096534
 20
-498.60665
 30
0.0
 11
-260.797619
 21
-460.602915
 31
0.0
  0
LINE
  5
392
  8
2
  6
CONTINUOUS
 10
-267.498701
 20
-498.60665
 30
0.0
 11
-260.797619
 21
-460.602915
 31
0.0
  0
TEXT
  5
393
  8
2
  6
CONTINUOUS
 10
-265.337616
 20
-604.317261
 30
0.0
 40
63.560001
  1
１３５
 50
90.000003
 41
0.9
  7
MONOTXT
  0
ENDBLK
  5
394
  8
0
  0
BLOCK
  5
396
  8
2
  2
*D41
 70
    65
 10
0.0
 20
0.0
 30
0.0
  3
*D41
  1

  0
POINT
  5
397
  8
DEFPOINTS
 10
508.463766
 20
-491.062725
 30
0.0
  0
POINT
  5
398
  8
DEFPOINTS
 10
508.463766
 20
-386.085848
 30
0.0
  0
POINT
  5
399
  8
DEFPOINTS
 10
210.956132
 20
-468.818149
 30
0.0
  0
LINE
  5
39A
  8
2
  6
CONTINUOUS
 10
497.113766
 20
-491.062725
 30
0.0
 11
199.606132
 21
-491.062725
 31
0.0
  0
LINE
  5
39B
  8
2
  6
CONTINUOUS
 10
497.113766
 20
-386.085848
 30
0.0
 11
199.606132
 21
-386.085848
 31
0.0
  0
LINE
  5
39C
  8
2
  6
CONTINUOUS
 10
210.956132
 20
-548.068329
 30
0.0
 11
210.956132
 21
-182.693849
 31
0.0
  0
LINE
  5
39D
  8
2
  6
CONTINUOUS
 10
217.657218
 20
-529.06646
 30
0.0
 11
210.956132
 21
-491.062725
 31
0.0
  0
LINE
  5
39E
  8
2
  6
CONTINUOUS
 10
204.25505
 20
-529.06646
 30
0.0
 11
210.956132
 21
-491.062725
 31
0.0
  0
LINE
  5
39F
  8
2
  6
CONTINUOUS
 10
204.255047
 20
-348.082113
 30
0.0
 11
210.956132
 21
-386.085848
 31
0.0
  0
LINE
  5
3A0
  8
2
  6
CONTINUOUS
 10
217.657214
 20
-348.082112
 30
0.0
 11
210.956132
 21
-386.085848
 31
0.0
  0
TEXT
  5
3A1
  8
2
  6
CONTINUOUS
 10
206.416138
 20
-360.661865
 30
0.0
 40
63.560001
  1
１０５
 50
90.000003
 41
0.9
  7
MONOTXT
  0
ENDBLK
  5
3A2
  8
0
  0
BLOCK
  5
3A4
  8
2
  2
*D42
 70
    65
 10
0.0
 20
0.0
 30
0.0
  3
*D42
  1

  0
POINT
  5
3A5
  8
DEFPOINTS
 10
548.954847
 20
-493.391575
 30
0.0
  0
POINT
  5
3A6
  8
DEFPOINTS
 10
950.86632
 20
-680.640396
 30
0.0
  0
POINT
  5
3A7
  8
DEFPOINTS
 10
810.424364
 20
-725.97513
 30
0.0
  0
LINE
  5
3A8
  8
2
  6
CONTINUOUS
 10
548.954847
 20
-504.741576
 30
0.0
 11
548.954847
 21
-737.32513
 31
0.0
  0
LINE
  5
3A9
  8
2
  6
CONTINUOUS
 10
950.86632
 20
-691.990397
 30
0.0
 11
950.86632
 21
-737.32513
 31
0.0
  0
LINE
  5
3AA
  8
2
  6
CONTINUOUS
 10
548.954847
 20
-725.97513
 30
0.0
 11
950.86632
 21
-725.97513
 31
0.0
  0
LINE
  5
3AB
  8
2
  6
CONTINUOUS
 10
586.958582
 20
-719.274046
 30
0.0
 11
548.954847
 21
-725.97513
 31
0.0
  0
LINE
  5
3AC
  8
2
  6
CONTINUOUS
 10
586.958582
 20
-732.676213
 30
0.0
 11
548.954847
 21
-725.97513
 31
0.0
  0
LINE
  5
3AD
  8
2
  6
CONTINUOUS
 10
912.862585
 20
-732.676213
 30
0.0
 11
950.86632
 21
-725.97513
 31
0.0
  0
LINE
  5
3AE
  8
2
  6
CONTINUOUS
 10
912.862585
 20
-719.274046
 30
0.0
 11
950.86632
 21
-725.97513
 31
0.0
  0
TEXT
  5
3AF
  8
2
  6
CONTINUOUS
 10
673.638611
 20
-721.43512
 30
0.0
 40
63.560001
  1
４００
 41
0.9
  7
MONOTXT
  0
ENDBLK
  5
3B0
  8
0
  0
BLOCK
  5
3B2
  8
2
  2
*D43
 70
    65
 10
0.0
 20
0.0
 30
0.0
  3
*D43
  1

  0
POINT
  5
3B3
  8
DEFPOINTS
 10
506.464206
 20
-489.063165
 30
0.0
  0
POINT
  5
3B4
  8
DEFPOINTS
 10
591.445488
 20
-489.063165
 30
0.0
  0
POINT
  5
3B5
  8
DEFPOINTS
 10
473.31713
 20
-909.163298
 30
0.0
  0
LINE
  5
3B6
  8
2
  6
CONTINUOUS
 10
506.464206
 20
-500.413166
 30
0.0
 11
506.464206
 21
-920.513299
 31
0.0
  0
LINE
  5
3B7
  8
2
  6
CONTINUOUS
 10
591.445488
 20
-500.413166
 30
0.0
 11
591.445488
 21
-920.513299
 31
0.0
  0
LINE
  5
3B8
  8
2
  6
CONTINUOUS
 10
353.9202
 20
-909.163298
 30
0.0
 11
648.451092
 21
-909.163298
 31
0.0
  0
LINE
  5
3B9
  8
2
  6
CONTINUOUS
 10
468.460471
 20
-915.864382
 30
0.0
 11
506.464206
 21
-909.163298
 31
0.0
  0
LINE
  5
3BA
  8
2
  6
CONTINUOUS
 10
468.460471
 20
-902.462215
 30
0.0
 11
506.464206
 21
-909.163298
 31
0.0
  0
LINE
  5
3BB
  8
2
  6
CONTINUOUS
 10
629.449223
 20
-902.462215
 30
0.0
 11
591.445488
 21
-909.163298
 31
0.0
  0
LINE
  5
3BC
  8
2
  6
CONTINUOUS
 10
629.449223
 20
-915.864382
 30
0.0
 11
591.445488
 21
-909.163298
 31
0.0
  0
TEXT
  5
3BD
  8
2
  6
CONTINUOUS
 10
379.344208
 20
-904.623291
 30
0.0
 40
63.560001
  1
８５
 41
0.9
  7
MONOTXT
  0
ENDBLK
  5
3BE
  8
0
  0
BLOCK
  5
3C0
  8
2
  2
*D44
 70
    65
 10
0.0
 20
0.0
 30
0.0
  3
*D44
  1

  0
POINT
  5
3C1
  8
DEFPOINTS
 10
282.741929
 20
-595.574286
 30
0.0
  0
POINT
  5
3C2
  8
DEFPOINTS
 10
500.882965
 20
-438.574286
 30
0.0
  0
POINT
  5
3C3
  8
DEFPOINTS
 10
65.469368
 20
-425.666869
 30
0.0
  0
LINE
  5
3C4
  8
2
  6
CONTINUOUS
 10
271.391928
 20
-595.574286
 30
0.0
 11
54.119368
 21
-595.574286
 31
0.0
  0
LINE
  5
3C5
  8
2
  6
CONTINUOUS
 10
489.532964
 20
-438.574286
 30
0.0
 11
54.119368
 21
-438.574286
 31
0.0
  0
LINE
  5
3C6
  8
2
  6
CONTINUOUS
 10
65.469368
 20
-652.57989
 30
0.0
 11
65.469368
 21
-381.568682
 31
0.0
  0
LINE
  5
3C7
  8
2
  6
CONTINUOUS
 10
72.170453
 20
-633.578021
 30
0.0
 11
65.469368
 21
-595.574286
 31
0.0
  0
LINE
  5
3C8
  8
2
  6
CONTINUOUS
 10
58.768286
 20
-633.578022
 30
0.0
 11
65.469368
 21
-595.574286
 31
0.0
  0
LINE
  5
3C9
  8
2
  6
CONTINUOUS
 10
58.768282
 20
-400.570551
 30
0.0
 11
65.469368
 21
-438.574286
 31
0.0
  0
LINE
  5
3CA
  8
2
  6
CONTINUOUS
 10
72.17045
 20
-400.570551
 30
0.0
 11
65.469368
 21
-438.574286
 31
0.0
  0
TEXT
  5
3CB
  8
2
  6
CONTINUOUS
 10
60.929371
 20
-593.346313
 30
0.0
 40
63.560001
  1
１５７
 50
90.000003
 41
0.9
  7
MONOTXT
  0
ENDBLK
  5
3CC
  8
0
  0
ENDSEC
  0
SECTION
  2
ENTITIES
  0
INSERT
  5
3CD
  8
1
  2
*U2
 10
0.0
 20
0.0
 30
0.0
  0
INSERT
  5
3CE
  8
1
  2
*U3
 10
0.0
 20
0.0
 30
0.0
  0
INSERT
  5
3CF
  8
1
  2
*U4
 10
0.0
 20
0.0
 30
0.0
  0
INSERT
  5
3D0
  8
1
  2
*U5
 10
0.0
 20
0.0
 30
0.0
  0
INSERT
  5
3D1
  8
1
  2
*U6
 10
0.0
 20
0.0
 30
0.0
  0
INSERT
  5
3D2
  8
1
  2
*U7
 10
0.0
 20
0.0
 30
0.0
  0
DIMENSION
  5
3D3
  8
2
  6
CONTINUOUS
 62
     7
  2
*D8
 10
566.283955
 20
58.209985
 30
0.0
 11
643.058195
 21
94.529985
 31
0.0
  1
６１５
 13
335.625884
 23
325.864002
 33
0.0
 14
950.490451
 24
143.055073
 34
0.0
  0
DIMENSION
  5
3D4
  8
2
  6
CONTINUOUS
 62
     7
  2
*D9
 10
677.647236
 20
1174.241454
 30
0.0
 11
642.651274
 21
1210.561495
 31
0.0
  1
６１５
 13
334.812141
 23
965.324874
 33
0.0
 14
950.490451
 24
1155.674387
 34
0.0
  0
DIMENSION
  5
3D5
  8
2
  6
CONTINUOUS
 62
     7
  2
*D10
 10
1853.351455
 20
536.952992
 30
0.0
 11
1817.031507
 21
650.292543
 31
0.0
  1
８６０～８９０（天井開口部）
 13
1582.851165
 23
212.888891
 33
0.0
 14
1582.851165
 24
1087.696202
 34
0.0
 50
90.000003
  0
DIMENSION
  5
3D6
  8
2
  6
CONTINUOUS
 62
     7
  2
*D11
 10
1753.582712
 20
536.952992
 30
0.0
 11
1717.262714
 21
650.233301
 31
0.0
  1
７８０（吊り位置）
 13
1524.133355
 23
262.389467
 33
0.0
 14
1524.254072
 24
1038.077131
 34
0.0
 50
90.000003
  0
DIMENSION
  5
3D7
  8
2
  6
CONTINUOUS
 62
     7
  2
*D12
 10
911.783946
 20
1366.280665
 30
0.0
 11
950.490491
 21
1402.600679
 31
0.0
  1
１２５０～１２８０（天井開口部）
 13
318.129738
 23
1087.696202
 33
0.0
 14
1582.851165
 24
1087.696202
 34
0.0
  0
DIMENSION
  5
3D8
  8
2
  6
CONTINUOUS
 62
     7
  2
*D13
 10
961.668318
 20
1260.276376
 30
0.0
 11
950.490433
 21
1296.596407
 31
0.0
  1
１０７０（吊り位置）
 13
416.718022
 23
1078.068323
 33
0.0
 14
1484.26288
 24
1078.068323
 34
0.0
  0
DIMENSION
  5
3D9
  8
2
  6
CONTINUOUS
 62
     7
  2
*D14
 10
881.644202
 20
-725.97513
 30
0.0
 11
1066.129739
 21
-689.655119
 31
0.0
  1
４０
 13
950.86632
 23
-680.640396
 33
0.0
 14
989.857732
 24
-479.619879
 34
0.0
  0
DIMENSION
  5
3DA
  8
2
  6
CONTINUOUS
 62
     7
  2
*D15
 10
1081.059748
 20
-234.948832
 30
0.0
 11
1081.126443
 21
-198.628828
 31
0.0
  1
３０
 13
974.861035
 23
-339.630662
 33
0.0
 14
1004.854429
 24
-339.630662
 34
0.0
  0
DIMENSION
  5
3DB
  8
2
  6
CONTINUOUS
 62
     7
  2
*D16
 10
1014.587899
 20
-54.525242
 30
0.0
 11
950.866351
 21
-18.20524
 31
0.0
  1
１２３０
 13
336.001753
 23
-303.438634
 33
0.0
 14
1565.730888
 24
-303.438634
 34
0.0
  0
DIMENSION
  5
3DC
  8
2
  6
CONTINUOUS
 62
     7
  2
*D17
 10
336.001753
 20
-54.525242
 30
0.0
 11
204.741861
 21
-18.20524
 31
0.0
  1
５５
 13
281.013865
 23
-595.574287
 33
0.0
 14
336.001753
 24
-303.438634
 34
0.0
  0
DIMENSION
  5
3DD
  8
2
  6
CONTINUOUS
 62
     7
  2
*D18
 10
1565.730888
 20
-54.525242
 30
0.0
 11
1696.990823
 21
-18.20524
 31
0.0
  1
５５
 13
1565.730888
 23
-303.438634
 33
0.0
 14
1620.718776
 24
-595.574287
 34
0.0
  0
DIMENSION
  5
3DE
  8
2
  6
CONTINUOUS
 62
     7
  2
*D19
 10
1047.748459
 20
-822.285278
 30
0.0
 11
989.857756
 21
-785.9653
 31
0.0
  1
７３５
 13
621.938771
 23
-463.603355
 33
0.0
 14
1357.776693
 24
-463.603355
 34
0.0
  0
DIMENSION
  5
3DF
  8
2
  6
CONTINUOUS
 62
     7
  2
*D20
 10
1753.582712
 20
262.389467
 30
0.0
 11
1717.262721
 21
-228.936648
 31
0.0
  1
１３５
 13
1355.777133
 23
-465.602915
 33
0.0
 14
1355.777133
 24
-330.632644
 34
0.0
 50
90.000003
  0
DIMENSION
  5
3E0
  8
2
  6
CONTINUOUS
 62
     7
  2
*D21
 10
-1688.015674
 20
-367.365986
 30
0.0
 11
-1724.335668
 21
-434.209842
 31
0.0
  1
２８０
 13
-1303.567766
 23
-572.779308
 33
0.0
 14
-1297.269153
 24
-295.640351
 34
0.0
 50
90.000003
  0
DIMENSION
  5
3E1
  8
2
  6
CONTINUOUS
 62
     7
  2
*D22
 10
-1688.015674
 20
-601.229438
 30
0.0
 11
-1724.335667
 21
-698.840355
 31
0.0
  1
５０
 13
-1230.723962
 23
-622.568341
 33
0.0
 14
-1303.567766
 24
-572.779308
 34
0.0
 50
90.000003
  0
DIMENSION
  5
3E2
  8
2
  6
CONTINUOUS
 62
     7
  2
*D23
 10
-1512.17255
 20
-526.231644
 30
0.0
 11
-1548.492528
 21
-485.69852
 31
0.0
  1
２２０
 13
-1360.055324
 23
-595.574287
 33
0.0
 14
-1203.586453
 24
-375.82269
 34
0.0
 50
90.000003
  0
DIMENSION
  5
3E3
  8
2
  6
CONTINUOUS
 62
     7
  2
*D24
 10
383.967495
 20
-54.525242
 30
0.0
 11
-885.159944
 21
-18.20524
 31
0.0
  1
８４０
 13
-1305.067435
 23
-303.438634
 33
0.0
 14
-465.252417
 24
-303.438634
 34
0.0
  0
DIMENSION
  5
3E4
  8
2
  6
CONTINUOUS
 62
     7
  2
*D25
 10
383.967495
 20
-54.525242
 30
0.0
 11
-333.992514
 21
-18.20524
 31
0.0
  1
５５
 13
-465.252417
 23
-303.438634
 33
0.0
 14
-410.264529
 24
-595.574287
 34
0.0
  0
DIMENSION
  5
3E5
  8
2
  6
CONTINUOUS
 62
     7
  2
*D26
 10
383.967495
 20
-54.525242
 30
0.0
 11
-1436.327292
 21
-18.20524
 31
0.0
  1
５５
 13
-1360.055324
 23
-595.574287
 33
0.0
 14
-1305.067435
 24
-303.438634
 34
0.0
  0
DIMENSION
  5
3E6
  8
2
  6
CONTINUOUS
 62
     7
  2
*D27
 10
737.889538
 20
-154.183866
 30
0.0
 11
-1032.127534
 21
-117.863859
 31
0.0
  1
２９５
 13
-1179.095183
 23
-347.00215
 33
0.0
 14
-885.159926
 24
-279.827816
 34
0.0
  0
DIMENSION
  5
3E7
  8
2
  6
CONTINUOUS
 62
     7
  2
*D28
 10
596.920589
 20
-725.97513
 30
0.0
 11
-1005.857027
 21
-689.655119
 31
0.0
  1
２４０
 13
-1126.554064
 23
-567.780409
 33
0.0
 14
-885.159926
 24
-671.481489
 34
0.0
  0
DIMENSION
  5
3E8
  8
2
  6
CONTINUOUS
 62
     7
  2
*D29
 10
669.904513
 20
-822.285278
 30
0.0
 11
-750.117464
 21
-785.9653
 31
0.0
  1
２７０
 13
-885.159926
 23
-671.481489
 33
0.0
 14
-615.075012
 24
-569.478993
 34
0.0
  0
DIMENSION
  5
3E9
  8
2
  6
CONTINUOUS
 62
     7
  2
*D30
 10
-88.965629
 20
-493.880203
 30
0.0
 11
-125.285627
 21
-445.607333
 31
0.0
  1
３００
 13
-410.264529
 23
-595.574287
 33
0.0
 14
-473.050699
 24
-295.640351
 34
0.0
 50
90.000003
  0
DIMENSION
  5
3EA
  8
2
  6
CONTINUOUS
 62
     7
  2
*D31
 10
-46.034098
 20
760.72913
 30
0.0
 11
-82.354097
 21
650.292569
 31
0.0
  1
９５０
 13
-225.65791
 23
175.397149
 33
0.0
 14
-225.65791
 24
1125.187944
 34
0.0
 50
90.000003
  0
DIMENSION
  5
3EB
  8
2
  6
CONTINUOUS
 62
     7
  2
*D32
 10
-1598.040046
 20
-579.282922
 30
0.0
 11
-1634.360081
 21
-496.507286
 31
0.0
  1
２０
 13
-1360.055324
 23
-595.574287
 33
0.0
 14
-1303.567766
 24
-572.779308
 34
0.0
 50
90.000003
  0
DIMENSION
  5
3EC
  8
2
  6
CONTINUOUS
 62
     7
  2
*D33
 10
-1598.040046
 20
-676.327942
 30
0.0
 11
-1634.360081
 21
-698.840355
 31
0.0
  1
３０
 13
-1230.723962
 23
-622.568341
 33
0.0
 14
-1360.055324
 24
-595.574287
 34
0.0
 50
90.000003
  0
DIMENSION
  5
3ED
  8
2
  6
CONTINUOUS
 62
     7
  2
*D34
 10
416.718022
 20
1260.276376
 30
0.0
 11
-885.512555
 21
1296.596407
 31
0.0
  1
１３４０
 13
-1555.365023
 23
1115.190146
 33
0.0
 14
-215.660112
 24
1115.190146
 34
0.0
  0
DIMENSION
  5
3EE
  8
2
  6
CONTINUOUS
 62
     7
  2
*D35
 10
2047.154882
 20
-499.631115
 30
0.0
 11
2010.834864
 21
-496.846042
 31
0.0
  1
２００
 13
1618.990712
 23
-595.574287
 33
0.0
 14
1379.142677
 24
-398.117779
 34
0.0
 50
90.000003
  0
DIMENSION
  5
3EF
  8
2
  6
CONTINUOUS
 62
     7
  2
*D36
 10
1958.471556
 20
-513.274704
 30
0.0
 11
1922.151515
 21
-519.790988
 31
0.0
  1
１５５
 13
1618.990712
 23
-595.574287
 33
0.0
 14
1516.972972
 24
-444.007671
 34
0.0
 50
90.000003
  0
DIMENSION
  5
3F0
  8
2
  6
CONTINUOUS
 62
     7
  2
*D37
 10
-174.881624
 20
-516.791135
 30
0.0
 11
-211.20162
 21
-515.592441
 31
0.0
  1
１６０
 13
-412.264088
 23
-595.574287
 33
0.0
 14
-547.896643
 24
-435.610622
 34
0.0
 50
90.000003
  0
DIMENSION
  5
3F1
  8
2
  6
CONTINUOUS
 62
     7
  2
*D38
 10
554.429948
 20
-909.163298
 30
0.0
 11
-728.944307
 21
-872.84329
 31
0.0
  1
３１５
 13
-885.159926
 23
-671.481489
 33
0.0
 14
-572.728739
 24
-498.596765
 34
0.0
  0
DIMENSION
  5
3F2
  8
2
  6
CONTINUOUS
 62
     7
  2
*D39
 10
596.920589
 20
-725.97513
 30
0.0
 11
-756.188326
 21
-689.655119
 31
0.0
  1
２６０
 13
-885.159926
 23
-671.481489
 33
0.0
 14
-627.216749
 24
-482.316557
 34
0.0
  0
DIMENSION
  5
3F3
  8
2
  6
CONTINUOUS
 62
     7
  2
*D40
 10
-260.797619
 20
-533.974334
 30
0.0
 11
-297.11762
 21
-528.04526
 31
0.0
  1
１３５
 13
-412.264088
 23
-595.574287
 33
0.0
 14
-605.503106
 24
-460.602915
 34
0.0
 50
90.000003
  0
DIMENSION
  5
3F4
  8
2
  6
CONTINUOUS
 62
     7
  2
*D41
 10
210.956132
 20
-468.818149
 30
0.0
 11
174.636134
 21
-284.389865
 31
0.0
  1
１０５
 13
508.463766
 23
-491.062725
 33
0.0
 14
508.463766
 24
-386.085848
 34
0.0
 50
90.000003
  0
DIMENSION
  5
3F5
  8
2
  6
CONTINUOUS
 62
     7
  2
*D42
 10
810.424364
 20
-725.97513
 30
0.0
 11
749.910612
 21
-689.655119
 31
0.0
  1
４００
 13
548.954847
 23
-493.391575
 33
0.0
 14
950.86632
 24
-680.640396
 34
0.0
  0
DIMENSION
  5
3F6
  8
2
  6
CONTINUOUS
 62
     7
  2
*D43
 10
473.31713
 20
-909.163298
 30
0.0
 11
430.192209
 21
-872.84329
 31
0.0
  1
８５
 13
506.464206
 23
-489.063165
 33
0.0
 14
591.445488
 24
-489.063165
 34
0.0
  0
DIMENSION
  5
3F7
  8
2
  6
CONTINUOUS
 62
     7
  2
*D44
 10
65.469368
 20
-425.666869
 30
0.0
 11
29.149367
 21
-517.074313
 31
0.0
  1
１５７
 13
282.741929
 23
-595.574286
 33
0.0
 14
500.882965
 24
-438.574286
 34
0.0
 50
90.000003
  0
LINE
  5
3F8
  8
1
 10
417.212887
 20
1070.102016
 30
0.0
 11
418.838874
 21
1068.476028
 31
0.0
  0
LINE
  5
3F9
  8
1
 10
334.626104
 20
933.681195
 30
0.0
 11
334.626104
 21
965.080249
 31
0.0
  0
ARC
  5
3FA
  8
1
 10
338.806929
 20
1016.270677
 30
0.0
 40
0.299934
 50
90.572939
 51
180.0
  0
ARC
  5
3FB
  8
1
 10
338.806929
 20
984.871623
 30
0.0
 40
0.299934
 50
180.0
 51
269.427061
  0
LINE
  5
3FC
  8
1
  6
DASHDOT
 10
316.563339
 20
650.292546
 30
0.0
 11
369.348581
 21
650.292546
 31
0.0
  0
LINE
  5
3FD
  8
1
  6
DASHDOT
 10
-885.159926
 20
-671.481489
 30
0.0
 11
-885.159926
 21
-279.827816
 31
0.0
  0
LINE
  5
3FE
  8
1
  6
DASHDOT
 10
950.490451
 20
143.055073
 30
0.0
 11
950.490451
 21
1155.674387
 31
0.0
  0
LINE
  5
3FF
  8
1
 10
1620.342915
 20
-595.574287
 30
0.0
 11
281.389726
 21
-595.574286
 31
0.0
  0
LINE
  5
400
  8
1
  6
DIVIDE
 10
318.129738
 20
1087.696202
 30
0.0
 11
318.129738
 21
212.888891
 31
0.0
  0
LINE
  5
401
  8
1
  6
DIVIDE
 10
318.129738
 20
212.888891
 30
0.0
 11
1582.851165
 21
212.888891
 31
0.0
  0
LINE
  5
402
  8
1
  6
DIVIDE
 10
1582.851165
 20
212.888891
 30
0.0
 11
1582.851165
 21
1087.696202
 31
0.0
  0
LINE
  5
403
  8
1
  6
DIVIDE
 10
1582.851165
 20
1087.696202
 30
0.0
 11
318.129738
 21
1087.696202
 31
0.0
  0
LINE
  5
404
  8
1
  6
DASHDOT
 10
458.068412
 20
262.767985
 30
0.0
 11
378.08603
 21
262.767985
 31
0.0
  0
LINE
  5
405
  8
1
  6
DASHDOT
 10
418.077221
 20
302.759176
 30
0.0
 11
418.077221
 21
222.776793
 31
0.0
  0
LINE
  5
406
  8
1
  6
DASHDOT
 10
1524.254072
 20
1038.077131
 30
0.0
 11
1444.271689
 21
1038.077131
 31
0.0
  0
LINE
  5
407
  8
1
  6
DASHDOT
 10
1484.26288
 20
1078.068323
 30
0.0
 11
1484.26288
 21
998.08594
 31
0.0
  0
LINE
  5
408
  8
1
  6
DASHDOT
 10
456.709214
 20
1038.077131
 30
0.0
 11
376.726831
 21
1038.077131
 31
0.0
  0
LINE
  5
409
  8
1
  6
DASHDOT
 10
416.718022
 20
1078.068323
 30
0.0
 11
416.718022
 21
998.08594
 31
0.0
  0
LINE
  5
40A
  8
1
  6
DASHDOT
 10
1524.133355
 20
262.389467
 30
0.0
 11
1444.150972
 21
262.389467
 31
0.0
  0
LINE
  5
40B
  8
1
  6
DASHDOT
 10
1484.142164
 20
302.380658
 30
0.0
 11
1484.142164
 21
222.398275
 31
0.0
  0
LINE
  5
40C
  8
1
 10
-638.214326
 20
-454.25346
 30
0.0
 11
-627.216749
 21
-447.904006
 31
0.0
  0
LINE
  5
40D
  8
1
 10
-627.216749
 20
-447.904006
 30
0.0
 11
-616.219171
 21
-454.25346
 31
0.0
  0
LINE
  5
40E
  8
1
 10
-616.219171
 20
-466.952369
 30
0.0
 11
-616.219171
 21
-454.25346
 31
0.0
  0
LINE
  5
40F
  8
1
 10
-627.216749
 20
-473.301824
 30
0.0
 11
-616.219171
 21
-466.952369
 31
0.0
  0
LINE
  5
410
  8
1
 10
-638.214326
 20
-466.952369
 30
0.0
 11
-627.216749
 21
-473.301824
 31
0.0
  0
CIRCLE
  5
411
  8
1
 10
-627.216749
 20
-460.602915
 30
0.0
 40
4.499009
  0
LINE
  5
412
  8
1
  6
DASHDOT
 10
-605.503106
 20
-460.602915
 30
0.0
 11
-648.930391
 21
-460.602915
 31
0.0
  0
LINE
  5
413
  8
1
  6
DASHDOT
 10
-627.216749
 20
-438.889272
 30
0.0
 11
-627.216749
 21
-482.316557
 31
0.0
  0
LINE
  5
414
  8
1
 10
-638.214326
 20
-466.952369
 30
0.0
 11
-638.214326
 21
-454.25346
 31
0.0
  0
LINE
  5
415
  8
1
  6
DIVIDE
 10
-547.896643
 20
-435.610622
 30
0.0
 11
-597.560835
 21
-435.610622
 31
0.0
  0
LINE
  5
416
  8
1
 10
-572.728739
 20
-420.025598
 30
0.0
 11
-586.225766
 21
-427.81811
 31
0.0
  0
LINE
  5
417
  8
1
 10
-559.231712
 20
-427.81811
 30
0.0
 11
-572.728739
 21
-420.025598
 31
0.0
  0
CIRCLE
  5
418
  8
1
 10
-572.728739
 20
-435.610622
 30
0.0
 40
7.948249
  0
LINE
  5
419
  8
1
 10
-572.728739
 20
-451.195647
 30
0.0
 11
-586.225766
 21
-443.403134
 31
0.0
  0
LINE
  5
41A
  8
1
 10
-559.231712
 20
-443.403134
 30
0.0
 11
-572.728739
 21
-451.195647
 31
0.0
  0
LINE
  5
41B
  8
1
 10
-559.231712
 20
-443.403134
 30
0.0
 11
-559.231712
 21
-427.81811
 31
0.0
  0
LINE
  5
41C
  8
1
 10
-586.225766
 20
-443.403134
 30
0.0
 11
-586.225766
 21
-427.81811
 31
0.0
  0
LINE
  5
41D
  8
1
  6
DASHDOT
 10
-572.728739
 20
-498.596765
 30
0.0
 11
-572.728739
 21
-410.778526
 31
0.0
  0
LINE
  5
41E
  8
1
 10
-1159.099587
 20
-482.599171
 30
0.0
 11
-1199.090778
 21
-482.599171
 31
0.0
  0
LINE
  5
41F
  8
1
 10
-1202.090118
 20
-479.599832
 30
0.0
 11
-1202.090118
 21
-427.611283
 31
0.0
  0
LINE
  5
420
  8
1
 10
-1156.100248
 20
-479.599832
 30
0.0
 11
-1156.100248
 21
-427.611283
 31
0.0
  0
ARC
  5
421
  8
1
 10
-1199.090778
 20
-479.599832
 30
0.0
 40
2.999339
 50
180.0
 51
270.0
  0
ARC
  5
422
  8
1
 10
-1159.099587
 20
-479.599832
 30
0.0
 40
2.999339
 50
270.0
 51
0.0
  0
LINE
  5
423
  8
1
 10
-1159.099587
 20
-424.611944
 30
0.0
 11
-1199.090778
 21
-424.611944
 31
0.0
  0
ARC
  5
424
  8
1
 10
-539.59589
 20
-422.612384
 30
0.0
 40
199.955957
 50
270.0
 51
276.280768
  0
LINE
  5
425
  8
1
 10
-471.251095
 20
-582.577149
 30
0.0
 11
-479.249334
 21
-582.577149
 31
0.0
  0
LINE
  5
426
  8
1
 10
-421.262106
 20
-595.574287
 30
0.0
 11
-412.264088
 21
-595.574287
 31
0.0
  0
LINE
  5
427
  8
1
 10
-410.264529
 20
-600.453294
 30
0.0
 11
-410.264529
 21
-595.574287
 31
0.0
  0
LINE
  5
428
  8
1
 10
-410.264529
 20
-600.453294
 30
0.0
 11
-414.263648
 21
-604.452413
 31
0.0
  0
ARC
  5
429
  8
1
 10
-627.097151
 20
372.410687
 30
0.0
 40
999.779784
 50
276.280768
 51
282.291204
  0
LINE
  5
42A
  8
1
 10
-471.251095
 20
-595.574287
 30
0.0
 11
-469.251536
 21
-595.574287
 31
0.0
  0
ARC
  5
42B
  8
1
 10
-1230.723962
 20
-422.612384
 30
0.0
 40
199.955957
 50
263.719232
 51
270.0
  0
LINE
  5
42C
  8
1
 10
-1299.068757
 20
-582.577149
 30
0.0
 11
-1291.070518
 21
-582.577149
 31
0.0
  0
LINE
  5
42D
  8
1
 10
-1349.057746
 20
-595.574287
 30
0.0
 11
-1358.055764
 21
-595.574287
 31
0.0
  0
LINE
  5
42E
  8
1
 10
-1360.055324
 20
-600.453294
 30
0.0
 11
-1360.055324
 21
-595.574287
 31
0.0
  0
LINE
  5
42F
  8
1
 10
-1360.055324
 20
-600.453294
 30
0.0
 11
-1356.056204
 21
-604.452413
 31
0.0
  0
ARC
  5
430
  8
1
 10
-1143.222701
 20
372.410687
 30
0.0
 40
999.779784
 50
257.708796
 51
263.719232
  0
LINE
  5
431
  8
1
 10
-1228.787774
 20
-572.779307
 30
0.0
 11
-1241.698639
 21
-572.779307
 31
0.0
  0
LINE
  5
432
  8
1
 10
-1229.918896
 20
-571.17966
 30
0.0
 11
-1232.039749
 21
-571.17966
 31
0.0
  0
LINE
  5
433
  8
1
 10
-1239.109259
 20
-561.181863
 30
0.0
 11
-1248.299623
 21
-561.181863
 31
0.0
  0
LINE
  5
434
  8
1
 10
-1239.909083
 20
-562.312985
 30
0.0
 11
-1249.099447
 21
-562.312985
 31
0.0
  0
LINE
  5
435
  8
1
 10
-1239.109259
 20
-561.181863
 30
0.0
 11
-1232.039749
 21
-571.17966
 31
0.0
  0
LINE
  5
436
  8
1
 10
-1239.909083
 20
-562.312985
 30
0.0
 11
-1239.109259
 21
-561.181863
 31
0.0
  0
LINE
  5
437
  8
1
 10
-1239.909083
 20
-562.312985
 30
0.0
 11
-1232.508275
 21
-572.779307
 31
0.0
  0
LINE
  5
438
  8
1
 10
-1249.099447
 20
-562.312985
 30
0.0
 11
-1241.698639
 21
-572.779307
 31
0.0
  0
LINE
  5
439
  8
1
 10
-1249.099447
 20
-562.312985
 30
0.0
 11
-1248.299623
 21
-561.181863
 31
0.0
  0
LINE
  5
43A
  8
1
 10
-1280.819372
 20
-572.779307
 30
0.0
 11
-1280.819372
 21
-540.786354
 31
0.0
  0
LINE
  5
43B
  8
1
 10
-1228.787774
 20
-572.779307
 30
0.0
 11
-1228.787774
 21
-540.12376
 31
0.0
  0
LINE
  5
43C
  8
1
 10
-1229.918896
 20
-571.17966
 30
0.0
 11
-1229.918896
 21
-540.786354
 31
0.0
  0
LINE
  5
43D
  8
1
 10
-1249.289354
 20
-572.779307
 30
0.0
 11
-1289.050149
 21
-572.779307
 31
0.0
  0
LINE
  5
43E
  8
1
 10
-1230.908627
 20
-537.12442
 30
0.0
 11
-1230.908627
 21
-447.206965
 31
0.0
  0
LINE
  5
43F
  8
1
 10
-1232.039749
 20
-537.787015
 30
0.0
 11
-1232.039749
 21
-453.805512
 31
0.0
  0
LINE
  5
440
  8
1
 10
-1232.039749
 20
-537.787015
 30
0.0
 11
-1229.918896
 21
-540.786354
 31
0.0
  0
LINE
  5
441
  8
1
 10
-1230.908627
 20
-537.12442
 30
0.0
 11
-1228.787774
 21
-540.12376
 31
0.0
  0
LINE
  5
442
  8
1
 10
-1232.039749
 20
-537.787015
 30
0.0
 11
-1282.940225
 21
-537.787015
 31
0.0
  0
LINE
  5
443
  8
1
 10
-1229.918896
 20
-540.786354
 30
0.0
 11
-1280.819372
 21
-540.786354
 31
0.0
  0
LINE
  5
444
  8
1
 10
-1282.940225
 20
-537.787015
 30
0.0
 11
-1282.940225
 21
-460.803971
 31
0.0
  0
LINE
  5
445
  8
1
 10
-1282.940225
 20
-537.787015
 30
0.0
 11
-1280.819372
 21
-540.786354
 31
0.0
  0
LINE
  5
446
  8
1
 10
-1303.567766
 20
-572.779308
 30
0.0
 11
-1143.250471
 21
-572.779308
 31
0.0
  0
CIRCLE
  5
447
  8
1
 10
-1179.095183
 20
-375.82269
 30
0.0
 40
14.496807
  0
LINE
  5
448
  8
1
 10
-1209.040441
 20
-572.779308
 30
0.0
 11
-1209.040441
 21
-295.640351
 31
0.0
  0
LINE
  5
449
  8
1
 10
-1148.963724
 20
-572.779308
 30
0.0
 11
-1148.963724
 21
-295.640351
 31
0.0
  0
LINE
  5
44A
  8
1
 10
-1092.66153
 20
-572.779308
 30
0.0
 11
-1092.66153
 21
-295.640351
 31
0.0
  0
LINE
  5
44B
  8
1
 10
-715.489999
 20
-572.779308
 30
0.0
 11
-715.489999
 21
-300.13936
 31
0.0
  0
LINE
  5
44C
  8
1
 10
-661.425556
 20
-572.779308
 30
0.0
 11
-661.425556
 21
-300.13936
 31
0.0
  0
LINE
  5
44D
  8
1
 10
-1148.963724
 20
-572.779308
 30
0.0
 11
-647.914628
 21
-572.779308
 31
0.0
  0
LINE
  5
44E
  8
1
 10
-1305.067435
 20
-595.574287
 30
0.0
 11
-1305.067435
 21
-303.438634
 31
0.0
  0
LINE
  5
44F
  8
1
 10
-465.252417
 20
-595.574287
 30
0.0
 11
-465.252417
 21
-303.438634
 31
0.0
  0
LINE
  5
450
  8
1
 10
-410.264529
 20
-595.574287
 30
0.0
 11
-1360.055324
 21
-595.574287
 31
0.0
  0
LINE
  5
451
  8
1
 10
-473.050699
 20
-295.640351
 30
0.0
 11
-1297.269153
 21
-295.640351
 31
0.0
  0
LINE
  5
452
  8
1
 10
-465.252417
 20
-582.577149
 30
0.0
 11
-1305.067435
 21
-582.577149
 31
0.0
  0
LINE
  5
453
  8
1
 10
-541.673828
 20
-572.779308
 30
0.0
 11
-528.762963
 21
-572.779308
 31
0.0
  0
LINE
  5
454
  8
1
 10
-540.542706
 20
-571.17966
 30
0.0
 11
-538.421853
 21
-571.17966
 31
0.0
  0
LINE
  5
455
  8
1
 10
-531.352342
 20
-561.181863
 30
0.0
 11
-522.161978
 21
-561.181863
 31
0.0
  0
LINE
  5
456
  8
1
 10
-530.552518
 20
-562.312985
 30
0.0
 11
-521.362154
 21
-562.312985
 31
0.0
  0
LINE
  5
457
  8
1
 10
-531.352342
 20
-561.181863
 30
0.0
 11
-538.421853
 21
-571.17966
 31
0.0
  0
LINE
  5
458
  8
1
 10
-530.552518
 20
-562.312985
 30
0.0
 11
-531.352342
 21
-561.181863
 31
0.0
  0
LINE
  5
459
  8
1
 10
-530.552518
 20
-562.312985
 30
0.0
 11
-537.953326
 21
-572.779308
 31
0.0
  0
LINE
  5
45A
  8
1
 10
-521.362154
 20
-562.312985
 30
0.0
 11
-528.762963
 21
-572.779308
 31
0.0
  0
LINE
  5
45B
  8
1
 10
-521.362154
 20
-562.312985
 30
0.0
 11
-522.161978
 21
-561.181863
 31
0.0
  0
LINE
  5
45C
  8
1
 10
-489.642229
 20
-572.779308
 30
0.0
 11
-489.642229
 21
-540.786355
 31
0.0
  0
LINE
  5
45D
  8
1
 10
-541.673828
 20
-572.779308
 30
0.0
 11
-541.673828
 21
-540.12376
 31
0.0
  0
LINE
  5
45E
  8
1
 10
-540.542706
 20
-571.17966
 30
0.0
 11
-540.542706
 21
-540.786355
 31
0.0
  0
LINE
  5
45F
  8
1
 10
-521.172247
 20
-572.779308
 30
0.0
 11
-481.411453
 21
-572.779308
 31
0.0
  0
LINE
  5
460
  8
1
 10
-539.552974
 20
-537.124421
 30
0.0
 11
-539.552974
 21
-447.206966
 31
0.0
  0
LINE
  5
461
  8
1
 10
-538.421853
 20
-537.787016
 30
0.0
 11
-538.421853
 21
-453.805512
 31
0.0
  0
LINE
  5
462
  8
1
 10
-538.421853
 20
-537.787016
 30
0.0
 11
-540.542706
 21
-540.786355
 31
0.0
  0
LINE
  5
463
  8
1
 10
-539.552974
 20
-537.124421
 30
0.0
 11
-541.673828
 21
-540.12376
 31
0.0
  0
LINE
  5
464
  8
1
 10
-538.421853
 20
-537.787016
 30
0.0
 11
-487.521376
 21
-537.787016
 31
0.0
  0
LINE
  5
465
  8
1
 10
-540.542706
 20
-540.786355
 30
0.0
 11
-489.642229
 21
-540.786355
 31
0.0
  0
LINE
  5
466
  8
1
 10
-487.521376
 20
-537.787016
 30
0.0
 11
-489.642229
 21
-540.786355
 31
0.0
  0
ARC
  5
467
  8
1
 10
-1199.090778
 20
-427.611283
 30
0.0
 40
2.999339
 50
90.0
 51
180.0
  0
ARC
  5
468
  8
1
 10
-1159.099587
 20
-427.611283
 30
0.0
 40
2.999339
 50
0.0
 51
90.0
  0
CIRCLE
  5
469
  8
1
 10
-1179.095183
 20
-375.82269
 30
0.0
 40
19.466983
  0
LINE
  5
46A
  8
1
 10
-465.252417
 20
-572.779308
 30
0.0
 11
-1302.62882
 21
-572.779308
 31
0.0
  0
LINE
  5
46B
  8
1
 10
-539.59589
 20
-622.568341
 30
0.0
 11
-1230.723962
 21
-622.568341
 31
0.0
  0
LINE
  5
46C
  8
1
 10
-1555.365023
 20
185.394946
 30
0.0
 11
-1555.365023
 21
1115.190146
 31
0.0
  0
LINE
  5
46D
  8
1
 10
-215.660112
 20
185.394946
 30
0.0
 11
-215.660112
 21
1115.190146
 31
0.0
  0
LINE
  5
46E
  8
1
 10
-1545.367225
 20
1125.187944
 30
0.0
 11
-225.65791
 21
1125.187944
 31
0.0
  0
LINE
  5
46F
  8
1
 10
-1545.367225
 20
175.397149
 30
0.0
 11
-225.65791
 21
175.397149
 31
0.0
  0
ARC
  5
470
  8
1
 10
-225.65791
 20
1115.190146
 30
0.0
 40
9.997798
 50
0.0
 51
90.0
  0
ARC
  5
471
  8
1
 10
-225.65791
 20
185.394946
 30
0.0
 40
9.997798
 50
270.0
 51
0.0
  0
ARC
  5
472
  8
1
 10
-1545.367225
 20
185.394946
 30
0.0
 40
9.997798
 50
180.0
 51
270.0
  0
ARC
  5
473
  8
1
 10
-1545.367225
 20
1115.190146
 30
0.0
 40
9.997798
 50
90.0
 51
180.0
  0
LINE
  5
474
  8
1
 10
-1503.376474
 20
400.3476
 30
0.0
 11
-1428.39299
 21
400.3476
 31
0.0
  0
LINE
  5
475
  8
1
 10
-885.512567
 20
392.349362
 30
0.0
 11
-885.512567
 21
908.23573
 31
0.0
  0
LINE
  5
476
  8
1
 10
-1330.414571
 20
227.385697
 30
0.0
 11
-1330.414571
 21
302.369181
 31
0.0
  0
LINE
  5
477
  8
1
 10
-1503.376474
 20
230.385037
 30
0.0
 11
-1503.376474
 21
1067.200716
 31
0.0
  0
LINE
  5
478
  8
1
 10
-273.647339
 20
227.385697
 30
0.0
 11
-1500.377135
 21
227.385697
 31
0.0
  0
LINE
  5
479
  8
1
 10
-267.648661
 20
233.384376
 30
0.0
 11
-267.648661
 21
1067.200716
 31
0.0
  0
ARC
  5
47A
  8
1
 10
-273.647339
 20
233.384376
 30
0.0
 40
5.998679
 50
270.0
 51
0.0
  0
LINE
  5
47B
  8
1
 10
-273.647339
 20
1073.199395
 30
0.0
 11
-1497.377795
 21
1073.199395
 31
0.0
  0
ARC
  5
47C
  8
1
 10
-1497.377795
 20
1067.200716
 30
0.0
 40
5.998679
 50
90.0
 51
180.0
  0
ARC
  5
47D
  8
1
 10
-273.647339
 20
1067.200716
 30
0.0
 40
5.998679
 50
0.0
 51
90.0
  0
LINE
  5
47E
  8
1
 10
-1428.39299
 20
390.349802
 30
0.0
 11
-1428.39299
 21
910.23529
 31
0.0
  0
LINE
  5
47F
  8
1
 10
-430.612765
 20
302.369181
 30
0.0
 11
-1340.412369
 21
302.369181
 31
0.0
  0
LINE
  5
480
  8
1
 10
-1499.377355
 20
390.349802
 30
0.0
 11
-1499.377355
 21
400.3476
 31
0.0
  0
LINE
  5
481
  8
1
 10
-1499.377355
 20
390.349802
 30
0.0
 11
-1388.401799
 21
390.349802
 31
0.0
  0
LINE
  5
482
  8
1
 10
-440.610563
 20
227.385697
 30
0.0
 11
-440.610563
 21
302.369181
 31
0.0
  0
LINE
  5
483
  8
1
 10
-1503.376474
 20
900.237492
 30
0.0
 11
-1428.39299
 21
900.237492
 31
0.0
  0
LINE
  5
484
  8
1
 10
-1330.414571
 20
1073.199395
 30
0.0
 11
-1330.414571
 21
998.215911
 31
0.0
  0
LINE
  5
485
  8
1
 10
-430.612765
 20
998.215911
 30
0.0
 11
-1340.412369
 21
998.215911
 31
0.0
  0
LINE
  5
486
  8
1
 10
-440.610563
 20
1073.199395
 30
0.0
 11
-440.610563
 21
998.215911
 31
0.0
  0
LINE
  5
487
  8
1
 10
-267.648661
 20
900.237492
 30
0.0
 11
-342.632144
 21
900.237492
 31
0.0
  0
LINE
  5
488
  8
1
 10
-342.632144
 20
390.349802
 30
0.0
 11
-342.632144
 21
910.23529
 31
0.0
  0
LINE
  5
489
  8
1
 10
-267.648661
 20
400.3476
 30
0.0
 11
-342.632144
 21
400.3476
 31
0.0
  0
LINE
  5
48A
  8
1
 10
-1484.380658
 20
400.3476
 30
0.0
 11
-1484.380658
 21
900.237492
 31
0.0
  0
LINE
  5
48B
  8
1
 10
-440.610563
 20
246.381513
 30
0.0
 11
-1330.414571
 21
246.381513
 31
0.0
  0
LINE
  5
48C
  8
1
 10
-440.610563
 20
1054.203579
 30
0.0
 11
-1330.414571
 21
1054.203579
 31
0.0
  0
LINE
  5
48D
  8
1
 10
-286.644477
 20
400.3476
 30
0.0
 11
-286.644477
 21
900.237492
 31
0.0
  0
ARC
  5
48E
  8
1
 10
-388.622015
 20
952.226041
 30
0.0
 40
5.998679
 50
0.0
 51
90.0
  0
LINE
  5
48F
  8
1
 10
-382.623336
 20
348.359051
 30
0.0
 11
-382.623336
 21
952.226041
 31
0.0
  0
LINE
  5
490
  8
1
 10
-388.622015
 20
342.360373
 30
0.0
 11
-1382.40312
 21
342.360373
 31
0.0
  0
LINE
  5
491
  8
1
 10
-1388.401799
 20
348.359051
 30
0.0
 11
-1388.401799
 21
952.226041
 31
0.0
  0
LINE
  5
492
  8
1
 10
-388.622015
 20
958.22472
 30
0.0
 11
-1382.40312
 21
958.22472
 31
0.0
  0
ARC
  5
493
  8
1
 10
-1382.40312
 20
952.226041
 30
0.0
 40
5.998679
 50
90.0
 51
180.0
  0
LINE
  5
494
  8
1
 10
-1499.377355
 20
234.384156
 30
0.0
 11
-1499.377355
 21
390.349802
 31
0.0
  0
LINE
  5
495
  8
1
 10
-1340.412369
 20
231.384817
 30
0.0
 11
-1496.378015
 21
231.384817
 31
0.0
  0
ARC
  5
496
  8
1
 10
-1496.378015
 20
234.384156
 30
0.0
 40
2.999339
 50
180.0
 51
270.0
  0
ARC
  5
497
  8
1
 10
-1382.40312
 20
348.359051
 30
0.0
 40
5.998679
 50
180.0
 51
270.0
  0
LINE
  5
498
  8
1
 10
-1341.412149
 20
342.360373
 30
0.0
 11
-1382.40312
 21
342.360373
 31
0.0
  0
LINE
  5
499
  8
1
 10
-1388.401799
 20
348.359051
 30
0.0
 11
-1388.401799
 21
389.350022
 31
0.0
  0
ARC
  5
49A
  8
1
 10
-388.622015
 20
348.359051
 30
0.0
 40
5.998679
 50
270.0
 51
0.0
  0
LINE
  5
49B
  8
1
 10
-1340.412369
 20
231.384817
 30
0.0
 11
-1330.414571
 21
231.384817
 31
0.0
  0
LINE
  5
49C
  8
1
 10
-1340.412369
 20
231.384817
 30
0.0
 11
-1340.412369
 21
342.360373
 31
0.0
  0
LINE
  5
49D
  8
1
 10
-430.612765
 20
231.384817
 30
0.0
 11
-430.612765
 21
342.360373
 31
0.0
  0
LINE
  5
49E
  8
1
 10
-430.612765
 20
231.384817
 30
0.0
 11
-440.610563
 21
231.384817
 31
0.0
  0
LINE
  5
49F
  8
1
 10
-271.64778
 20
390.349802
 30
0.0
 11
-382.623336
 21
390.349802
 31
0.0
  0
LINE
  5
4A0
  8
1
 10
-271.64778
 20
390.349802
 30
0.0
 11
-271.64778
 21
400.3476
 31
0.0
  0
LINE
  5
4A1
  8
1
 10
-271.64778
 20
910.23529
 30
0.0
 11
-382.623336
 21
910.23529
 31
0.0
  0
LINE
  5
4A2
  8
1
 10
-271.64778
 20
910.23529
 30
0.0
 11
-271.64778
 21
900.237492
 31
0.0
  0
LINE
  5
4A3
  8
1
 10
-430.612765
 20
1069.200276
 30
0.0
 11
-430.612765
 21
958.22472
 31
0.0
  0
LINE
  5
4A4
  8
1
 10
-430.612765
 20
1069.200276
 30
0.0
 11
-440.610563
 21
1069.200276
 31
0.0
  0
LINE
  5
4A5
  8
1
 10
-1340.412369
 20
1069.200276
 30
0.0
 11
-1340.412369
 21
958.22472
 31
0.0
  0
LINE
  5
4A6
  8
1
 10
-1340.412369
 20
1069.200276
 30
0.0
 11
-1330.414571
 21
1069.200276
 31
0.0
  0
LINE
  5
4A7
  8
1
 10
-1499.377355
 20
910.23529
 30
0.0
 11
-1388.401799
 21
910.23529
 31
0.0
  0
LINE
  5
4A8
  8
1
 10
-1499.377355
 20
910.23529
 30
0.0
 11
-1499.377355
 21
900.237492
 31
0.0
  0
ARC
  5
4A9
  8
1
 10
-1500.377135
 20
230.385037
 30
0.0
 40
2.999339
 50
180.0
 51
270.0
  0
LINE
  5
4AA
  8
1
 10
-377.624437
 20
921.732758
 30
0.0
 11
-377.624437
 21
921.232868
 31
0.0
  0
ARC
  5
4AB
  8
1
 10
-1382.40312
 20
348.359051
 30
0.0
 40
5.998679
 50
180.0
 51
270.0
  0
LINE
  5
4AC
  8
1
 10
-271.64778
 20
234.384156
 30
0.0
 11
-271.64778
 21
390.349802
 31
0.0
  0
LINE
  5
4AD
  8
1
 10
-430.612765
 20
231.384817
 30
0.0
 11
-274.647119
 21
231.384817
 31
0.0
  0
ARC
  5
4AE
  8
1
 10
-274.647119
 20
234.384156
 30
0.0
 40
2.999339
 50
270.0
 51
0.0
  0
ARC
  5
4AF
  8
1
 10
-388.622015
 20
348.359051
 30
0.0
 40
5.998679
 50
270.0
 51
0.0
  0
LINE
  5
4B0
  8
1
 10
-429.612986
 20
342.360373
 30
0.0
 11
-388.622015
 21
342.360373
 31
0.0
  0
LINE
  5
4B1
  8
1
 10
-382.623336
 20
348.359051
 30
0.0
 11
-382.623336
 21
389.350022
 31
0.0
  0
LINE
  5
4B2
  8
1
 10
-271.64778
 20
1066.200936
 30
0.0
 11
-271.64778
 21
910.23529
 31
0.0
  0
LINE
  5
4B3
  8
1
 10
-430.612765
 20
1069.200276
 30
0.0
 11
-274.647119
 21
1069.200276
 31
0.0
  0
ARC
  5
4B4
  8
1
 10
-274.647119
 20
1066.200936
 30
0.0
 40
2.999339
 50
0.0
 51
90.0
  0
ARC
  5
4B5
  8
1
 10
-388.622015
 20
952.226041
 30
0.0
 40
5.998679
 50
0.0
 51
90.0
  0
LINE
  5
4B6
  8
1
 10
-429.612986
 20
958.22472
 30
0.0
 11
-388.622015
 21
958.22472
 31
0.0
  0
LINE
  5
4B7
  8
1
 10
-382.623336
 20
952.226041
 30
0.0
 11
-382.623336
 21
911.23507
 31
0.0
  0
LINE
  5
4B8
  8
1
 10
-1499.377355
 20
1066.200936
 30
0.0
 11
-1499.377355
 21
910.23529
 31
0.0
  0
LINE
  5
4B9
  8
1
 10
-1340.412369
 20
1069.200276
 30
0.0
 11
-1496.378015
 21
1069.200276
 31
0.0
  0
ARC
  5
4BA
  8
1
 10
-1496.378015
 20
1066.200936
 30
0.0
 40
2.999339
 50
90.0
 51
180.0
  0
ARC
  5
4BB
  8
1
 10
-1382.40312
 20
952.226041
 30
0.0
 40
5.998679
 50
90.0
 51
180.0
  0
LINE
  5
4BC
  8
1
 10
-1341.412149
 20
958.22472
 30
0.0
 11
-1382.40312
 21
958.22472
 31
0.0
  0
LINE
  5
4BD
  8
1
 10
-1388.401799
 20
952.226041
 30
0.0
 11
-1388.401799
 21
911.23507
 31
0.0
  0
LINE
  5
4BE
  8
1
 10
-432.612325
 20
392.349362
 30
0.0
 11
-432.612325
 21
908.23573
 31
0.0
  0
LINE
  5
4BF
  8
1
 10
-432.612325
 20
908.23573
 30
0.0
 11
-1338.412809
 21
908.23573
 31
0.0
  0
LINE
  5
4C0
  8
1
 10
-1338.412809
 20
392.349362
 30
0.0
 11
-1338.412809
 21
908.23573
 31
0.0
  0
LINE
  5
4C1
  8
1
 10
-432.612325
 20
392.349362
 30
0.0
 11
-885.512567
 21
392.349362
 31
0.0
  0
LINE
  5
4C2
  8
1
 10
-432.612325
 20
868.244539
 30
0.0
 11
-1338.412809
 21
868.244539
 31
0.0
  0
LINE
  5
4C3
  8
1
 10
-432.612325
 20
828.253348
 30
0.0
 11
-1338.412809
 21
828.253348
 31
0.0
  0
LINE
  5
4C4
  8
1
 10
-432.612325
 20
788.262156
 30
0.0
 11
-1338.412809
 21
788.262156
 31
0.0
  0
LINE
  5
4C5
  8
1
 10
-432.612325
 20
748.270965
 30
0.0
 11
-1338.412809
 21
748.270965
 31
0.0
  0
LINE
  5
4C6
  8
1
 10
-432.612325
 20
708.279774
 30
0.0
 11
-1338.412809
 21
708.279774
 31
0.0
  0
LINE
  5
4C7
  8
1
 10
-432.612325
 20
668.288582
 30
0.0
 11
-1338.412809
 21
668.288582
 31
0.0
  0
LINE
  5
4C8
  8
1
 10
-432.612325
 20
628.297391
 30
0.0
 11
-1338.412809
 21
628.297391
 31
0.0
  0
LINE
  5
4C9
  8
1
 10
-432.612325
 20
588.3062
 30
0.0
 11
-1338.412809
 21
588.3062
 31
0.0
  0
LINE
  5
4CA
  8
1
 10
-432.612325
 20
548.315008
 30
0.0
 11
-1338.412809
 21
548.315008
 31
0.0
  0
LINE
  5
4CB
  8
1
 10
-432.612325
 20
508.323817
 30
0.0
 11
-1338.412809
 21
508.323817
 31
0.0
  0
LINE
  5
4CC
  8
1
 10
-432.612325
 20
468.332625
 30
0.0
 11
-1338.412809
 21
468.332625
 31
0.0
  0
LINE
  5
4CD
  8
1
 10
-432.612325
 20
428.341434
 30
0.0
 11
-1338.412809
 21
428.341434
 31
0.0
  0
LINE
  5
4CE
  8
1
 10
-885.512567
 20
392.349362
 30
0.0
 11
-1338.412809
 21
392.349362
 31
0.0
  0
ARC
  5
4CF
  8
1
 10
-1297.269153
 20
-303.438634
 30
0.0
 40
7.798282
 50
90.0
 51
180.0
  0
ARC
  5
4D0
  8
1
 10
-473.050699
 20
-303.438634
 30
0.0
 40
7.798282
 50
0.0
 51
90.0
  0
LINE
  5
4D1
  8
1
 10
379.963174
 20
329.91311
 30
0.0
 11
431.218788
 21
329.91311
 31
0.0
  0
LINE
  5
4D2
  8
1
 10
379.963174
 20
345.809609
 30
0.0
 11
428.762282
 21
345.809609
 31
0.0
  0
LINE
  5
4D3
  8
1
 10
376.963835
 20
327.471343
 30
0.0
 11
376.963835
 21
348.251376
 31
0.0
  0
LINE
  5
4D4
  8
1
 10
362.966918
 20
326.751307
 30
0.0
 11
362.966918
 21
348.971412
 31
0.0
  0
LINE
  5
4D5
  8
1
 10
365.966257
 20
327.471343
 30
0.0
 11
365.966257
 21
348.251376
 31
0.0
  0
LINE
  5
4D6
  8
1
 10
365.966257
 20
328.363452
 30
0.0
 11
361.620158
 21
328.363452
 31
0.0
  0
LINE
  5
4D7
  8
1
 10
365.966257
 20
347.359267
 30
0.0
 11
361.620158
 21
347.359267
 31
0.0
  0
LINE
  5
4D8
  8
1
 10
379.963174
 20
348.958915
 30
0.0
 11
376.555337
 21
348.958915
 31
0.0
  0
LINE
  5
4D9
  8
1
 10
379.963174
 20
326.763804
 30
0.0
 11
376.555337
 21
326.763804
 31
0.0
  0
LINE
  5
4DA
  8
1
 10
362.966918
 20
348.971412
 30
0.0
 11
361.620158
 21
348.971412
 31
0.0
  0
LINE
  5
4DB
  8
1
 10
362.966918
 20
326.751307
 30
0.0
 11
361.620158
 21
326.751307
 31
0.0
  0
LINE
  5
4DC
  8
1
 10
365.966257
 20
348.251376
 30
0.0
 11
366.894053
 21
349.858365
 31
0.0
  0
LINE
  5
4DD
  8
1
 10
365.966257
 20
327.471343
 30
0.0
 11
366.894053
 21
325.864354
 31
0.0
  0
LINE
  5
4DE
  8
1
 10
376.963835
 20
327.471343
 30
0.0
 11
376.036039
 21
325.864354
 31
0.0
  0
LINE
  5
4DF
  8
1
 10
376.963835
 20
348.251376
 30
0.0
 11
376.036039
 21
349.858365
 31
0.0
  0
LINE
  5
4E0
  8
1
 10
335.625884
 20
325.864002
 30
0.0
 11
335.625884
 21
349.858716
 31
0.0
  0
LINE
  5
4E1
  8
1
 10
361.620158
 20
324.864222
 30
0.0
 11
361.620158
 21
350.858497
 31
0.0
  0
LINE
  5
4E2
  8
1
 10
341.48057
 20
351.358387
 30
0.0
 11
361.120268
 21
351.358387
 31
0.0
  0
LINE
  5
4E3
  8
1
 10
361.620158
 20
350.858497
 30
0.0
 11
361.120268
 21
351.358387
 31
0.0
  0
LINE
  5
4E4
  8
1
 10
361.620158
 20
324.864222
 30
0.0
 11
361.120268
 21
324.364332
 31
0.0
  0
ARC
  5
4E5
  8
1
 10
336.188432
 20
359.840676
 30
0.0
 40
9.997798
 50
266.774426
 51
301.960227
  0
ARC
  5
4E6
  8
1
 10
336.188432
 20
315.882043
 30
0.0
 40
9.997798
 50
58.039773
 51
93.225574
  0
LINE
  5
4E7
  8
1
  6
DASHED
 10
345.970662
 20
328.363452
 30
0.0
 11
342.971322
 21
331.362791
 31
0.0
  0
LINE
  5
4E8
  8
1
  6
DASHED
 10
342.971322
 20
331.362791
 30
0.0
 11
342.971322
 21
344.359928
 31
0.0
  0
LINE
  5
4E9
  8
1
  6
DASHED
 10
349.969781
 20
326.751307
 30
0.0
 11
349.969781
 21
328.363452
 31
0.0
  0
LINE
  5
4EA
  8
1
  6
DASHED
 10
342.971322
 20
344.359928
 30
0.0
 11
345.970662
 21
347.359267
 31
0.0
  0
LINE
  5
4EB
  8
1
  6
DASHED
 10
349.969781
 20
328.363452
 30
0.0
 11
345.970662
 21
328.363452
 31
0.0
  0
LINE
  5
4EC
  8
1
  6
DASHED
 10
349.969781
 20
347.359267
 30
0.0
 11
345.970662
 21
347.359267
 31
0.0
  0
LINE
  5
4ED
  8
1
  6
DASHED
 10
349.969781
 20
347.359267
 30
0.0
 11
349.969781
 21
348.971412
 31
0.0
  0
LINE
  5
4EE
  8
1
  6
DASHED
 10
361.620158
 20
348.971412
 30
0.0
 11
349.969781
 21
348.971412
 31
0.0
  0
LINE
  5
4EF
  8
1
  6
DASHED
 10
361.620158
 20
326.751307
 30
0.0
 11
349.969781
 21
326.751307
 31
0.0
  0
LINE
  5
4F0
  8
1
 10
341.48057
 20
324.364332
 30
0.0
 11
361.120268
 21
324.364332
 31
0.0
  0
LINE
  5
4F1
  8
1
 10
376.036039
 20
349.858365
 30
0.0
 11
366.894053
 21
349.858365
 31
0.0
  0
LINE
  5
4F2
  8
1
 10
366.894053
 20
325.864354
 30
0.0
 11
376.036039
 21
325.864354
 31
0.0
  0
LINE
  5
4F3
  8
1
 10
359.032289
 20
337.861364
 30
0.0
 11
343.874061
 21
337.861362
 31
0.0
  0
LINE
  5
4F4
  8
1
 10
374.964275
 20
337.861359
 30
0.0
 11
367.965811
 21
337.861361
 31
0.0
  0
LINE
  5
4F5
  8
1
 10
379.963174
 20
326.763804
 30
0.0
 11
379.963174
 21
348.958915
 31
0.0
  0
LINE
  5
4F6
  8
1
  6
DASHDOT
 10
331.426639
 20
337.861359
 30
0.0
 11
429.990535
 21
337.861359
 31
0.0
  0
LINE
  5
4F7
  8
1
 10
429.578259
 20
226.630342
 30
0.0
 11
451.242112
 21
230.841174
 31
0.0
  0
LINE
  5
4F8
  8
1
 10
451.242112
 20
230.841174
 30
0.0
 11
450.133289
 21
236.545835
 31
0.0
  0
LINE
  5
4F9
  8
1
 10
400.574888
 20
234.233297
 30
0.0
 11
397.331994
 21
250.917312
 31
0.0
  0
LINE
  5
4FA
  8
1
 10
425.945177
 20
248.330299
 30
0.0
 11
420.603626
 21
275.811466
 31
0.0
  0
LINE
  5
4FB
  8
1
 10
414.168321
 20
246.040703
 30
0.0
 11
413.214307
 21
250.948907
 31
0.0
  0
ARC
  5
4FC
  8
1
 10
414.715342
 20
274.665927
 30
0.0
 40
5.998679
 50
10.999505
 51
190.999506
  0
ARC
  5
4FD
  8
1
 10
420.056571
 20
247.186416
 30
0.0
 40
5.998679
 50
190.999506
 51
10.999505
  0
LINE
  5
4FE
  8
1
 10
395.042892
 20
262.694264
 30
0.0
 11
407.408692
 21
265.097821
 31
0.0
  0
LINE
  5
4FF
  8
1
 10
397.331994
 20
250.917312
 30
0.0
 11
409.697794
 21
253.320869
 31
0.0
  0
LINE
  5
500
  8
1
 10
400.574888
 20
234.233297
 30
0.0
 11
402.145149
 21
234.53851
 31
0.0
  0
LINE
  5
501
  8
1
 10
391.799998
 20
279.378279
 30
0.0
 11
393.370258
 21
279.683493
 31
0.0
  0
LINE
  5
502
  8
1
 10
393.370258
 20
279.683493
 30
0.0
 11
396.701445
 21
284.622088
 31
0.0
  0
LINE
  5
503
  8
1
 10
402.145149
 20
234.53851
 30
0.0
 11
407.083744
 21
231.207324
 31
0.0
  0
ARC
  5
504
  8
1
 10
423.856052
 20
256.072829
 30
0.0
 40
29.993394
 50
235.999505
 51
280.999505
  0
ARC
  5
505
  8
1
 10
421.56695
 20
267.849781
 30
0.0
 40
29.993394
 50
100.999506
 51
145.999505
  0
LINE
  5
506
  8
1
 10
395.042892
 20
262.694264
 30
0.0
 11
391.799998
 21
279.378279
 31
0.0
  0
LINE
  5
507
  8
1
 10
409.780654
 20
268.614335
 30
0.0
 11
408.826603
 21
273.522727
 31
0.0
  0
ARC
  5
508
  8
1
 10
406.836416
 20
268.042059
 30
0.0
 40
2.999339
 50
280.999505
 51
10.999505
  0
ARC
  5
509
  8
1
 10
410.270069
 20
250.376631
 30
0.0
 40
2.999339
 50
10.999505
 51
100.999506
  0
LINE
  5
50A
  8
1
 10
415.843746
 20
297.292073
 30
0.0
 11
436.117358
 21
301.232682
 31
0.0
  0
LINE
  5
50B
  8
1
 10
394.299388
 20
1009.52574
 30
0.0
 11
408.985697
 21
994.839431
 31
0.0
  0
LINE
  5
50C
  8
1
 10
384.383799
 20
1037.822056
 30
0.0
 11
396.401967
 21
1049.840224
 31
0.0
  0
LINE
  5
50D
  8
1
 10
410.257743
 20
1024.672301
 30
0.0
 11
430.053534
 21
1044.468092
 31
0.0
  0
LINE
  5
50E
  8
1
 10
401.773974
 20
1033.155358
 30
0.0
 11
405.309551
 21
1036.690935
 31
0.0
  0
ARC
  5
50F
  8
1
 10
425.811116
 20
1048.709087
 30
0.0
 40
5.998679
 50
315.0
 51
135.000001
  0
ARC
  5
510
  8
1
 10
406.016517
 20
1028.914488
 30
0.0
 40
5.998679
 50
135.000001
 51
315.0
  0
LINE
  5
511
  8
1
 10
404.88538
 20
1058.323637
 30
0.0
 11
413.792964
 21
1049.416054
 31
0.0
  0
LINE
  5
512
  8
1
 10
396.401967
 20
1049.840224
 30
0.0
 11
405.309551
 21
1040.932641
 31
0.0
  0
LINE
  5
513
  8
1
 10
384.383799
 20
1037.822056
 30
0.0
 11
385.514921
 21
1036.690935
 31
0.0
  0
LINE
  5
514
  8
1
 10
416.903548
 20
1070.341805
 30
0.0
 11
418.03467
 21
1069.210684
 31
0.0
  0
LINE
  5
515
  8
1
 10
418.03467
 20
1069.210684
 30
0.0
 11
423.991727
 21
1069.210684
 31
0.0
  0
LINE
  5
516
  8
1
 10
385.514921
 20
1036.690935
 30
0.0
 11
385.514921
 21
1030.733877
 31
0.0
  0
ARC
  5
517
  8
1
 10
415.508315
 20
1030.733877
 30
0.0
 40
29.993394
 50
180.0
 51
225.0
  0
ARC
  5
518
  8
1
 10
423.991727
 20
1039.21729
 30
0.0
 40
29.993394
 50
45.000001
 51
90.0
  0
LINE
  5
519
  8
1
 10
404.88538
 20
1058.323637
 30
0.0
 11
416.903548
 21
1070.341805
 31
0.0
  0
LINE
  5
51A
  8
1
 10
418.03467
 20
1049.416054
 30
0.0
 11
421.570383
 21
1052.951766
 31
0.0
  0
ARC
  5
51B
  8
1
 10
415.913817
 20
1051.536907
 30
0.0
 40
2.999339
 50
225.0
 51
315.0
  0
ARC
  5
51C
  8
1
 10
403.188698
 20
1038.811788
 30
0.0
 40
2.999339
 50
315.0
 51
45.000001
  0
LINE
  5
51D
  8
1
 10
445.199936
 20
1060.426145
 30
0.0
 11
459.886174
 21
1045.739907
 31
0.0
  0
LINE
  5
51E
  8
1
 10
490.558158
 20
1070.200056
 30
0.0
 11
526.583823
 21
1070.200056
 31
0.0
  0
LINE
  5
51F
  8
1
 10
479.953892
 20
1065.807625
 30
0.0
 11
394.492485
 21
980.346218
 31
0.0
  0
LINE
  5
520
  8
1
 10
390.100054
 20
969.741952
 30
0.0
 11
390.100054
 21
917.947683
 31
0.0
  0
LINE
  5
521
  8
1
 10
339.018535
 20
864.795552
 30
0.0
 11
388.635911
 21
914.412927
 31
0.0
  0
LINE
  5
522
  8
1
 10
334.626104
 20
486.19146
 30
0.0
 11
334.626104
 21
854.191286
 31
0.0
  0
LINE
  5
523
  8
1
 10
433.841178
 20
312.943156
 30
0.0
 11
447.529352
 21
242.520356
 31
0.0
  0
LINE
  5
524
  8
1
 10
462.250542
 20
230.385037
 30
0.0
 11
494.59087
 21
230.385037
 31
0.0
  0
ARC
  5
525
  8
1
 10
349.622801
 20
854.191286
 30
0.0
 40
14.996697
 50
135.0
 51
180.0
  0
ARC
  5
526
  8
1
 10
385.101155
 20
917.947683
 30
0.0
 40
4.998899
 50
315.0
 51
0.0
  0
ARC
  5
527
  8
1
 10
405.096751
 20
969.741952
 30
0.0
 40
14.996697
 50
135.0
 51
180.0
  0
ARC
  5
528
  8
1
 10
490.558158
 20
1055.203359
 30
0.0
 40
14.996697
 50
90.0
 51
135.0
  0
ARC
  5
529
  8
1
 10
349.622801
 20
486.19146
 30
0.0
 40
14.996697
 50
180.0
 51
235.0
  0
ARC
  5
52A
  8
1
 10
407.726819
 20
421.096474
 30
0.0
 40
9.297952
 50
10.999505
 51
55.0
  0
ARC
  5
52B
  8
1
 10
462.250542
 20
245.381734
 30
0.0
 40
14.996697
 50
190.999505
 51
270.0
  0
LINE
  5
52C
  8
1
 10
1561.962368
 20
375.712824
 30
0.0
 11
1421.027011
 21
234.777468
 31
0.0
  0
LINE
  5
52D
  8
1
 10
1410.422745
 20
230.385037
 30
0.0
 11
1374.39708
 21
230.385037
 31
0.0
  0
LINE
  5
52E
  8
1
 10
1566.354798
 20
386.31709
 30
0.0
 11
1566.354798
 21
914.268002
 31
0.0
  0
LINE
  5
52F
  8
1
 10
1561.962368
 20
924.872268
 30
0.0
 11
1421.027011
 21
1065.807625
 31
0.0
  0
LINE
  5
530
  8
1
 10
1410.422745
 20
1070.200056
 30
0.0
 11
1374.39708
 21
1070.200056
 31
0.0
  0
ARC
  5
531
  8
1
 10
1551.358102
 20
914.268002
 30
0.0
 40
14.996697
 50
0.0
 51
45.0
  0
ARC
  5
532
  8
1
 10
1551.358102
 20
386.31709
 30
0.0
 40
14.996697
 50
315.0
 51
0.0
  0
ARC
  5
533
  8
1
 10
1410.422745
 20
245.381734
 30
0.0
 40
14.996697
 50
270.0
 51
315.0
  0
ARC
  5
534
  8
1
 10
1410.422745
 20
1055.203359
 30
0.0
 40
14.996697
 50
45.0
 51
90.0
  0
LINE
  5
535
  8
1
 10
1455.781038
 20
1060.426217
 30
0.0
 11
1441.094729
 21
1045.739907
 31
0.0
  0
LINE
  5
536
  8
1
 10
1484.077354
 20
1070.341805
 30
0.0
 11
1496.095522
 21
1058.323637
 31
0.0
  0
LINE
  5
537
  8
1
 10
1470.927599
 20
1044.467862
 30
0.0
 11
1490.72339
 21
1024.672071
 31
0.0
  0
LINE
  5
538
  8
1
 10
1479.410656
 20
1052.951631
 30
0.0
 11
1482.946233
 21
1049.416054
 31
0.0
  0
ARC
  5
539
  8
1
 10
1494.964385
 20
1028.914488
 30
0.0
 40
5.998679
 50
225.0
 51
45.000001
  0
ARC
  5
53A
  8
1
 10
1475.169786
 20
1048.709087
 30
0.0
 40
5.998679
 50
45.000001
 51
225.0
  0
LINE
  5
53B
  8
1
 10
1504.578935
 20
1049.840224
 30
0.0
 11
1495.671352
 21
1040.932641
 31
0.0
  0
LINE
  5
53C
  8
1
 10
1496.095522
 20
1058.323637
 30
0.0
 11
1487.187939
 21
1049.416054
 31
0.0
  0
LINE
  5
53D
  8
1
 10
1484.077354
 20
1070.341805
 30
0.0
 11
1482.946233
 21
1069.210684
 31
0.0
  0
LINE
  5
53E
  8
1
 10
1516.597103
 20
1037.822056
 30
0.0
 11
1515.465982
 21
1036.690935
 31
0.0
  0
LINE
  5
53F
  8
1
 10
1515.465982
 20
1036.690935
 30
0.0
 11
1515.465982
 21
1030.733877
 31
0.0
  0
LINE
  5
540
  8
1
 10
1482.946233
 20
1069.210684
 30
0.0
 11
1476.989175
 21
1069.210684
 31
0.0
  0
ARC
  5
541
  8
1
 10
1476.989175
 20
1039.21729
 30
0.0
 40
29.993394
 50
90.0
 51
135.0
  0
ARC
  5
542
  8
1
 10
1485.472588
 20
1030.733877
 30
0.0
 40
29.993394
 50
315.000001
 51
0.0
  0
LINE
  5
543
  8
1
 10
1504.578935
 20
1049.840224
 30
0.0
 11
1516.597103
 21
1037.822056
 31
0.0
  0
LINE
  5
544
  8
1
 10
1495.671352
 20
1036.690935
 30
0.0
 11
1499.207064
 21
1033.155222
 31
0.0
  0
ARC
  5
545
  8
1
 10
1497.792205
 20
1038.811788
 30
0.0
 40
2.999339
 50
135.0
 51
225.0
  0
ARC
  5
546
  8
1
 10
1485.067086
 20
1051.536907
 30
0.0
 40
2.999339
 50
225.0
 51
315.000001
  0
LINE
  5
547
  8
1
 10
1506.681443
 20
1009.525669
 30
0.0
 11
1491.995205
 21
994.839431
 31
0.0
  0
LINE
  5
548
  8
1
 10
1506.681515
 20
291.059353
 30
0.0
 11
1491.995205
 21
305.745662
 31
0.0
  0
LINE
  5
549
  8
1
 10
1516.597103
 20
262.763036
 30
0.0
 11
1504.578935
 21
250.744868
 31
0.0
  0
LINE
  5
54A
  8
1
 10
1490.72316
 20
275.912792
 30
0.0
 11
1470.927369
 21
256.117001
 31
0.0
  0
LINE
  5
54B
  8
1
 10
1499.206929
 20
267.429735
 30
0.0
 11
1495.671352
 21
263.894158
 31
0.0
  0
ARC
  5
54C
  8
1
 10
1475.169786
 20
251.876005
 30
0.0
 40
5.998679
 50
135.0
 51
315.000001
  0
ARC
  5
54D
  8
1
 10
1494.964385
 20
271.670604
 30
0.0
 40
5.998679
 50
315.000001
 51
135.0
  0
LINE
  5
54E
  8
1
 10
1496.095522
 20
242.261456
 30
0.0
 11
1487.187939
 21
251.169039
 31
0.0
  0
LINE
  5
54F
  8
1
 10
1504.578935
 20
250.744868
 30
0.0
 11
1495.671352
 21
259.652452
 31
0.0
  0
LINE
  5
550
  8
1
 10
1516.597103
 20
262.763036
 30
0.0
 11
1515.465982
 21
263.894158
 31
0.0
  0
LINE
  5
551
  8
1
 10
1484.077354
 20
230.243287
 30
0.0
 11
1482.946233
 21
231.374409
 31
0.0
  0
LINE
  5
552
  8
1
 10
1482.946233
 20
231.374409
 30
0.0
 11
1476.989175
 21
231.374409
 31
0.0
  0
LINE
  5
553
  8
1
 10
1515.465982
 20
263.894158
 30
0.0
 11
1515.465982
 21
269.851215
 31
0.0
  0
ARC
  5
554
  8
1
 10
1485.472588
 20
269.851215
 30
0.0
 40
29.993394
 50
0.0
 51
45.0
  0
ARC
  5
555
  8
1
 10
1476.989175
 20
261.367803
 30
0.0
 40
29.993394
 50
225.000001
 51
270.0
  0
LINE
  5
556
  8
1
 10
1496.095522
 20
242.261456
 30
0.0
 11
1484.077354
 21
230.243287
 31
0.0
  0
LINE
  5
557
  8
1
 10
1482.946233
 20
251.169039
 30
0.0
 11
1479.41052
 21
247.633326
 31
0.0
  0
ARC
  5
558
  8
1
 10
1485.067086
 20
249.048186
 30
0.0
 40
2.999339
 50
45.0
 51
135.0
  0
ARC
  5
559
  8
1
 10
1497.792205
 20
261.773305
 30
0.0
 40
2.999339
 50
135.0
 51
225.000001
  0
LINE
  5
55A
  8
1
 10
1455.780967
 20
240.158948
 30
0.0
 11
1441.094729
 21
254.845186
 31
0.0
  0
LINE
  5
55B
  8
1
 10
290.635794
 20
175.397149
 30
0.0
 11
1610.345109
 21
175.397149
 31
0.0
  0
LINE
  5
55C
  8
1
 10
290.635794
 20
1125.187944
 30
0.0
 11
1610.345109
 21
1125.187944
 31
0.0
  0
LINE
  5
55D
  8
1
 10
1620.342907
 20
185.394947
 30
0.0
 11
1620.342907
 21
1115.190146
 31
0.0
  0
LINE
  5
55E
  8
1
 10
280.637996
 20
185.394947
 30
0.0
 11
280.637996
 21
1115.190146
 31
0.0
  0
ARC
  5
55F
  8
1
 10
1610.345109
 20
1115.190146
 30
0.0
 40
9.997798
 50
0.0
 51
90.0
  0
ARC
  5
560
  8
1
 10
290.635794
 20
1115.190146
 30
0.0
 40
9.997798
 50
90.0
 51
180.0
  0
ARC
  5
561
  8
1
 10
290.635794
 20
185.394947
 30
0.0
 40
9.997798
 50
180.0
 51
270.0
  0
ARC
  5
562
  8
1
 10
1610.345109
 20
185.394947
 30
0.0
 40
9.997798
 50
270.0
 51
0.0
  0
LINE
  5
563
  8
1
  6
DASHDOT
 10
1672.463438
 20
650.292546
 30
0.0
 11
228.517464
 21
650.292546
 31
0.0
  0
LINE
  5
564
  8
1
 10
413.059905
 20
428.71291
 30
0.0
 11
341.021049
 21
473.906886
 31
0.0
  0
LINE
  5
565
  8
1
 10
433.841178
 20
312.943156
 30
0.0
 11
416.853957
 21
422.870528
 31
0.0
  0
LINE
  5
566
  8
1
 10
1374.39708
 20
230.385037
 30
0.0
 11
494.59087
 21
230.385037
 31
0.0
  0
LINE
  5
567
  8
1
 10
1374.39708
 20
1070.200056
 30
0.0
 11
526.583823
 21
1070.200056
 31
0.0
  0
LINE
  5
568
  8
1
 10
356.544285
 20
-462.964702
 30
0.0
 11
356.544285
 21
-448.245512
 31
0.0
  0
LINE
  5
569
  8
1
 10
364.542523
 20
-462.964702
 30
0.0
 11
364.542523
 21
-448.245512
 31
0.0
  0
LINE
  5
56A
  8
1
 10
355.544505
 20
-463.540859
 30
0.0
 11
355.544505
 21
-447.669355
 31
0.0
  0
LINE
  5
56B
  8
1
 10
356.544285
 20
-448.856593
 30
0.0
 11
353.997789
 21
-448.856593
 31
0.0
  0
LINE
  5
56C
  8
1
 10
356.544285
 20
-462.35362
 30
0.0
 11
353.997789
 21
-462.35362
 31
0.0
  0
LINE
  5
56D
  8
1
 10
363.126168
 20
-445.792314
 30
0.0
 11
359.811473
 21
-445.792314
 31
0.0
  0
LINE
  5
56E
  8
1
 10
363.126168
 20
-465.4179
 30
0.0
 11
357.960639
 21
-465.4179
 31
0.0
  0
LINE
  5
56F
  8
1
 10
355.544505
 20
-447.669355
 30
0.0
 11
353.997789
 21
-447.669355
 31
0.0
  0
LINE
  5
570
  8
1
 10
355.544505
 20
-463.540859
 30
0.0
 11
353.997789
 21
-463.540859
 31
0.0
  0
LINE
  5
571
  8
1
 10
356.544285
 20
-448.245512
 30
0.0
 11
357.727775
 21
-446.195647
 31
0.0
  0
LINE
  5
572
  8
1
 10
364.542523
 20
-448.245512
 30
0.0
 11
363.126168
 21
-445.792314
 31
0.0
  0
LINE
  5
573
  8
1
 10
356.544285
 20
-462.964702
 30
0.0
 11
357.960639
 21
-465.4179
 31
0.0
  0
LINE
  5
574
  8
1
 10
364.542523
 20
-462.964702
 30
0.0
 11
363.126168
 21
-465.4179
 31
0.0
  0
LINE
  5
575
  8
1
 10
336.001753
 20
-448.106762
 30
0.0
 11
336.001753
 21
-463.103454
 31
0.0
  0
LINE
  5
576
  8
1
 10
353.997789
 20
-446.195647
 30
0.0
 11
353.997789
 21
-466.102795
 31
0.0
  0
LINE
  5
577
  8
1
 10
353.997789
 20
-466.102795
 30
0.0
 11
351.796568
 21
-468.304016
 31
0.0
  0
ARC
  5
578
  8
1
 10
334.500757
 20
-472.987937
 30
0.0
 40
9.997798
 50
27.936665
 51
81.365386
  0
ARC
  5
579
  8
1
 10
334.500757
 20
-438.222277
 30
0.0
 40
9.997798
 50
278.634614
 51
321.628192
  0
LINE
  5
57A
  8
1
 10
351.796568
 20
-468.304016
 30
0.0
 11
343.333472
 21
-468.304016
 31
0.0
  0
LINE
  5
57B
  8
1
 10
377.339704
 20
-441.000639
 30
0.0
 11
377.339704
 21
-420.220606
 31
0.0
  0
LINE
  5
57C
  8
1
 10
363.342787
 20
-441.720675
 30
0.0
 11
363.342787
 21
-419.500569
 31
0.0
  0
LINE
  5
57D
  8
1
 10
366.342126
 20
-441.000639
 30
0.0
 11
366.342126
 21
-420.220606
 31
0.0
  0
LINE
  5
57E
  8
1
 10
375.340144
 20
-444.463977
 30
0.0
 11
368.341686
 21
-444.463977
 31
0.0
  0
LINE
  5
57F
  8
1
 10
366.342126
 20
-440.10853
 30
0.0
 11
361.996027
 21
-440.10853
 31
0.0
  0
LINE
  5
580
  8
1
 10
366.342126
 20
-421.112714
 30
0.0
 11
361.996027
 21
-421.112714
 31
0.0
  0
LINE
  5
581
  8
1
 10
380.339043
 20
-419.513067
 30
0.0
 11
376.931206
 21
-419.513067
 31
0.0
  0
LINE
  5
582
  8
1
 10
380.339043
 20
-441.708178
 30
0.0
 11
376.931206
 21
-441.708178
 31
0.0
  0
LINE
  5
583
  8
1
 10
363.342787
 20
-419.500569
 30
0.0
 11
361.996027
 21
-419.500569
 31
0.0
  0
LINE
  5
584
  8
1
 10
363.342787
 20
-441.720675
 30
0.0
 11
361.996027
 21
-441.720675
 31
0.0
  0
LINE
  5
585
  8
1
 10
366.342126
 20
-420.220606
 30
0.0
 11
368.341686
 21
-416.757267
 31
0.0
  0
LINE
  5
586
  8
1
 10
366.342126
 20
-441.000639
 30
0.0
 11
368.341686
 21
-444.463977
 31
0.0
  0
LINE
  5
587
  8
1
 10
377.339704
 20
-441.000639
 30
0.0
 11
375.340144
 21
-444.463977
 31
0.0
  0
LINE
  5
588
  8
1
 10
377.339704
 20
-420.220606
 30
0.0
 11
375.340144
 21
-416.757267
 31
0.0
  0
LINE
  5
589
  8
1
 10
336.001753
 20
-442.60798
 30
0.0
 11
336.001753
 21
-418.613266
 31
0.0
  0
LINE
  5
58A
  8
1
 10
361.996027
 20
-443.607759
 30
0.0
 11
361.996027
 21
-417.613485
 31
0.0
  0
LINE
  5
58B
  8
1
 10
361.996027
 20
-443.607759
 30
0.0
 11
359.40814
 21
-446.195647
 31
0.0
  0
ARC
  5
58C
  8
1
 10
336.564301
 20
-452.589938
 30
0.0
 40
9.997798
 50
39.759754
 51
93.225574
  0
LINE
  5
58D
  8
1
 10
344.249936
 20
-446.195647
 30
0.0
 11
359.40814
 21
-446.195647
 31
0.0
  0
LINE
  5
58E
  8
1
 10
375.340144
 20
-416.757267
 30
0.0
 11
368.341686
 21
-416.757267
 31
0.0
  0
LINE
  5
58F
  8
1
 10
361.996027
 20
-417.613485
 30
0.0
 11
359.40814
 21
-415.025598
 31
0.0
  0
LINE
  5
590
  8
1
 10
344.249936
 20
-415.025598
 30
0.0
 11
359.40814
 21
-415.025598
 31
0.0
  0
ARC
  5
591
  8
1
 10
336.564301
 20
-408.631306
 30
0.0
 40
9.997798
 50
266.774426
 51
320.240246
  0
LINE
  5
592
  8
1
 10
380.339043
 20
-441.708178
 30
0.0
 11
380.339043
 21
-419.513067
 31
0.0
  0
LINE
  5
593
  8
1
 10
380.339043
 20
-438.558871
 30
0.0
 11
434.514816
 21
-438.55887
 31
0.0
  0
LINE
  5
594
  8
1
 10
380.339043
 20
-422.662373
 30
0.0
 11
431.331001
 21
-422.662373
 31
0.0
  0
LINE
  5
595
  8
1
 10
1389.769646
 20
-572.579352
 30
0.0
 11
479.970042
 21
-572.579352
 31
0.0
  0
ARC
  5
596
  8
1
 10
410.345226
 20
-422.612384
 30
0.0
 40
199.955957
 50
269.323938
 51
270.0
  0
LINE
  5
597
  8
1
 10
342.000432
 20
-595.574287
 30
0.0
 11
340.000872
 21
-595.574287
 31
0.0
  0
ARC
  5
598
  8
1
 10
497.846487
 20
372.410687
 30
0.0
 40
998.280115
 50
260.529201
 51
260.727969
  0
LINE
  5
599
  8
1
 10
333.002414
 20
-613.095112
 30
0.0
 11
333.002414
 21
-612.755535
 31
0.0
  0
LINE
  5
59A
  8
1
 10
292.011443
 20
-595.574287
 30
0.0
 11
283.013425
 21
-595.574287
 31
0.0
  0
LINE
  5
59B
  8
1
 10
337.001533
 20
-613.332889
 30
0.0
 11
337.001533
 21
-612.826384
 31
0.0
  0
LINE
  5
59C
  8
1
 10
410.345226
 20
-622.568341
 30
0.0
 11
1491.387415
 21
-622.568341
 31
0.0
  0
ARC
  5
59D
  8
1
 10
1491.387415
 20
-422.612384
 30
0.0
 40
199.955957
 50
270.0
 51
270.676062
  0
ARC
  5
59E
  8
1
 10
497.846487
 20
372.410687
 30
0.0
 40
998.780004
 50
260.732651
 51
263.719232
  0
ARC
  5
59F
  8
1
 10
410.345226
 20
-422.612384
 30
0.0
 40
198.956177
 50
263.719232
 51
269.32054
  0
LINE
  5
5A0
  8
1
 10
407.985898
 20
-622.554421
 30
0.0
 11
407.985898
 21
-621.554571
 31
0.0
  0
ARC
  5
5A1
  8
1
 10
333.502304
 20
-612.755535
 30
0.0
 40
0.49989
 50
80.529201
 51
180.0
  0
ARC
  5
5A2
  8
1
 10
332.502524
 20
-613.095112
 30
0.0
 40
0.49989
 50
260.475861
 51
0.0
  0
LINE
  5
5A3
  8
1
 10
281.013865
 20
-600.453294
 30
0.0
 11
281.013865
 21
-595.574287
 31
0.0
  0
LINE
  5
5A4
  8
1
 10
281.013865
 20
-600.453294
 30
0.0
 11
285.012984
 21
-604.452413
 31
0.0
  0
ARC
  5
5A5
  8
1
 10
497.846487
 20
372.410687
 30
0.0
 40
999.779784
 50
257.708796
 51
260.475861
  0
LINE
  5
5A6
  8
1
 10
1493.746743
 20
-622.554421
 30
0.0
 11
1493.746743
 21
-621.554571
 31
0.0
  0
LINE
  5
5A7
  8
1
 10
420.983035
 20
-579.57781
 30
0.0
 11
439.930669
 21
-579.57781
 31
0.0
  0
LINE
  5
5A8
  8
1
 10
1559.732209
 20
-595.574287
 30
0.0
 11
1561.731769
 21
-595.574287
 31
0.0
  0
ARC
  5
5A9
  8
1
 10
1403.886154
 20
372.410687
 30
0.0
 40
998.280115
 50
279.272031
 51
279.470799
  0
LINE
  5
5AA
  8
1
 10
1568.730227
 20
-613.095112
 30
0.0
 11
1568.730227
 21
-612.755535
 31
0.0
  0
LINE
  5
5AB
  8
1
 10
1609.721198
 20
-595.574287
 30
0.0
 11
1618.719216
 21
-595.574287
 31
0.0
  0
LINE
  5
5AC
  8
1
 10
1564.731108
 20
-613.332889
 30
0.0
 11
1564.731108
 21
-612.826384
 31
0.0
  0
ARC
  5
5AD
  8
1
 10
1403.886154
 20
372.410687
 30
0.0
 40
998.780004
 50
276.280768
 51
279.267349
  0
ARC
  5
5AE
  8
1
 10
1491.387415
 20
-422.612384
 30
0.0
 40
198.956177
 50
270.67946
 51
276.280768
  0
ARC
  5
5AF
  8
1
 10
1568.230337
 20
-612.755535
 30
0.0
 40
0.49989
 50
0.0
 51
99.470799
  0
ARC
  5
5B0
  8
1
 10
1569.230117
 20
-613.095112
 30
0.0
 40
0.49989
 50
180.0
 51
279.524139
  0
LINE
  5
5B1
  8
1
 10
1620.718776
 20
-600.453294
 30
0.0
 11
1620.718776
 21
-595.574287
 31
0.0
  0
LINE
  5
5B2
  8
1
 10
1620.718776
 20
-600.453294
 30
0.0
 11
1616.719657
 21
-604.452413
 31
0.0
  0
ARC
  5
5B3
  8
1
 10
1403.886154
 20
372.410687
 30
0.0
 40
999.779784
 50
279.524139
 51
282.291204
  0
LINE
  5
5B4
  8
1
 10
1559.732209
 20
-579.57781
 30
0.0
 11
1544.735512
 21
-579.57781
 31
0.0
  0
LINE
  5
5B5
  8
1
 10
1480.749606
 20
-579.57781
 30
0.0
 11
1461.801972
 21
-579.57781
 31
0.0
  0
LINE
  5
5B6
  8
1
 10
453.807876
 20
-572.579352
 30
0.0
 11
453.807876
 21
-295.640351
 31
0.0
  0
LINE
  5
5B7
  8
1
 10
435.689106
 20
-572.579352
 30
0.0
 11
478.970262
 21
-572.579352
 31
0.0
  0
LINE
  5
5B8
  8
1
 10
1480.847772
 20
-572.579351
 30
0.0
 11
1495.172539
 21
-572.579351
 31
0.0
  0
LINE
  5
5B9
  8
1
 10
1492.58316
 20
-560.981907
 30
0.0
 11
1501.773524
 21
-560.981907
 31
0.0
  0
LINE
  5
5BA
  8
1
 10
1493.382984
 20
-562.113029
 30
0.0
 11
1502.573348
 21
-562.113029
 31
0.0
  0
LINE
  5
5BB
  8
1
 10
1492.58316
 20
-560.981907
 30
0.0
 11
1485.513649
 21
-570.979704
 31
0.0
  0
LINE
  5
5BC
  8
1
 10
1493.382984
 20
-562.113029
 30
0.0
 11
1492.58316
 21
-560.981907
 31
0.0
  0
LINE
  5
5BD
  8
1
 10
1493.382984
 20
-562.113029
 30
0.0
 11
1485.982175
 21
-572.579351
 31
0.0
  0
LINE
  5
5BE
  8
1
 10
1502.573348
 20
-562.113029
 30
0.0
 11
1495.172539
 21
-572.579351
 31
0.0
  0
LINE
  5
5BF
  8
1
 10
1502.573348
 20
-562.113029
 30
0.0
 11
1501.773524
 21
-560.981907
 31
0.0
  0
LINE
  5
5C0
  8
1
 10
1478.898454
 20
-572.579351
 30
0.0
 11
1478.898454
 21
-570.979704
 31
0.0
  0
LINE
  5
5C1
  8
1
 10
1492.583159
 20
-560.981908
 30
0.0
 11
1492.583159
 21
-540.586398
 31
0.0
  0
LINE
  5
5C2
  8
1
 10
1480.847772
 20
-572.579351
 30
0.0
 11
1480.847772
 21
-570.979704
 31
0.0
  0
LINE
  5
5C3
  8
1
 10
1440.551561
 20
-572.579351
 30
0.0
 11
1440.551561
 21
-539.923804
 31
0.0
  0
LINE
  5
5C4
  8
1
 10
1441.682683
 20
-570.979704
 30
0.0
 11
1441.682683
 21
-540.586398
 31
0.0
  0
LINE
  5
5C5
  8
1
 10
1440.551561
 20
-572.579351
 30
0.0
 11
1478.898454
 21
-572.579351
 31
0.0
  0
LINE
  5
5C6
  8
1
 10
1441.682683
 20
-570.979704
 30
0.0
 11
1485.513649
 21
-570.979704
 31
0.0
  0
LINE
  5
5C7
  8
1
 10
1442.672415
 20
-536.924464
 30
0.0
 11
1442.672415
 21
-447.007009
 31
0.0
  0
LINE
  5
5C8
  8
1
 10
1443.803536
 20
-537.587059
 30
0.0
 11
1443.803536
 21
-453.605556
 31
0.0
  0
LINE
  5
5C9
  8
1
 10
1443.803536
 20
-537.587059
 30
0.0
 11
1441.682683
 21
-540.586398
 31
0.0
  0
LINE
  5
5CA
  8
1
 10
1442.672415
 20
-536.924464
 30
0.0
 11
1440.551561
 21
-539.923804
 31
0.0
  0
LINE
  5
5CB
  8
1
 10
1443.803536
 20
-537.587059
 30
0.0
 11
1494.704012
 21
-537.587059
 31
0.0
  0
LINE
  5
5CC
  8
1
 10
1441.682683
 20
-540.586398
 30
0.0
 11
1492.583159
 21
-540.586398
 31
0.0
  0
LINE
  5
5CD
  8
1
 10
1494.704012
 20
-537.587059
 30
0.0
 11
1494.704012
 21
-460.604015
 31
0.0
  0
LINE
  5
5CE
  8
1
 10
1494.704012
 20
-537.587059
 30
0.0
 11
1492.583159
 21
-540.586398
 31
0.0
  0
LINE
  5
5CF
  8
1
 10
336.001753
 20
-303.438634
 30
0.0
 11
336.001753
 21
-595.574287
 31
0.0
  0
LINE
  5
5D0
  8
1
 10
1565.730888
 20
-303.438634
 30
0.0
 11
1565.730888
 21
-595.574287
 31
0.0
  0
LINE
  5
5D1
  8
1
 10
281.013865
 20
-595.574287
 30
0.0
 11
1620.718776
 21
-595.574287
 31
0.0
  0
LINE
  5
5D2
  8
1
 10
343.800035
 20
-295.640351
 30
0.0
 11
1557.932605
 21
-295.640351
 31
0.0
  0
LINE
  5
5D3
  8
1
 10
336.001753
 20
-572.579352
 30
0.0
 11
1565.730888
 21
-572.579352
 31
0.0
  0
LINE
  5
5D4
  8
1
 10
336.001753
 20
-579.57781
 30
0.0
 11
1565.730888
 21
-579.57781
 31
0.0
  0
LINE
  5
5D5
  8
1
 10
418.681316
 20
-561.012372
 30
0.0
 11
409.490952
 21
-561.012372
 31
0.0
  0
LINE
  5
5D6
  8
1
 10
417.881492
 20
-562.143494
 30
0.0
 11
408.691128
 21
-562.143494
 31
0.0
  0
LINE
  5
5D7
  8
1
 10
418.681316
 20
-561.012372
 30
0.0
 11
425.750827
 21
-571.010169
 31
0.0
  0
LINE
  5
5D8
  8
1
 10
417.881492
 20
-562.143494
 30
0.0
 11
418.681316
 21
-561.012372
 31
0.0
  0
LINE
  5
5D9
  8
1
 10
417.881492
 20
-562.143494
 30
0.0
 11
425.282301
 21
-572.609816
 31
0.0
  0
LINE
  5
5DA
  8
1
 10
408.691128
 20
-562.143494
 30
0.0
 11
416.091937
 21
-572.609816
 31
0.0
  0
LINE
  5
5DB
  8
1
 10
408.691128
 20
-562.143494
 30
0.0
 11
409.490952
 21
-561.012372
 31
0.0
  0
LINE
  5
5DC
  8
1
 10
418.681317
 20
-561.012373
 30
0.0
 11
418.681317
 21
-540.616864
 31
0.0
  0
LINE
  5
5DD
  8
1
 10
453.807876
 20
-572.579352
 30
0.0
 11
453.807876
 21
-539.923804
 31
0.0
  0
LINE
  5
5DE
  8
1
 10
452.676754
 20
-570.979704
 30
0.0
 11
452.676754
 21
-540.586399
 31
0.0
  0
LINE
  5
5DF
  8
1
 10
453.807876
 20
-572.579352
 30
0.0
 11
415.460984
 21
-572.579352
 31
0.0
  0
LINE
  5
5E0
  8
1
 10
452.676754
 20
-570.979704
 30
0.0
 11
425.729285
 21
-570.979704
 31
0.0
  0
LINE
  5
5E1
  8
1
 10
450.555901
 20
-537.58706
 30
0.0
 11
450.555901
 21
-453.605557
 31
0.0
  0
LINE
  5
5E2
  8
1
 10
450.555901
 20
-537.58706
 30
0.0
 11
452.676754
 21
-540.586399
 31
0.0
  0
LINE
  5
5E3
  8
1
 10
451.687023
 20
-536.924465
 30
0.0
 11
453.807876
 21
-539.923804
 31
0.0
  0
LINE
  5
5E4
  8
1
 10
450.555901
 20
-537.58706
 30
0.0
 11
416.560464
 21
-537.58706
 31
0.0
  0
LINE
  5
5E5
  8
1
 10
452.676754
 20
-540.586399
 30
0.0
 11
418.681317
 21
-540.586399
 31
0.0
  0
LINE
  5
5E6
  8
1
 10
416.560464
 20
-537.617524
 30
0.0
 11
416.560464
 21
-450.606218
 31
0.0
  0
LINE
  5
5E7
  8
1
 10
416.560464
 20
-537.617524
 30
0.0
 11
418.681317
 21
-540.616864
 31
0.0
  0
ARC
  5
5E8
  8
1
 10
343.800035
 20
-303.438634
 30
0.0
 40
7.798282
 50
90.0
 51
180.0
  0
ARC
  5
5E9
  8
1
 10
1557.932605
 20
-303.438634
 30
0.0
 40
7.798282
 50
0.0
 51
90.0
  0
ARC
  5
5EA
  8
1
 10
343.800035
 20
-303.438634
 30
0.0
 40
7.798282
 50
90.0
 51
180.0
  0
LINE
  5
5EB
  8
1
  6
DASHDOT
 10
-1203.586453
 20
-375.82269
 30
0.0
 11
-1153.766966
 21
-375.82269
 31
0.0
  0
LINE
  5
5EC
  8
1
  6
DASHDOT
 10
-1179.095183
 20
-400.533118
 30
0.0
 11
-1179.095183
 21
-347.00215
 31
0.0
  0
LINE
  5
5ED
  8
1
  6
DASHDOT
 10
-1179.095183
 20
-418.765673
 30
0.0
 11
-1179.095183
 21
-491.247057
 31
0.0
  0
LINE
  5
5EE
  8
1
  6
DASHDOT
 10
-1205.987631
 20
-453.605557
 30
0.0
 11
-1148.434832
 21
-453.605557
 31
0.0
  0
LINE
  5
5EF
  8
1
  6
DASHDOT
 10
1379.142677
 20
-398.117779
 30
0.0
 11
607.001278
 21
-398.117779
 31
0.0
  0
LINE
  5
5F0
  8
1
  6
DASHDOT
 10
989.857732
 20
-479.619879
 30
0.0
 11
989.857732
 21
-302.234089
 31
0.0
  0
LINE
  5
5F1
  8
1
  6
DASHDOT
 10
548.954847
 20
-493.391575
 30
0.0
 11
548.954847
 21
-368.089811
 31
0.0
  0
LINE
  5
5F2
  8
1
  6
DASHDOT
 10
-615.075012
 20
-569.478993
 30
0.0
 11
-615.075012
 21
-491.176184
 31
0.0
  0
LINE
  5
5F3
  8
1
  6
DASHDOT
 10
-575.18476
 20
-530.433035
 30
0.0
 11
-653.500975
 21
-530.433035
 31
0.0
  0
CIRCLE
  5
5F4
  8
1
 10
-615.075012
 20
-530.433035
 30
0.0
 40
19.495706
  0
LINE
  5
5F5
  8
1
 10
332.856741
 20
392.349367
 30
0.0
 11
343.223326
 21
392.349364
 31
0.0
  0
LINE
  5
5F6
  8
1
 10
356.434155
 20
384.989772
 30
0.0
 11
356.434155
 21
399.708962
 31
0.0
  0
LINE
  5
5F7
  8
1
 10
364.432393
 20
384.989772
 30
0.0
 11
364.432393
 21
399.708962
 31
0.0
  0
LINE
  5
5F8
  8
1
 10
355.434376
 20
384.413615
 30
0.0
 11
355.434376
 21
400.285119
 31
0.0
  0
LINE
  5
5F9
  8
1
 10
356.434155
 20
399.097881
 30
0.0
 11
353.88766
 21
399.097881
 31
0.0
  0
LINE
  5
5FA
  8
1
  6
DASHED
 10
346.936247
 20
399.097881
 30
0.0
 11
344.436798
 21
399.097881
 31
0.0
  0
LINE
  5
5FB
  8
1
 10
356.434155
 20
385.600854
 30
0.0
 11
353.88766
 21
385.600854
 31
0.0
  0
LINE
  5
5FC
  8
1
  6
DASHED
 10
346.936247
 20
385.600854
 30
0.0
 11
344.436798
 21
385.600854
 31
0.0
  0
LINE
  5
5FD
  8
1
 10
363.998302
 20
400.460829
 30
0.0
 11
356.868245
 21
400.460829
 31
0.0
  0
LINE
  5
5FE
  8
1
 10
363.998302
 20
384.237905
 30
0.0
 11
356.868245
 21
384.237905
 31
0.0
  0
LINE
  5
5FF
  8
1
 10
355.434376
 20
400.285119
 30
0.0
 11
353.88766
 21
400.285119
 31
0.0
  0
LINE
  5
600
  8
1
  6
DASHED
 10
353.88766
 20
400.285119
 30
0.0
 11
346.936247
 21
400.285119
 31
0.0
  0
LINE
  5
601
  8
1
 10
355.434376
 20
384.413615
 30
0.0
 11
353.88766
 21
384.413615
 31
0.0
  0
LINE
  5
602
  8
1
  6
DASHED
 10
353.88766
 20
384.413615
 30
0.0
 11
346.936247
 21
384.413615
 31
0.0
  0
LINE
  5
603
  8
1
 10
356.434155
 20
399.708962
 30
0.0
 11
356.868245
 21
400.460829
 31
0.0
  0
LINE
  5
604
  8
1
 10
364.432393
 20
399.708962
 30
0.0
 11
363.998302
 21
400.460829
 31
0.0
  0
LINE
  5
605
  8
1
 10
356.434155
 20
384.989772
 30
0.0
 11
356.868245
 21
384.237905
 31
0.0
  0
LINE
  5
606
  8
1
 10
364.432393
 20
384.989772
 30
0.0
 11
363.998302
 21
384.237905
 31
0.0
  0
LINE
  5
607
  8
1
 10
335.891623
 20
399.847712
 30
0.0
 11
335.891624
 21
384.85102
 31
0.0
  0
LINE
  5
608
  8
1
 10
353.88766
 20
402.847055
 30
0.0
 11
353.88766
 21
381.85168
 31
0.0
  0
LINE
  5
609
  8
1
 10
353.38777
 20
403.346945
 30
0.0
 11
342.083775
 21
403.346945
 31
0.0
  0
LINE
  5
60A
  8
1
 10
353.88766
 20
402.847055
 30
0.0
 11
353.38777
 21
403.346945
 31
0.0
  0
LINE
  5
60B
  8
1
 10
353.88766
 20
381.85168
 30
0.0
 11
353.38777
 21
381.35179
 31
0.0
  0
ARC
  5
60C
  8
1
 10
334.390628
 20
374.966537
 30
0.0
 40
9.997798
 50
39.692408
 51
81.365386
  0
ARC
  5
60D
  8
1
 10
334.390628
 20
409.732197
 30
0.0
 40
9.997798
 50
278.634614
 51
320.307592
  0
LINE
  5
60E
  8
1
  6
DASHED
 10
341.437459
 20
388.600193
 30
0.0
 11
341.437459
 21
396.098541
 31
0.0
  0
LINE
  5
60F
  8
1
  6
DASHED
 10
346.936247
 20
384.401118
 30
0.0
 11
346.936247
 21
385.600854
 31
0.0
  0
LINE
  5
610
  8
1
  6
DASHED
 10
344.436798
 20
399.097881
 30
0.0
 11
341.437459
 21
396.098541
 31
0.0
  0
LINE
  5
611
  8
1
  6
DASHED
 10
341.437459
 20
388.600193
 30
0.0
 11
344.436798
 21
385.600854
 31
0.0
  0
LINE
  5
612
  8
1
  6
DASHED
 10
346.936247
 20
399.097881
 30
0.0
 11
346.936247
 21
400.297617
 31
0.0
  0
LINE
  5
613
  8
1
 10
353.38777
 20
381.35179
 30
0.0
 11
342.083775
 21
381.35179
 31
0.0
  0
ARC
  5
614
  8
1
 10
350.555092
 20
397.848156
 30
0.0
 40
9.164679
 50
143.130249
 51
216.869751
  0
ARC
  5
615
  8
1
 10
350.555092
 20
386.850578
 30
0.0
 40
9.164679
 50
143.130249
 51
216.869751
  0
ARC
  5
616
  8
1
 10
345.918868
 20
397.848156
 30
0.0
 40
7.968792
 50
316.366687
 51
43.633313
  0
ARC
  5
617
  8
1
 10
345.918868
 20
386.850578
 30
0.0
 40
7.968792
 50
316.366687
 51
43.633313
  0
LINE
  5
618
  8
1
 10
351.686447
 20
392.349367
 30
0.0
 11
343.22333
 21
392.349369
 31
0.0
  0
LINE
  5
619
  8
1
 10
351.686454
 20
392.349365
 30
0.0
 11
357.850506
 21
392.349366
 31
0.0
  0
ARC
  5
61A
  8
1
 10
362.941288
 20
396.405097
 30
0.0
 40
6.508842
 50
141.456313
 51
218.543687
  0
ARC
  5
61B
  8
1
 10
362.941283
 20
388.293635
 30
0.0
 40
6.508836
 50
141.456297
 51
218.543703
  0
ARC
  5
61C
  8
1
 10
357.925269
 20
396.405098
 30
0.0
 40
6.508832
 50
321.456253
 51
38.543747
  0
ARC
  5
61D
  8
1
 10
357.925273
 20
388.293636
 30
0.0
 40
6.508829
 50
321.456241
 51
38.543759
  0
LINE
  5
61E
  8
1
 10
363.016039
 20
392.349366
 30
0.0
 11
357.850503
 21
392.349367
 31
0.0
  0
LINE
  5
61F
  8
1
  6
DASHDOT
 10
363.016047
 20
392.349357
 30
0.0
 11
421.570433
 21
392.349358
 31
0.0
  0
LINE
  5
620
  8
1
 10
364.432393
 20
387.600403
 30
0.0
 11
422.304295
 21
387.600404
 31
0.0
  0
LINE
  5
621
  8
1
 10
364.432393
 20
397.098311
 30
0.0
 11
420.836571
 21
397.098312
 31
0.0
  0
POLYLINE
  5
622
  8
1
 66
     1
 10
0.0
 20
0.0
 30
0.0
 70
     8
  0
VERTEX
  5
623
  8
1
 10
371.127474
 20
-564.0986
 30
0.0
 70
    32
  0
VERTEX
  5
624
  8
1
 10
373.12459
 20
-563.285142
 30
0.0
 70
    32
  0
VERTEX
  5
625
  8
1
 10
374.737384
 20
-561.294608
 30
0.0
 70
    32
  0
VERTEX
  5
626
  8
1
 10
375.866492
 20
-558.928094
 30
0.0
 70
    32
  0
VERTEX
  5
627
  8
1
 10
376.610376
 20
-556.686083
 30
0.0
 70
    32
  0
VERTEX
  5
628
  8
1
 10
377.096809
 20
-554.733387
 30
0.0
 70
    32
  0
VERTEX
  5
629
  8
1
 10
377.420273
 20
-553.073013
 30
0.0
 70
    32
  0
VERTEX
  5
62A
  8
1
 10
377.64057
 20
-551.658136
 30
0.0
 70
    32
  0
VERTEX
  5
62B
  8
1
 10
377.79403
 20
-550.436236
 30
0.0
 70
    32
  0
VERTEX
  5
62C
  8
1
 10
377.902752
 20
-549.361945
 30
0.0
 70
    32
  0
VERTEX
  5
62D
  8
1
 10
377.980394
 20
-548.39888
 30
0.0
 70
    32
  0
VERTEX
  5
62E
  8
1
 10
378.035548
 20
-547.51833
 30
0.0
 70
    32
  0
VERTEX
  5
62F
  8
1
 10
378.073674
 20
-546.697385
 30
0.0
 70
    32
  0
VERTEX
  5
630
  8
1
 10
378.098215
 20
-545.917253
 30
0.0
 70
    32
  0
VERTEX
  5
631
  8
1
 10
378.111238
 20
-545.161883
 30
0.0
 70
    32
  0
VERTEX
  5
632
  8
1
 10
378.113792
 20
-544.416849
 30
0.0
 70
    32
  0
VERTEX
  5
633
  8
1
 10
378.106079
 20
-543.668387
 30
0.0
 70
    32
  0
VERTEX
  5
634
  8
1
 10
378.087486
 20
-542.902518
 30
0.0
 70
    32
  0
VERTEX
  5
635
  8
1
 10
378.056486
 20
-542.104128
 30
0.0
 70
    32
  0
VERTEX
  5
636
  8
1
 10
378.010383
 20
-541.255951
 30
0.0
 70
    32
  0
VERTEX
  5
637
  8
1
 10
377.94483
 20
-540.337327
 30
0.0
 70
    32
  0
VERTEX
  5
638
  8
1
 10
377.85298
 20
-539.322674
 30
0.0
 70
    32
  0
VERTEX
  5
639
  8
1
 10
377.724023
 20
-538.179673
 30
0.0
 70
    32
  0
VERTEX
  5
63A
  8
1
 10
377.540623
 20
-536.867516
 30
0.0
 70
    32
  0
VERTEX
  5
63B
  8
1
 10
377.274491
 20
-535.336625
 30
0.0
 70
    32
  0
VERTEX
  5
63C
  8
1
 10
376.878941
 20
-533.534452
 30
0.0
 70
    32
  0
VERTEX
  5
63D
  8
1
 10
376.278074
 20
-531.430298
 30
0.0
 70
    32
  0
VERTEX
  5
63E
  8
1
 10
375.358423
 20
-529.088476
 30
0.0
 70
    32
  0
VERTEX
  5
63F
  8
1
 10
373.992313
 20
-526.821541
 30
0.0
 70
    32
  0
VERTEX
  5
640
  8
1
 10
372.155247
 20
-525.319286
 30
0.0
 70
    32
  0
VERTEX
  5
641
  8
1
 10
370.099702
 20
-525.319286
 30
0.0
 70
    32
  0
VERTEX
  5
642
  8
1
 10
368.262636
 20
-526.821541
 30
0.0
 70
    32
  0
VERTEX
  5
643
  8
1
 10
366.896526
 20
-529.088476
 30
0.0
 70
    32
  0
VERTEX
  5
644
  8
1
 10
365.976875
 20
-531.430298
 30
0.0
 70
    32
  0
VERTEX
  5
645
  8
1
 10
365.376008
 20
-533.534452
 30
0.0
 70
    32
  0
VERTEX
  5
646
  8
1
 10
364.980458
 20
-535.336625
 30
0.0
 70
    32
  0
VERTEX
  5
647
  8
1
 10
364.714325
 20
-536.867516
 30
0.0
 70
    32
  0
VERTEX
  5
648
  8
1
 10
364.530926
 20
-538.179673
 30
0.0
 70
    32
  0
VERTEX
  5
649
  8
1
 10
364.401968
 20
-539.322674
 30
0.0
 70
    32
  0
VERTEX
  5
64A
  8
1
 10
364.310119
 20
-540.337327
 30
0.0
 70
    32
  0
VERTEX
  5
64B
  8
1
 10
364.244566
 20
-541.255951
 30
0.0
 70
    32
  0
VERTEX
  5
64C
  8
1
 10
364.198463
 20
-542.104128
 30
0.0
 70
    32
  0
VERTEX
  5
64D
  8
1
 10
364.167463
 20
-542.902518
 30
0.0
 70
    32
  0
VERTEX
  5
64E
  8
1
 10
364.148869
 20
-543.668387
 30
0.0
 70
    32
  0
VERTEX
  5
64F
  8
1
 10
364.141156
 20
-544.416849
 30
0.0
 70
    32
  0
VERTEX
  5
650
  8
1
 10
364.143711
 20
-545.161883
 30
0.0
 70
    32
  0
VERTEX
  5
651
  8
1
 10
364.156734
 20
-545.917253
 30
0.0
 70
    32
  0
VERTEX
  5
652
  8
1
 10
364.181275
 20
-546.697385
 30
0.0
 70
    32
  0
VERTEX
  5
653
  8
1
 10
364.219401
 20
-547.51833
 30
0.0
 70
    32
  0
VERTEX
  5
654
  8
1
 10
364.274555
 20
-548.39888
 30
0.0
 70
    32
  0
VERTEX
  5
655
  8
1
 10
364.352197
 20
-549.361945
 30
0.0
 70
    32
  0
VERTEX
  5
656
  8
1
 10
364.460919
 20
-550.436236
 30
0.0
 70
    32
  0
VERTEX
  5
657
  8
1
 10
364.614379
 20
-551.658136
 30
0.0
 70
    32
  0
VERTEX
  5
658
  8
1
 10
364.834676
 20
-553.073013
 30
0.0
 70
    32
  0
VERTEX
  5
659
  8
1
 10
365.158139
 20
-554.733387
 30
0.0
 70
    32
  0
VERTEX
  5
65A
  8
1
 10
365.644573
 20
-556.686083
 30
0.0
 70
    32
  0
VERTEX
  5
65B
  8
1
 10
366.388457
 20
-558.928094
 30
0.0
 70
    32
  0
VERTEX
  5
65C
  8
1
 10
367.517564
 20
-561.294608
 30
0.0
 70
    32
  0
VERTEX
  5
65D
  8
1
 10
369.130359
 20
-563.285142
 30
0.0
 70
    32
  0
VERTEX
  5
65E
  8
1
 10
371.127474
 20
-564.0986
 30
0.0
 70
    32
  0
SEQEND
  5
65F
  8
DEFPOINTS
  0
LINE
  5
660
  8
1
  6
DASHDOT
 10
371.127474
 20
-571.12104
 30
0.0
 11
371.127474
 21
-508.27856
 31
0.0
  0
LINE
  5
661
  8
1
  6
DASHDOT
 10
360.647583
 20
-544.602894
 30
0.0
 11
387.672042
 21
-544.602894
 31
0.0
  0
LINE
  5
662
  8
1
 10
-1126.554064
 20
-567.780409
 30
0.0
 11
-1126.554064
 21
-547.784813
 31
0.0
  0
LINE
  5
663
  8
1
 10
-1132.694847
 20
-547.784813
 30
0.0
 11
-1120.413281
 21
-547.784813
 31
0.0
  0
LINE
  5
664
  8
1
 10
-1112.415043
 20
-572.779308
 30
0.0
 11
-1112.415043
 21
-545.784962
 31
0.0
  0
LINE
  5
665
  8
1
 10
-1138.572358
 20
-542.785914
 30
0.0
 11
-1114.535752
 21
-542.785914
 31
0.0
  0
POLYLINE
  5
666
  8
1
 66
     1
 10
0.0
 20
0.0
 30
0.0
 70
     8
  0
VERTEX
  5
667
  8
1
 10
-1112.415043
 20
-545.785253
 30
0.0
 70
    32
  0
VERTEX
  5
668
  8
1
 10
-1112.415419
 20
-545.728785
 30
0.0
 70
    32
  0
VERTEX
  5
669
  8
1
 10
-1112.416548
 20
-545.672297
 30
0.0
 70
    32
  0
VERTEX
  5
66A
  8
1
 10
-1112.418432
 20
-545.615769
 30
0.0
 70
    32
  0
VERTEX
  5
66B
  8
1
 10
-1112.421076
 20
-545.559181
 30
0.0
 70
    32
  0
VERTEX
  5
66C
  8
1
 10
-1112.424487
 20
-545.502514
 30
0.0
 70
    32
  0
VERTEX
  5
66D
  8
1
 10
-1112.428674
 20
-545.445749
 30
0.0
 70
    32
  0
VERTEX
  5
66E
  8
1
 10
-1112.433646
 20
-545.388866
 30
0.0
 70
    32
  0
VERTEX
  5
66F
  8
1
 10
-1112.439416
 20
-545.331848
 30
0.0
 70
    32
  0
VERTEX
  5
670
  8
1
 10
-1112.445998
 20
-545.274677
 30
0.0
 70
    32
  0
VERTEX
  5
671
  8
1
 10
-1112.453409
 20
-545.217337
 30
0.0
 70
    32
  0
VERTEX
  5
672
  8
1
 10
-1112.461667
 20
-545.15981
 30
0.0
 70
    32
  0
VERTEX
  5
673
  8
1
 10
-1112.470792
 20
-545.102082
 30
0.0
 70
    32
  0
VERTEX
  5
674
  8
1
 10
-1112.480807
 20
-545.044139
 30
0.0
 70
    32
  0
VERTEX
  5
675
  8
1
 10
-1112.491736
 20
-544.985969
 30
0.0
 70
    32
  0
VERTEX
  5
676
  8
1
 10
-1112.503607
 20
-544.92756
 30
0.0
 70
    32
  0
VERTEX
  5
677
  8
1
 10
-1112.516448
 20
-544.868903
 30
0.0
 70
    32
  0
VERTEX
  5
678
  8
1
 10
-1112.530292
 20
-544.809991
 30
0.0
 70
    32
  0
VERTEX
  5
679
  8
1
 10
-1112.54517
 20
-544.750817
 30
0.0
 70
    32
  0
VERTEX
  5
67A
  8
1
 10
-1112.56112
 20
-544.691381
 30
0.0
 70
    32
  0
VERTEX
  5
67B
  8
1
 10
-1112.57818
 20
-544.63168
 30
0.0
 70
    32
  0
VERTEX
  5
67C
  8
1
 10
-1112.59639
 20
-544.571719
 30
0.0
 70
    32
  0
VERTEX
  5
67D
  8
1
 10
-1112.615792
 20
-544.511503
 30
0.0
 70
    32
  0
VERTEX
  5
67E
  8
1
 10
-1112.636433
 20
-544.451044
 30
0.0
 70
    32
  0
VERTEX
  5
67F
  8
1
 10
-1112.658359
 20
-544.390354
 30
0.0
 70
    32
  0
VERTEX
  5
680
  8
1
 10
-1112.68162
 20
-544.329454
 30
0.0
 70
    32
  0
VERTEX
  5
681
  8
1
 10
-1112.706266
 20
-544.268367
 30
0.0
 70
    32
  0
VERTEX
  5
682
  8
1
 10
-1112.732352
 20
-544.207124
 30
0.0
 70
    32
  0
VERTEX
  5
683
  8
1
 10
-1112.759932
 20
-544.14576
 30
0.0
 70
    32
  0
VERTEX
  5
684
  8
1
 10
-1112.789062
 20
-544.084318
 30
0.0
 70
    32
  0
VERTEX
  5
685
  8
1
 10
-1112.8198
 20
-544.02285
 30
0.0
 70
    32
  0
VERTEX
  5
686
  8
1
 10
-1112.852204
 20
-543.961412
 30
0.0
 70
    32
  0
VERTEX
  5
687
  8
1
 10
-1112.886332
 20
-543.900071
 30
0.0
 70
    32
  0
VERTEX
  5
688
  8
1
 10
-1112.922242
 20
-543.838904
 30
0.0
 70
    32
  0
VERTEX
  5
689
  8
1
 10
-1112.959991
 20
-543.777996
 30
0.0
 70
    32
  0
VERTEX
  5
68A
  8
1
 10
-1112.999635
 20
-543.717443
 30
0.0
 70
    32
  0
VERTEX
  5
68B
  8
1
 10
-1113.041228
 20
-543.657351
 30
0.0
 70
    32
  0
VERTEX
  5
68C
  8
1
 10
-1113.084819
 20
-543.597838
 30
0.0
 70
    32
  0
VERTEX
  5
68D
  8
1
 10
-1113.130454
 20
-543.539034
 30
0.0
 70
    32
  0
VERTEX
  5
68E
  8
1
 10
-1113.178175
 20
-543.481079
 30
0.0
 70
    32
  0
VERTEX
  5
68F
  8
1
 10
-1113.228014
 20
-543.424125
 30
0.0
 70
    32
  0
VERTEX
  5
690
  8
1
 10
-1113.28
 20
-543.368337
 30
0.0
 70
    32
  0
VERTEX
  5
691
  8
1
 10
-1113.334149
 20
-543.313889
 30
0.0
 70
    32
  0
VERTEX
  5
692
  8
1
 10
-1113.390469
 20
-543.260966
 30
0.0
 70
    32
  0
VERTEX
  5
693
  8
1
 10
-1113.448954
 20
-543.209763
 30
0.0
 70
    32
  0
VERTEX
  5
694
  8
1
 10
-1113.509588
 20
-543.160483
 30
0.0
 70
    32
  0
VERTEX
  5
695
  8
1
 10
-1113.572339
 20
-543.113334
 30
0.0
 70
    32
  0
VERTEX
  5
696
  8
1
 10
-1113.637159
 20
-543.068531
 30
0.0
 70
    32
  0
VERTEX
  5
697
  8
1
 10
-1113.703984
 20
-543.026289
 30
0.0
 70
    32
  0
VERTEX
  5
698
  8
1
 10
-1113.772735
 20
-542.986824
 30
0.0
 70
    32
  0
VERTEX
  5
699
  8
1
 10
-1113.84331
 20
-542.950348
 30
0.0
 70
    32
  0
VERTEX
  5
69A
  8
1
 10
-1113.915595
 20
-542.917068
 30
0.0
 70
    32
  0
VERTEX
  5
69B
  8
1
 10
-1113.989454
 20
-542.887179
 30
0.0
 70
    32
  0
VERTEX
  5
69C
  8
1
 10
-1114.064734
 20
-542.860865
 30
0.0
 70
    32
  0
VERTEX
  5
69D
  8
1
 10
-1114.141268
 20
-542.838293
 30
0.0
 70
    32
  0
VERTEX
  5
69E
  8
1
 10
-1114.218872
 20
-542.819612
 30
0.0
 70
    32
  0
VERTEX
  5
69F
  8
1
 10
-1114.297349
 20
-542.804947
 30
0.0
 70
    32
  0
VERTEX
  5
6A0
  8
1
 10
-1114.37649
 20
-542.794398
 30
0.0
 70
    32
  0
VERTEX
  5
6A1
  8
1
 10
-1114.456081
 20
-542.788039
 30
0.0
 70
    32
  0
VERTEX
  5
6A2
  8
1
 10
-1114.535896
 20
-542.785914
 30
0.0
 70
    32
  0
SEQEND
  5
6A3
  8
DEFPOINTS
  0
POLYLINE
  5
6A4
  8
1
 66
     1
 10
0.0
 20
0.0
 30
0.0
 70
     8
  0
VERTEX
  5
6A5
  8
1
 10
-1138.572232
 20
-542.785914
 30
0.0
 70
    32
  0
VERTEX
  5
6A6
  8
1
 10
-1138.652048
 20
-542.788039
 30
0.0
 70
    32
  0
VERTEX
  5
6A7
  8
1
 10
-1138.731638
 20
-542.794398
 30
0.0
 70
    32
  0
VERTEX
  5
6A8
  8
1
 10
-1138.81078
 20
-542.804947
 30
0.0
 70
    32
  0
VERTEX
  5
6A9
  8
1
 10
-1138.889257
 20
-542.819612
 30
0.0
 70
    32
  0
VERTEX
  5
6AA
  8
1
 10
-1138.966861
 20
-542.838293
 30
0.0
 70
    32
  0
VERTEX
  5
6AB
  8
1
 10
-1139.043395
 20
-542.860865
 30
0.0
 70
    32
  0
VERTEX
  5
6AC
  8
1
 10
-1139.118675
 20
-542.887179
 30
0.0
 70
    32
  0
VERTEX
  5
6AD
  8
1
 10
-1139.192534
 20
-542.917068
 30
0.0
 70
    32
  0
VERTEX
  5
6AE
  8
1
 10
-1139.264818
 20
-542.950348
 30
0.0
 70
    32
  0
VERTEX
  5
6AF
  8
1
 10
-1139.335394
 20
-542.986824
 30
0.0
 70
    32
  0
VERTEX
  5
6B0
  8
1
 10
-1139.404144
 20
-543.026289
 30
0.0
 70
    32
  0
VERTEX
  5
6B1
  8
1
 10
-1139.47097
 20
-543.068531
 30
0.0
 70
    32
  0
VERTEX
  5
6B2
  8
1
 10
-1139.53579
 20
-543.113334
 30
0.0
 70
    32
  0
VERTEX
  5
6B3
  8
1
 10
-1139.598541
 20
-543.160483
 30
0.0
 70
    32
  0
VERTEX
  5
6B4
  8
1
 10
-1139.659175
 20
-543.209763
 30
0.0
 70
    32
  0
VERTEX
  5
6B5
  8
1
 10
-1139.71766
 20
-543.260966
 30
0.0
 70
    32
  0
VERTEX
  5
6B6
  8
1
 10
-1139.77398
 20
-543.313889
 30
0.0
 70
    32
  0
VERTEX
  5
6B7
  8
1
 10
-1139.828129
 20
-543.368337
 30
0.0
 70
    32
  0
VERTEX
  5
6B8
  8
1
 10
-1139.880114
 20
-543.424125
 30
0.0
 70
    32
  0
VERTEX
  5
6B9
  8
1
 10
-1139.929954
 20
-543.481079
 30
0.0
 70
    32
  0
VERTEX
  5
6BA
  8
1
 10
-1139.977675
 20
-543.539034
 30
0.0
 70
    32
  0
VERTEX
  5
6BB
  8
1
 10
-1140.02331
 20
-543.597838
 30
0.0
 70
    32
  0
VERTEX
  5
6BC
  8
1
 10
-1140.066901
 20
-543.657351
 30
0.0
 70
    32
  0
VERTEX
  5
6BD
  8
1
 10
-1140.108494
 20
-543.717443
 30
0.0
 70
    32
  0
VERTEX
  5
6BE
  8
1
 10
-1140.148138
 20
-543.777996
 30
0.0
 70
    32
  0
VERTEX
  5
6BF
  8
1
 10
-1140.185887
 20
-543.838904
 30
0.0
 70
    32
  0
VERTEX
  5
6C0
  8
1
 10
-1140.221797
 20
-543.900071
 30
0.0
 70
    32
  0
VERTEX
  5
6C1
  8
1
 10
-1140.255924
 20
-543.961412
 30
0.0
 70
    32
  0
VERTEX
  5
6C2
  8
1
 10
-1140.288328
 20
-544.02285
 30
0.0
 70
    32
  0
VERTEX
  5
6C3
  8
1
 10
-1140.319066
 20
-544.084318
 30
0.0
 70
    32
  0
VERTEX
  5
6C4
  8
1
 10
-1140.348197
 20
-544.14576
 30
0.0
 70
    32
  0
VERTEX
  5
6C5
  8
1
 10
-1140.375777
 20
-544.207124
 30
0.0
 70
    32
  0
VERTEX
  5
6C6
  8
1
 10
-1140.401862
 20
-544.268367
 30
0.0
 70
    32
  0
VERTEX
  5
6C7
  8
1
 10
-1140.426509
 20
-544.329454
 30
0.0
 70
    32
  0
VERTEX
  5
6C8
  8
1
 10
-1140.44977
 20
-544.390354
 30
0.0
 70
    32
  0
VERTEX
  5
6C9
  8
1
 10
-1140.471696
 20
-544.451044
 30
0.0
 70
    32
  0
VERTEX
  5
6CA
  8
1
 10
-1140.492336
 20
-544.511503
 30
0.0
 70
    32
  0
VERTEX
  5
6CB
  8
1
 10
-1140.511739
 20
-544.571719
 30
0.0
 70
    32
  0
VERTEX
  5
6CC
  8
1
 10
-1140.529949
 20
-544.63168
 30
0.0
 70
    32
  0
VERTEX
  5
6CD
  8
1
 10
-1140.547008
 20
-544.691381
 30
0.0
 70
    32
  0
VERTEX
  5
6CE
  8
1
 10
-1140.562958
 20
-544.750817
 30
0.0
 70
    32
  0
VERTEX
  5
6CF
  8
1
 10
-1140.577837
 20
-544.809991
 30
0.0
 70
    32
  0
VERTEX
  5
6D0
  8
1
 10
-1140.59168
 20
-544.868903
 30
0.0
 70
    32
  0
VERTEX
  5
6D1
  8
1
 10
-1140.604522
 20
-544.92756
 30
0.0
 70
    32
  0
VERTEX
  5
6D2
  8
1
 10
-1140.616393
 20
-544.985969
 30
0.0
 70
    32
  0
VERTEX
  5
6D3
  8
1
 10
-1140.627322
 20
-545.044139
 30
0.0
 70
    32
  0
VERTEX
  5
6D4
  8
1
 10
-1140.637337
 20
-545.102082
 30
0.0
 70
    32
  0
VERTEX
  5
6D5
  8
1
 10
-1140.646462
 20
-545.15981
 30
0.0
 70
    32
  0
VERTEX
  5
6D6
  8
1
 10
-1140.65472
 20
-545.217337
 30
0.0
 70
    32
  0
VERTEX
  5
6D7
  8
1
 10
-1140.662131
 20
-545.274677
 30
0.0
 70
    32
  0
VERTEX
  5
6D8
  8
1
 10
-1140.668713
 20
-545.331848
 30
0.0
 70
    32
  0
VERTEX
  5
6D9
  8
1
 10
-1140.674483
 20
-545.388866
 30
0.0
 70
    32
  0
VERTEX
  5
6DA
  8
1
 10
-1140.679455
 20
-545.445749
 30
0.0
 70
    32
  0
VERTEX
  5
6DB
  8
1
 10
-1140.683641
 20
-545.502514
 30
0.0
 70
    32
  0
VERTEX
  5
6DC
  8
1
 10
-1140.687053
 20
-545.559181
 30
0.0
 70
    32
  0
VERTEX
  5
6DD
  8
1
 10
-1140.689697
 20
-545.615769
 30
0.0
 70
    32
  0
VERTEX
  5
6DE
  8
1
 10
-1140.691581
 20
-545.672297
 30
0.0
 70
    32
  0
VERTEX
  5
6DF
  8
1
 10
-1140.69271
 20
-545.728785
 30
0.0
 70
    32
  0
VERTEX
  5
6E0
  8
1
 10
-1140.693086
 20
-545.785253
 30
0.0
 70
    32
  0
SEQEND
  5
6E1
  8
DEFPOINTS
  0
LINE
  5
6E2
  8
1
 10
-1140.693086
 20
-572.779308
 30
0.0
 11
-1140.693086
 21
-545.784962
 31
0.0
  0
LINE
  5
6E3
  8
1
 10
-1117.413942
 20
-564.781069
 30
0.0
 11
-1117.413942
 21
-550.784152
 31
0.0
  0
LINE
  5
6E4
  8
1
 10
-1135.694187
 20
-564.781069
 30
0.0
 11
-1135.694187
 21
-550.784152
 31
0.0
  0
ARC
  5
6E5
  8
1
 10
-1132.694847
 20
-550.784152
 30
0.0
 40
2.999339
 50
90.0
 51
180.0
  0
ARC
  5
6E6
  8
1
 10
-1120.413281
 20
-550.784152
 30
0.0
 40
2.999339
 50
0.0
 51
90.0
  0
LINE
  5
6E7
  8
1
 10
-1132.694847
 20
-567.780409
 30
0.0
 11
-1120.413281
 21
-567.780409
 31
0.0
  0
ARC
  5
6E8
  8
1
 10
-1132.694847
 20
-564.781069
 30
0.0
 40
2.999339
 50
180.0
 51
270.0
  0
ARC
  5
6E9
  8
1
 10
-1120.413281
 20
-564.781069
 30
0.0
 40
2.999339
 50
270.0
 51
0.0
  0
LINE
  5
6EA
  8
1
 10
-1117.413942
 20
-557.782611
 30
0.0
 11
-1135.694187
 21
-557.782611
 31
0.0
  0
LINE
  5
6EB
  8
1
  6
DIVIDE
 10
-1276.760483
 20
-433.67086
 30
0.0
 11
-1276.760562
 21
-387.938625
 31
0.0
  0
LINE
  5
6EC
  8
1
  6
DIVIDE
 10
-1268.762444
 20
-433.67086
 30
0.0
 11
-1268.762365
 21
-387.938625
 31
0.0
  0
LINE
  5
6ED
  8
1
 10
-1264.263235
 20
-433.67086
 30
0.0
 11
-1281.259692
 21
-433.67086
 31
0.0
  0
LINE
  5
6EE
  8
1
 10
-1269.262134
 20
-433.67086
 30
0.0
 11
-1269.262134
 21
-443.668658
 31
0.0
  0
LINE
  5
6EF
  8
1
 10
-1242.219844
 20
-444.207627
 30
0.0
 11
-1305.209185
 21
-444.207627
 31
0.0
  0
LINE
  5
6F0
  8
1
 10
-1241.751318
 20
-450.806174
 30
0.0
 11
-1271.558315
 21
-450.806174
 31
0.0
  0
LINE
  5
6F1
  8
1
 10
-1272.689436
 20
-457.804684
 30
0.0
 11
-1272.689436
 21
-444.207627
 31
0.0
  0
LINE
  5
6F2
  8
1
 10
-1271.558315
 20
-457.804669
 30
0.0
 11
-1271.558315
 21
-450.806174
 31
0.0
  0
LINE
  5
6F3
  8
1
 10
-1284.707604
 20
-457.804697
 30
0.0
 11
-1284.707604
 21
-444.207627
 31
0.0
  0
LINE
  5
6F4
  8
1
 10
-1284.707604
 20
-450.806174
 30
0.0
 11
-1292.059895
 21
-450.806174
 31
0.0
  0
LINE
  5
6F5
  8
1
 10
-1293.191017
 20
-457.804691
 30
0.0
 11
-1293.191017
 21
-444.207627
 31
0.0
  0
LINE
  5
6F6
  8
1
 10
-1292.059895
 20
-457.804665
 30
0.0
 11
-1292.059895
 21
-450.806174
 31
0.0
  0
LINE
  5
6F7
  8
1
 10
-1294.180723
 20
-460.803971
 30
0.0
 11
-1303.08836
 21
-460.803971
 31
0.0
  0
LINE
  5
6F8
  8
1
 10
-1305.209185
 20
-457.804668
 30
0.0
 11
-1305.209185
 21
-444.207627
 31
0.0
  0
POLYLINE
  5
6F9
  8
1
 66
     1
 10
0.0
 20
0.0
 30
0.0
 70
     8
  0
VERTEX
  5
6FA
  8
1
 10
-1295.31187
 20
-460.803971
 30
0.0
 70
    32
  0
VERTEX
  5
6FB
  8
1
 10
-1295.232054
 20
-460.801846
 30
0.0
 70
    32
  0
VERTEX
  5
6FC
  8
1
 10
-1295.152464
 20
-460.795487
 30
0.0
 70
    32
  0
VERTEX
  5
6FD
  8
1
 10
-1295.073323
 20
-460.784938
 30
0.0
 70
    32
  0
VERTEX
  5
6FE
  8
1
 10
-1294.994846
 20
-460.770273
 30
0.0
 70
    32
  0
VERTEX
  5
6FF
  8
1
 10
-1294.917242
 20
-460.751591
 30
0.0
 70
    32
  0
VERTEX
  5
700
  8
1
 10
-1294.840708
 20
-460.72902
 30
0.0
 70
    32
  0
VERTEX
  5
701
  8
1
 10
-1294.765427
 20
-460.702706
 30
0.0
 70
    32
  0
VERTEX
  5
702
  8
1
 10
-1294.691569
 20
-460.672817
 30
0.0
 70
    32
  0
VERTEX
  5
703
  8
1
 10
-1294.619284
 20
-460.639536
 30
0.0
 70
    32
  0
VERTEX
  5
704
  8
1
 10
-1294.548708
 20
-460.60306
 30
0.0
 70
    32
  0
VERTEX
  5
705
  8
1
 10
-1294.479958
 20
-460.563595
 30
0.0
 70
    32
  0
VERTEX
  5
706
  8
1
 10
-1294.413133
 20
-460.521353
 30
0.0
 70
    32
  0
VERTEX
  5
707
  8
1
 10
-1294.348313
 20
-460.47655
 30
0.0
 70
    32
  0
VERTEX
  5
708
  8
1
 10
-1294.285562
 20
-460.429402
 30
0.0
 70
    32
  0
VERTEX
  5
709
  8
1
 10
-1294.224928
 20
-460.380122
 30
0.0
 70
    32
  0
VERTEX
  5
70A
  8
1
 10
-1294.166442
 20
-460.328919
 30
0.0
 70
    32
  0
VERTEX
  5
70B
  8
1
 10
-1294.110123
 20
-460.275996
 30
0.0
 70
    32
  0
VERTEX
  5
70C
  8
1
 10
-1294.055974
 20
-460.221548
 30
0.0
 70
    32
  0
VERTEX
  5
70D
  8
1
 10
-1294.003988
 20
-460.16576
 30
0.0
 70
    32
  0
VERTEX
  5
70E
  8
1
 10
-1293.954148
 20
-460.108806
 30
0.0
 70
    32
  0
VERTEX
  5
70F
  8
1
 10
-1293.906428
 20
-460.050851
 30
0.0
 70
    32
  0
VERTEX
  5
710
  8
1
 10
-1293.860793
 20
-459.992046
 30
0.0
 70
    32
  0
VERTEX
  5
711
  8
1
 10
-1293.817201
 20
-459.932534
 30
0.0
 70
    32
  0
VERTEX
  5
712
  8
1
 10
-1293.775609
 20
-459.872442
 30
0.0
 70
    32
  0
VERTEX
  5
713
  8
1
 10
-1293.735965
 20
-459.811889
 30
0.0
 70
    32
  0
VERTEX
  5
714
  8
1
 10
-1293.698216
 20
-459.750981
 30
0.0
 70
    32
  0
VERTEX
  5
715
  8
1
 10
-1293.662306
 20
-459.689813
 30
0.0
 70
    32
  0
VERTEX
  5
716
  8
1
 10
-1293.628178
 20
-459.628473
 30
0.0
 70
    32
  0
VERTEX
  5
717
  8
1
 10
-1293.595774
 20
-459.567035
 30
0.0
 70
    32
  0
VERTEX
  5
718
  8
1
 10
-1293.565036
 20
-459.505566
 30
0.0
 70
    32
  0
VERTEX
  5
719
  8
1
 10
-1293.535906
 20
-459.444125
 30
0.0
 70
    32
  0
VERTEX
  5
71A
  8
1
 10
-1293.508326
 20
-459.382761
 30
0.0
 70
    32
  0
VERTEX
  5
71B
  8
1
 10
-1293.48224
 20
-459.321518
 30
0.0
 70
    32
  0
VERTEX
  5
71C
  8
1
 10
-1293.457593
 20
-459.260431
 30
0.0
 70
    32
  0
VERTEX
  5
71D
  8
1
 10
-1293.434333
 20
-459.199531
 30
0.0
 70
    32
  0
VERTEX
  5
71E
  8
1
 10
-1293.412407
 20
-459.138841
 30
0.0
 70
    32
  0
VERTEX
  5
71F
  8
1
 10
-1293.391766
 20
-459.078381
 30
0.0
 70
    32
  0
VERTEX
  5
720
  8
1
 10
-1293.372364
 20
-459.018166
 30
0.0
 70
    32
  0
VERTEX
  5
721
  8
1
 10
-1293.354154
 20
-458.958204
 30
0.0
 70
    32
  0
VERTEX
  5
722
  8
1
 10
-1293.337094
 20
-458.898504
 30
0.0
 70
    32
  0
VERTEX
  5
723
  8
1
 10
-1293.321144
 20
-458.839067
 30
0.0
 70
    32
  0
VERTEX
  5
724
  8
1
 10
-1293.306266
 20
-458.779894
 30
0.0
 70
    32
  0
VERTEX
  5
725
  8
1
 10
-1293.292422
 20
-458.720982
 30
0.0
 70
    32
  0
VERTEX
  5
726
  8
1
 10
-1293.279581
 20
-458.662325
 30
0.0
 70
    32
  0
VERTEX
  5
727
  8
1
 10
-1293.26771
 20
-458.603916
 30
0.0
 70
    32
  0
VERTEX
  5
728
  8
1
 10
-1293.25678
 20
-458.545745
 30
0.0
 70
    32
  0
VERTEX
  5
729
  8
1
 10
-1293.246766
 20
-458.487803
 30
0.0
 70
    32
  0
VERTEX
  5
72A
  8
1
 10
-1293.23764
 20
-458.430075
 30
0.0
 70
    32
  0
VERTEX
  5
72B
  8
1
 10
-1293.229383
 20
-458.372548
 30
0.0
 70
    32
  0
VERTEX
  5
72C
  8
1
 10
-1293.221972
 20
-458.315207
 30
0.0
 70
    32
  0
VERTEX
  5
72D
  8
1
 10
-1293.21539
 20
-458.258036
 30
0.0
 70
    32
  0
VERTEX
  5
72E
  8
1
 10
-1293.20962
 20
-458.201018
 30
0.0
 70
    32
  0
VERTEX
  5
72F
  8
1
 10
-1293.204648
 20
-458.144136
 30
0.0
 70
    32
  0
VERTEX
  5
730
  8
1
 10
-1293.200461
 20
-458.087371
 30
0.0
 70
    32
  0
VERTEX
  5
731
  8
1
 10
-1293.19705
 20
-458.030704
 30
0.0
 70
    32
  0
VERTEX
  5
732
  8
1
 10
-1293.194406
 20
-457.974116
 30
0.0
 70
    32
  0
VERTEX
  5
733
  8
1
 10
-1293.192521
 20
-457.917588
 30
0.0
 70
    32
  0
VERTEX
  5
734
  8
1
 10
-1293.191393
 20
-457.8611
 30
0.0
 70
    32
  0
VERTEX
  5
735
  8
1
 10
-1293.191017
 20
-457.804631
 30
0.0
 70
    32
  0
SEQEND
  5
736
  8
DEFPOINTS
  0
POLYLINE
  5
737
  8
1
 66
     1
 10
0.0
 20
0.0
 30
0.0
 70
     8
  0
VERTEX
  5
738
  8
1
 10
-1294.180748
 20
-460.803971
 30
0.0
 70
    32
  0
VERTEX
  5
739
  8
1
 10
-1294.100933
 20
-460.801846
 30
0.0
 70
    32
  0
VERTEX
  5
73A
  8
1
 10
-1294.021343
 20
-460.795487
 30
0.0
 70
    32
  0
VERTEX
  5
73B
  8
1
 10
-1293.942201
 20
-460.784938
 30
0.0
 70
    32
  0
VERTEX
  5
73C
  8
1
 10
-1293.863724
 20
-460.770273
 30
0.0
 70
    32
  0
VERTEX
  5
73D
  8
1
 10
-1293.78612
 20
-460.751591
 30
0.0
 70
    32
  0
VERTEX
  5
73E
  8
1
 10
-1293.709586
 20
-460.72902
 30
0.0
 70
    32
  0
VERTEX
  5
73F
  8
1
 10
-1293.634306
 20
-460.702706
 30
0.0
 70
    32
  0
VERTEX
  5
740
  8
1
 10
-1293.560447
 20
-460.672817
 30
0.0
 70
    32
  0
VERTEX
  5
741
  8
1
 10
-1293.488162
 20
-460.639536
 30
0.0
 70
    32
  0
VERTEX
  5
742
  8
1
 10
-1293.417587
 20
-460.60306
 30
0.0
 70
    32
  0
VERTEX
  5
743
  8
1
 10
-1293.348837
 20
-460.563595
 30
0.0
 70
    32
  0
VERTEX
  5
744
  8
1
 10
-1293.282011
 20
-460.521353
 30
0.0
 70
    32
  0
VERTEX
  5
745
  8
1
 10
-1293.217191
 20
-460.47655
 30
0.0
 70
    32
  0
VERTEX
  5
746
  8
1
 10
-1293.15444
 20
-460.429402
 30
0.0
 70
    32
  0
VERTEX
  5
747
  8
1
 10
-1293.093806
 20
-460.380122
 30
0.0
 70
    32
  0
VERTEX
  5
748
  8
1
 10
-1293.035321
 20
-460.328919
 30
0.0
 70
    32
  0
VERTEX
  5
749
  8
1
 10
-1292.979001
 20
-460.275996
 30
0.0
 70
    32
  0
VERTEX
  5
74A
  8
1
 10
-1292.924852
 20
-460.221548
 30
0.0
 70
    32
  0
VERTEX
  5
74B
  8
1
 10
-1292.872867
 20
-460.16576
 30
0.0
 70
    32
  0
VERTEX
  5
74C
  8
1
 10
-1292.823027
 20
-460.108806
 30
0.0
 70
    32
  0
VERTEX
  5
74D
  8
1
 10
-1292.775306
 20
-460.050851
 30
0.0
 70
    32
  0
VERTEX
  5
74E
  8
1
 10
-1292.729671
 20
-459.992046
 30
0.0
 70
    32
  0
VERTEX
  5
74F
  8
1
 10
-1292.68608
 20
-459.932534
 30
0.0
 70
    32
  0
VERTEX
  5
750
  8
1
 10
-1292.644487
 20
-459.872442
 30
0.0
 70
    32
  0
VERTEX
  5
751
  8
1
 10
-1292.604843
 20
-459.811889
 30
0.0
 70
    32
  0
VERTEX
  5
752
  8
1
 10
-1292.567094
 20
-459.750981
 30
0.0
 70
    32
  0
VERTEX
  5
753
  8
1
 10
-1292.531184
 20
-459.689813
 30
0.0
 70
    32
  0
VERTEX
  5
754
  8
1
 10
-1292.497056
 20
-459.628473
 30
0.0
 70
    32
  0
VERTEX
  5
755
  8
1
 10
-1292.464653
 20
-459.567035
 30
0.0
 70
    32
  0
VERTEX
  5
756
  8
1
 10
-1292.433915
 20
-459.505566
 30
0.0
 70
    32
  0
VERTEX
  5
757
  8
1
 10
-1292.404784
 20
-459.444125
 30
0.0
 70
    32
  0
VERTEX
  5
758
  8
1
 10
-1292.377204
 20
-459.382761
 30
0.0
 70
    32
  0
VERTEX
  5
759
  8
1
 10
-1292.351118
 20
-459.321518
 30
0.0
 70
    32
  0
VERTEX
  5
75A
  8
1
 10
-1292.326472
 20
-459.260431
 30
0.0
 70
    32
  0
VERTEX
  5
75B
  8
1
 10
-1292.303211
 20
-459.199531
 30
0.0
 70
    32
  0
VERTEX
  5
75C
  8
1
 10
-1292.281285
 20
-459.138841
 30
0.0
 70
    32
  0
VERTEX
  5
75D
  8
1
 10
-1292.260644
 20
-459.078381
 30
0.0
 70
    32
  0
VERTEX
  5
75E
  8
1
 10
-1292.241242
 20
-459.018166
 30
0.0
 70
    32
  0
VERTEX
  5
75F
  8
1
 10
-1292.223032
 20
-458.958204
 30
0.0
 70
    32
  0
VERTEX
  5
760
  8
1
 10
-1292.205973
 20
-458.898504
 30
0.0
 70
    32
  0
VERTEX
  5
761
  8
1
 10
-1292.190022
 20
-458.839067
 30
0.0
 70
    32
  0
VERTEX
  5
762
  8
1
 10
-1292.175144
 20
-458.779894
 30
0.0
 70
    32
  0
VERTEX
  5
763
  8
1
 10
-1292.161301
 20
-458.720982
 30
0.0
 70
    32
  0
VERTEX
  5
764
  8
1
 10
-1292.148459
 20
-458.662325
 30
0.0
 70
    32
  0
VERTEX
  5
765
  8
1
 10
-1292.136588
 20
-458.603916
 30
0.0
 70
    32
  0
VERTEX
  5
766
  8
1
 10
-1292.125659
 20
-458.545745
 30
0.0
 70
    32
  0
VERTEX
  5
767
  8
1
 10
-1292.115644
 20
-458.487803
 30
0.0
 70
    32
  0
VERTEX
  5
768
  8
1
 10
-1292.106519
 20
-458.430075
 30
0.0
 70
    32
  0
VERTEX
  5
769
  8
1
 10
-1292.098261
 20
-458.372548
 30
0.0
 70
    32
  0
VERTEX
  5
76A
  8
1
 10
-1292.09085
 20
-458.315207
 30
0.0
 70
    32
  0
VERTEX
  5
76B
  8
1
 10
-1292.084268
 20
-458.258036
 30
0.0
 70
    32
  0
VERTEX
  5
76C
  8
1
 10
-1292.078498
 20
-458.201018
 30
0.0
 70
    32
  0
VERTEX
  5
76D
  8
1
 10
-1292.073526
 20
-458.144136
 30
0.0
 70
    32
  0
VERTEX
  5
76E
  8
1
 10
-1292.069339
 20
-458.087371
 30
0.0
 70
    32
  0
VERTEX
  5
76F
  8
1
 10
-1292.065928
 20
-458.030704
 30
0.0
 70
    32
  0
VERTEX
  5
770
  8
1
 10
-1292.063284
 20
-457.974116
 30
0.0
 70
    32
  0
VERTEX
  5
771
  8
1
 10
-1292.0614
 20
-457.917588
 30
0.0
 70
    32
  0
VERTEX
  5
772
  8
1
 10
-1292.060271
 20
-457.8611
 30
0.0
 70
    32
  0
VERTEX
  5
773
  8
1
 10
-1292.059895
 20
-457.804631
 30
0.0
 70
    32
  0
SEQEND
  5
774
  8
DEFPOINTS
  0
LINE
  5
775
  8
1
 10
-1273.679144
 20
-460.803971
 30
0.0
 11
-1282.58678
 21
-460.803971
 31
0.0
  0
LINE
  5
776
  8
1
 10
-1264.263235
 20
-463.264342
 30
0.0
 11
-1281.259692
 21
-463.264342
 31
0.0
  0
POLYLINE
  5
777
  8
1
 66
     1
 10
0.0
 20
0.0
 30
0.0
 70
     8
  0
VERTEX
  5
778
  8
1
 10
-1274.81029
 20
-460.803971
 30
0.0
 70
    32
  0
VERTEX
  5
779
  8
1
 10
-1274.730474
 20
-460.801846
 30
0.0
 70
    32
  0
VERTEX
  5
77A
  8
1
 10
-1274.650884
 20
-460.795487
 30
0.0
 70
    32
  0
VERTEX
  5
77B
  8
1
 10
-1274.571742
 20
-460.784938
 30
0.0
 70
    32
  0
VERTEX
  5
77C
  8
1
 10
-1274.493265
 20
-460.770273
 30
0.0
 70
    32
  0
VERTEX
  5
77D
  8
1
 10
-1274.415661
 20
-460.751591
 30
0.0
 70
    32
  0
VERTEX
  5
77E
  8
1
 10
-1274.339127
 20
-460.72902
 30
0.0
 70
    32
  0
VERTEX
  5
77F
  8
1
 10
-1274.263847
 20
-460.702706
 30
0.0
 70
    32
  0
VERTEX
  5
780
  8
1
 10
-1274.189988
 20
-460.672817
 30
0.0
 70
    32
  0
VERTEX
  5
781
  8
1
 10
-1274.117704
 20
-460.639536
 30
0.0
 70
    32
  0
VERTEX
  5
782
  8
1
 10
-1274.047128
 20
-460.60306
 30
0.0
 70
    32
  0
VERTEX
  5
783
  8
1
 10
-1273.978378
 20
-460.563595
 30
0.0
 70
    32
  0
VERTEX
  5
784
  8
1
 10
-1273.911552
 20
-460.521353
 30
0.0
 70
    32
  0
VERTEX
  5
785
  8
1
 10
-1273.846732
 20
-460.47655
 30
0.0
 70
    32
  0
VERTEX
  5
786
  8
1
 10
-1273.783981
 20
-460.429402
 30
0.0
 70
    32
  0
VERTEX
  5
787
  8
1
 10
-1273.723347
 20
-460.380122
 30
0.0
 70
    32
  0
VERTEX
  5
788
  8
1
 10
-1273.664862
 20
-460.328919
 30
0.0
 70
    32
  0
VERTEX
  5
789
  8
1
 10
-1273.608542
 20
-460.275996
 30
0.0
 70
    32
  0
VERTEX
  5
78A
  8
1
 10
-1273.554393
 20
-460.221548
 30
0.0
 70
    32
  0
VERTEX
  5
78B
  8
1
 10
-1273.502408
 20
-460.16576
 30
0.0
 70
    32
  0
VERTEX
  5
78C
  8
1
 10
-1273.452568
 20
-460.108806
 30
0.0
 70
    32
  0
VERTEX
  5
78D
  8
1
 10
-1273.404847
 20
-460.050851
 30
0.0
 70
    32
  0
VERTEX
  5
78E
  8
1
 10
-1273.359212
 20
-459.992046
 30
0.0
 70
    32
  0
VERTEX
  5
78F
  8
1
 10
-1273.315621
 20
-459.932534
 30
0.0
 70
    32
  0
VERTEX
  5
790
  8
1
 10
-1273.274028
 20
-459.872442
 30
0.0
 70
    32
  0
VERTEX
  5
791
  8
1
 10
-1273.234384
 20
-459.811889
 30
0.0
 70
    32
  0
VERTEX
  5
792
  8
1
 10
-1273.196635
 20
-459.750981
 30
0.0
 70
    32
  0
VERTEX
  5
793
  8
1
 10
-1273.160725
 20
-459.689813
 30
0.0
 70
    32
  0
VERTEX
  5
794
  8
1
 10
-1273.126597
 20
-459.628473
 30
0.0
 70
    32
  0
VERTEX
  5
795
  8
1
 10
-1273.094194
 20
-459.567035
 30
0.0
 70
    32
  0
VERTEX
  5
796
  8
1
 10
-1273.063456
 20
-459.505566
 30
0.0
 70
    32
  0
VERTEX
  5
797
  8
1
 10
-1273.034325
 20
-459.444125
 30
0.0
 70
    32
  0
VERTEX
  5
798
  8
1
 10
-1273.006745
 20
-459.382761
 30
0.0
 70
    32
  0
VERTEX
  5
799
  8
1
 10
-1272.98066
 20
-459.321518
 30
0.0
 70
    32
  0
VERTEX
  5
79A
  8
1
 10
-1272.956013
 20
-459.260431
 30
0.0
 70
    32
  0
VERTEX
  5
79B
  8
1
 10
-1272.932752
 20
-459.199531
 30
0.0
 70
    32
  0
VERTEX
  5
79C
  8
1
 10
-1272.910826
 20
-459.138841
 30
0.0
 70
    32
  0
VERTEX
  5
79D
  8
1
 10
-1272.890186
 20
-459.078381
 30
0.0
 70
    32
  0
VERTEX
  5
79E
  8
1
 10
-1272.870783
 20
-459.018166
 30
0.0
 70
    32
  0
VERTEX
  5
79F
  8
1
 10
-1272.852573
 20
-458.958204
 30
0.0
 70
    32
  0
VERTEX
  5
7A0
  8
1
 10
-1272.835514
 20
-458.898504
 30
0.0
 70
    32
  0
VERTEX
  5
7A1
  8
1
 10
-1272.819564
 20
-458.839067
 30
0.0
 70
    32
  0
VERTEX
  5
7A2
  8
1
 10
-1272.804685
 20
-458.779894
 30
0.0
 70
    32
  0
VERTEX
  5
7A3
  8
1
 10
-1272.790842
 20
-458.720982
 30
0.0
 70
    32
  0
VERTEX
  5
7A4
  8
1
 10
-1272.778
 20
-458.662325
 30
0.0
 70
    32
  0
VERTEX
  5
7A5
  8
1
 10
-1272.766129
 20
-458.603916
 30
0.0
 70
    32
  0
VERTEX
  5
7A6
  8
1
 10
-1272.7552
 20
-458.545745
 30
0.0
 70
    32
  0
VERTEX
  5
7A7
  8
1
 10
-1272.745185
 20
-458.487803
 30
0.0
 70
    32
  0
VERTEX
  5
7A8
  8
1
 10
-1272.73606
 20
-458.430075
 30
0.0
 70
    32
  0
VERTEX
  5
7A9
  8
1
 10
-1272.727802
 20
-458.372548
 30
0.0
 70
    32
  0
VERTEX
  5
7AA
  8
1
 10
-1272.720391
 20
-458.315207
 30
0.0
 70
    32
  0
VERTEX
  5
7AB
  8
1
 10
-1272.713809
 20
-458.258036
 30
0.0
 70
    32
  0
VERTEX
  5
7AC
  8
1
 10
-1272.708039
 20
-458.201018
 30
0.0
 70
    32
  0
VERTEX
  5
7AD
  8
1
 10
-1272.703067
 20
-458.144136
 30
0.0
 70
    32
  0
VERTEX
  5
7AE
  8
1
 10
-1272.698881
 20
-458.087371
 30
0.0
 70
    32
  0
VERTEX
  5
7AF
  8
1
 10
-1272.695469
 20
-458.030704
 30
0.0
 70
    32
  0
VERTEX
  5
7B0
  8
1
 10
-1272.692825
 20
-457.974116
 30
0.0
 70
    32
  0
VERTEX
  5
7B1
  8
1
 10
-1272.690941
 20
-457.917588
 30
0.0
 70
    32
  0
VERTEX
  5
7B2
  8
1
 10
-1272.689812
 20
-457.8611
 30
0.0
 70
    32
  0
VERTEX
  5
7B3
  8
1
 10
-1272.689436
 20
-457.804631
 30
0.0
 70
    32
  0
SEQEND
  5
7B4
  8
DEFPOINTS
  0
POLYLINE
  5
7B5
  8
1
 66
     1
 10
0.0
 20
0.0
 30
0.0
 70
     8
  0
VERTEX
  5
7B6
  8
1
 10
-1273.679168
 20
-460.803971
 30
0.0
 70
    32
  0
VERTEX
  5
7B7
  8
1
 10
-1273.599352
 20
-460.801846
 30
0.0
 70
    32
  0
VERTEX
  5
7B8
  8
1
 10
-1273.519762
 20
-460.795487
 30
0.0
 70
    32
  0
VERTEX
  5
7B9
  8
1
 10
-1273.44062
 20
-460.784938
 30
0.0
 70
    32
  0
VERTEX
  5
7BA
  8
1
 10
-1273.362143
 20
-460.770273
 30
0.0
 70
    32
  0
VERTEX
  5
7BB
  8
1
 10
-1273.28454
 20
-460.751591
 30
0.0
 70
    32
  0
VERTEX
  5
7BC
  8
1
 10
-1273.208006
 20
-460.72902
 30
0.0
 70
    32
  0
VERTEX
  5
7BD
  8
1
 10
-1273.132725
 20
-460.702706
 30
0.0
 70
    32
  0
VERTEX
  5
7BE
  8
1
 10
-1273.058867
 20
-460.672817
 30
0.0
 70
    32
  0
VERTEX
  5
7BF
  8
1
 10
-1272.986582
 20
-460.639536
 30
0.0
 70
    32
  0
VERTEX
  5
7C0
  8
1
 10
-1272.916006
 20
-460.60306
 30
0.0
 70
    32
  0
VERTEX
  5
7C1
  8
1
 10
-1272.847256
 20
-460.563595
 30
0.0
 70
    32
  0
VERTEX
  5
7C2
  8
1
 10
-1272.78043
 20
-460.521353
 30
0.0
 70
    32
  0
VERTEX
  5
7C3
  8
1
 10
-1272.71561
 20
-460.47655
 30
0.0
 70
    32
  0
VERTEX
  5
7C4
  8
1
 10
-1272.65286
 20
-460.429402
 30
0.0
 70
    32
  0
VERTEX
  5
7C5
  8
1
 10
-1272.592226
 20
-460.380122
 30
0.0
 70
    32
  0
VERTEX
  5
7C6
  8
1
 10
-1272.53374
 20
-460.328919
 30
0.0
 70
    32
  0
VERTEX
  5
7C7
  8
1
 10
-1272.477421
 20
-460.275996
 30
0.0
 70
    32
  0
VERTEX
  5
7C8
  8
1
 10
-1272.423272
 20
-460.221548
 30
0.0
 70
    32
  0
VERTEX
  5
7C9
  8
1
 10
-1272.371286
 20
-460.16576
 30
0.0
 70
    32
  0
VERTEX
  5
7CA
  8
1
 10
-1272.321446
 20
-460.108806
 30
0.0
 70
    32
  0
VERTEX
  5
7CB
  8
1
 10
-1272.273726
 20
-460.050851
 30
0.0
 70
    32
  0
VERTEX
  5
7CC
  8
1
 10
-1272.22809
 20
-459.992046
 30
0.0
 70
    32
  0
VERTEX
  5
7CD
  8
1
 10
-1272.184499
 20
-459.932534
 30
0.0
 70
    32
  0
VERTEX
  5
7CE
  8
1
 10
-1272.142907
 20
-459.872442
 30
0.0
 70
    32
  0
VERTEX
  5
7CF
  8
1
 10
-1272.103263
 20
-459.811889
 30
0.0
 70
    32
  0
VERTEX
  5
7D0
  8
1
 10
-1272.065513
 20
-459.750981
 30
0.0
 70
    32
  0
VERTEX
  5
7D1
  8
1
 10
-1272.029604
 20
-459.689813
 30
0.0
 70
    32
  0
VERTEX
  5
7D2
  8
1
 10
-1271.995476
 20
-459.628473
 30
0.0
 70
    32
  0
VERTEX
  5
7D3
  8
1
 10
-1271.963072
 20
-459.567035
 30
0.0
 70
    32
  0
VERTEX
  5
7D4
  8
1
 10
-1271.932334
 20
-459.505566
 30
0.0
 70
    32
  0
VERTEX
  5
7D5
  8
1
 10
-1271.903204
 20
-459.444125
 30
0.0
 70
    32
  0
VERTEX
  5
7D6
  8
1
 10
-1271.875624
 20
-459.382761
 30
0.0
 70
    32
  0
VERTEX
  5
7D7
  8
1
 10
-1271.849538
 20
-459.321518
 30
0.0
 70
    32
  0
VERTEX
  5
7D8
  8
1
 10
-1271.824891
 20
-459.260431
 30
0.0
 70
    32
  0
VERTEX
  5
7D9
  8
1
 10
-1271.801631
 20
-459.199531
 30
0.0
 70
    32
  0
VERTEX
  5
7DA
  8
1
 10
-1271.779705
 20
-459.138841
 30
0.0
 70
    32
  0
VERTEX
  5
7DB
  8
1
 10
-1271.759064
 20
-459.078381
 30
0.0
 70
    32
  0
VERTEX
  5
7DC
  8
1
 10
-1271.739661
 20
-459.018166
 30
0.0
 70
    32
  0
VERTEX
  5
7DD
  8
1
 10
-1271.721452
 20
-458.958204
 30
0.0
 70
    32
  0
VERTEX
  5
7DE
  8
1
 10
-1271.704392
 20
-458.898504
 30
0.0
 70
    32
  0
VERTEX
  5
7DF
  8
1
 10
-1271.688442
 20
-458.839067
 30
0.0
 70
    32
  0
VERTEX
  5
7E0
  8
1
 10
-1271.673563
 20
-458.779894
 30
0.0
 70
    32
  0
VERTEX
  5
7E1
  8
1
 10
-1271.65972
 20
-458.720982
 30
0.0
 70
    32
  0
VERTEX
  5
7E2
  8
1
 10
-1271.646879
 20
-458.662325
 30
0.0
 70
    32
  0
VERTEX
  5
7E3
  8
1
 10
-1271.635008
 20
-458.603916
 30
0.0
 70
    32
  0
VERTEX
  5
7E4
  8
1
 10
-1271.624078
 20
-458.545745
 30
0.0
 70
    32
  0
VERTEX
  5
7E5
  8
1
 10
-1271.614063
 20
-458.487803
 30
0.0
 70
    32
  0
VERTEX
  5
7E6
  8
1
 10
-1271.604938
 20
-458.430075
 30
0.0
 70
    32
  0
VERTEX
  5
7E7
  8
1
 10
-1271.59668
 20
-458.372548
 30
0.0
 70
    32
  0
VERTEX
  5
7E8
  8
1
 10
-1271.58927
 20
-458.315207
 30
0.0
 70
    32
  0
VERTEX
  5
7E9
  8
1
 10
-1271.582687
 20
-458.258036
 30
0.0
 70
    32
  0
VERTEX
  5
7EA
  8
1
 10
-1271.576917
 20
-458.201018
 30
0.0
 70
    32
  0
VERTEX
  5
7EB
  8
1
 10
-1271.571945
 20
-458.144136
 30
0.0
 70
    32
  0
VERTEX
  5
7EC
  8
1
 10
-1271.567759
 20
-458.087371
 30
0.0
 70
    32
  0
VERTEX
  5
7ED
  8
1
 10
-1271.564348
 20
-458.030704
 30
0.0
 70
    32
  0
VERTEX
  5
7EE
  8
1
 10
-1271.561703
 20
-457.974116
 30
0.0
 70
    32
  0
VERTEX
  5
7EF
  8
1
 10
-1271.559819
 20
-457.917588
 30
0.0
 70
    32
  0
VERTEX
  5
7F0
  8
1
 10
-1271.558691
 20
-457.8611
 30
0.0
 70
    32
  0
VERTEX
  5
7F1
  8
1
 10
-1271.558315
 20
-457.804631
 30
0.0
 70
    32
  0
SEQEND
  5
7F2
  8
DEFPOINTS
  0
LINE
  5
7F3
  8
1
 10
-1269.262134
 20
-453.266544
 30
0.0
 11
-1269.262134
 21
-473.26214
 31
0.0
  0
LINE
  5
7F4
  8
1
 10
-1264.263235
 20
-453.266544
 30
0.0
 11
-1264.263235
 21
-473.26214
 31
0.0
  0
LINE
  5
7F5
  8
1
 10
-1276.260593
 20
-460.664915
 30
0.0
 11
-1276.260593
 21
-473.26214
 31
0.0
  0
POLYLINE
  5
7F6
  8
1
 66
     1
 10
0.0
 20
0.0
 30
0.0
 70
     8
  0
VERTEX
  5
7F7
  8
1
 10
-1284.707604
 20
-457.804631
 30
0.0
 70
    32
  0
VERTEX
  5
7F8
  8
1
 10
-1284.707228
 20
-457.8611
 30
0.0
 70
    32
  0
VERTEX
  5
7F9
  8
1
 10
-1284.7061
 20
-457.917588
 30
0.0
 70
    32
  0
VERTEX
  5
7FA
  8
1
 10
-1284.704216
 20
-457.974116
 30
0.0
 70
    32
  0
VERTEX
  5
7FB
  8
1
 10
-1284.701571
 20
-458.030704
 30
0.0
 70
    32
  0
VERTEX
  5
7FC
  8
1
 10
-1284.69816
 20
-458.087371
 30
0.0
 70
    32
  0
VERTEX
  5
7FD
  8
1
 10
-1284.693974
 20
-458.144136
 30
0.0
 70
    32
  0
VERTEX
  5
7FE
  8
1
 10
-1284.689002
 20
-458.201018
 30
0.0
 70
    32
  0
VERTEX
  5
7FF
  8
1
 10
-1284.683232
 20
-458.258036
 30
0.0
 70
    32
  0
VERTEX
  5
800
  8
1
 10
-1284.676649
 20
-458.315207
 30
0.0
 70
    32
  0
VERTEX
  5
801
  8
1
 10
-1284.669238
 20
-458.372548
 30
0.0
 70
    32
  0
VERTEX
  5
802
  8
1
 10
-1284.660981
 20
-458.430075
 30
0.0
 70
    32
  0
VERTEX
  5
803
  8
1
 10
-1284.651856
 20
-458.487803
 30
0.0
 70
    32
  0
VERTEX
  5
804
  8
1
 10
-1284.641841
 20
-458.545745
 30
0.0
 70
    32
  0
VERTEX
  5
805
  8
1
 10
-1284.630911
 20
-458.603916
 30
0.0
 70
    32
  0
VERTEX
  5
806
  8
1
 10
-1284.61904
 20
-458.662325
 30
0.0
 70
    32
  0
VERTEX
  5
807
  8
1
 10
-1284.606199
 20
-458.720982
 30
0.0
 70
    32
  0
VERTEX
  5
808
  8
1
 10
-1284.592356
 20
-458.779894
 30
0.0
 70
    32
  0
VERTEX
  5
809
  8
1
 10
-1284.577477
 20
-458.839067
 30
0.0
 70
    32
  0
VERTEX
  5
80A
  8
1
 10
-1284.561527
 20
-458.898504
 30
0.0
 70
    32
  0
VERTEX
  5
80B
  8
1
 10
-1284.544467
 20
-458.958204
 30
0.0
 70
    32
  0
VERTEX
  5
80C
  8
1
 10
-1284.526258
 20
-459.018166
 30
0.0
 70
    32
  0
VERTEX
  5
80D
  8
1
 10
-1284.506855
 20
-459.078381
 30
0.0
 70
    32
  0
VERTEX
  5
80E
  8
1
 10
-1284.486214
 20
-459.138841
 30
0.0
 70
    32
  0
VERTEX
  5
80F
  8
1
 10
-1284.464288
 20
-459.199531
 30
0.0
 70
    32
  0
VERTEX
  5
810
  8
1
 10
-1284.441028
 20
-459.260431
 30
0.0
 70
    32
  0
VERTEX
  5
811
  8
1
 10
-1284.416381
 20
-459.321518
 30
0.0
 70
    32
  0
VERTEX
  5
812
  8
1
 10
-1284.390295
 20
-459.382761
 30
0.0
 70
    32
  0
VERTEX
  5
813
  8
1
 10
-1284.362715
 20
-459.444125
 30
0.0
 70
    32
  0
VERTEX
  5
814
  8
1
 10
-1284.333585
 20
-459.505566
 30
0.0
 70
    32
  0
VERTEX
  5
815
  8
1
 10
-1284.302847
 20
-459.567035
 30
0.0
 70
    32
  0
VERTEX
  5
816
  8
1
 10
-1284.270443
 20
-459.628473
 30
0.0
 70
    32
  0
VERTEX
  5
817
  8
1
 10
-1284.236315
 20
-459.689813
 30
0.0
 70
    32
  0
VERTEX
  5
818
  8
1
 10
-1284.200406
 20
-459.750981
 30
0.0
 70
    32
  0
VERTEX
  5
819
  8
1
 10
-1284.162656
 20
-459.811889
 30
0.0
 70
    32
  0
VERTEX
  5
81A
  8
1
 10
-1284.123012
 20
-459.872442
 30
0.0
 70
    32
  0
VERTEX
  5
81B
  8
1
 10
-1284.08142
 20
-459.932534
 30
0.0
 70
    32
  0
VERTEX
  5
81C
  8
1
 10
-1284.037829
 20
-459.992046
 30
0.0
 70
    32
  0
VERTEX
  5
81D
  8
1
 10
-1283.992193
 20
-460.050851
 30
0.0
 70
    32
  0
VERTEX
  5
81E
  8
1
 10
-1283.944473
 20
-460.108806
 30
0.0
 70
    32
  0
VERTEX
  5
81F
  8
1
 10
-1283.894633
 20
-460.16576
 30
0.0
 70
    32
  0
VERTEX
  5
820
  8
1
 10
-1283.842647
 20
-460.221548
 30
0.0
 70
    32
  0
VERTEX
  5
821
  8
1
 10
-1283.788498
 20
-460.275996
 30
0.0
 70
    32
  0
VERTEX
  5
822
  8
1
 10
-1283.732179
 20
-460.328919
 30
0.0
 70
    32
  0
VERTEX
  5
823
  8
1
 10
-1283.673693
 20
-460.380122
 30
0.0
 70
    32
  0
VERTEX
  5
824
  8
1
 10
-1283.613059
 20
-460.429402
 30
0.0
 70
    32
  0
VERTEX
  5
825
  8
1
 10
-1283.550309
 20
-460.47655
 30
0.0
 70
    32
  0
VERTEX
  5
826
  8
1
 10
-1283.485488
 20
-460.521353
 30
0.0
 70
    32
  0
VERTEX
  5
827
  8
1
 10
-1283.418663
 20
-460.563595
 30
0.0
 70
    32
  0
VERTEX
  5
828
  8
1
 10
-1283.349913
 20
-460.60306
 30
0.0
 70
    32
  0
VERTEX
  5
829
  8
1
 10
-1283.279337
 20
-460.639536
 30
0.0
 70
    32
  0
VERTEX
  5
82A
  8
1
 10
-1283.207052
 20
-460.672817
 30
0.0
 70
    32
  0
VERTEX
  5
82B
  8
1
 10
-1283.133194
 20
-460.702706
 30
0.0
 70
    32
  0
VERTEX
  5
82C
  8
1
 10
-1283.057913
 20
-460.72902
 30
0.0
 70
    32
  0
VERTEX
  5
82D
  8
1
 10
-1282.981379
 20
-460.751591
 30
0.0
 70
    32
  0
VERTEX
  5
82E
  8
1
 10
-1282.903775
 20
-460.770273
 30
0.0
 70
    32
  0
VERTEX
  5
82F
  8
1
 10
-1282.825299
 20
-460.784938
 30
0.0
 70
    32
  0
VERTEX
  5
830
  8
1
 10
-1282.746157
 20
-460.795487
 30
0.0
 70
    32
  0
VERTEX
  5
831
  8
1
 10
-1282.666567
 20
-460.801846
 30
0.0
 70
    32
  0
VERTEX
  5
832
  8
1
 10
-1282.586751
 20
-460.803971
 30
0.0
 70
    32
  0
SEQEND
  5
833
  8
DEFPOINTS
  0
LINE
  5
834
  8
1
 10
-1281.259492
 20
-460.664915
 30
0.0
 11
-1281.259492
 21
-473.26204
 31
0.0
  0
LINE
  5
835
  8
1
 10
-1264.263235
 20
-473.26214
 30
0.0
 11
-1281.259692
 21
-473.26214
 31
0.0
  0
LINE
  5
836
  8
1
  6
DIVIDE
 10
-1276.760483
 20
-491.658188
 30
0.0
 11
-1276.760483
 21
-473.26214
 31
0.0
  0
LINE
  5
837
  8
1
  6
DIVIDE
 10
-1268.762244
 20
-491.658188
 30
0.0
 11
-1268.762244
 21
-473.26214
 31
0.0
  0
LINE
  5
838
  8
1
 10
-1230.908627
 20
-447.206965
 30
0.0
 11
-1240.098991
 21
-447.206965
 31
0.0
  0
LINE
  5
839
  8
1
 10
-1232.039749
 20
-453.805512
 30
0.0
 11
-1244.219404
 21
-453.805512
 31
0.0
  0
LINE
  5
83A
  8
1
 10
-1241.751318
 20
-450.806174
 30
0.0
 11
-1239.630465
 21
-453.805512
 31
0.0
  0
LINE
  5
83B
  8
1
 10
-1247.218743
 20
-450.806174
 30
0.0
 11
-1244.219404
 21
-453.805512
 31
0.0
  0
LINE
  5
83C
  8
1
 10
-1264.263235
 20
-433.67086
 30
0.0
 11
-1264.263235
 21
-443.668658
 31
0.0
  0
LINE
  5
83D
  8
1
 10
-1276.260593
 20
-433.67076
 30
0.0
 11
-1276.260593
 21
-443.668658
 31
0.0
  0
LINE
  5
83E
  8
1
 10
-1281.259492
 20
-433.67086
 30
0.0
 11
-1281.259492
 21
-443.668558
 31
0.0
  0
LINE
  5
83F
  8
1
 10
-1242.219844
 20
-444.207627
 30
0.0
 11
-1240.098991
 21
-447.206965
 31
0.0
  0
LINE
  5
840
  8
1
  6
DIVIDE
 10
-1268.762244
 20
-491.658088
 30
0.0
 11
-1276.760483
 21
-491.658088
 31
0.0
  0
POLYLINE
  5
841
  8
1
 66
     1
 10
0.0
 20
0.0
 30
0.0
 70
     8
  0
VERTEX
  5
842
  8
1
 10
-1305.209185
 20
-457.804631
 30
0.0
 70
    32
  0
VERTEX
  5
843
  8
1
 10
-1305.208809
 20
-457.8611
 30
0.0
 70
    32
  0
VERTEX
  5
844
  8
1
 10
-1305.20768
 20
-457.917588
 30
0.0
 70
    32
  0
VERTEX
  5
845
  8
1
 10
-1305.205796
 20
-457.974116
 30
0.0
 70
    32
  0
VERTEX
  5
846
  8
1
 10
-1305.203152
 20
-458.030704
 30
0.0
 70
    32
  0
VERTEX
  5
847
  8
1
 10
-1305.19974
 20
-458.087371
 30
0.0
 70
    32
  0
VERTEX
  5
848
  8
1
 10
-1305.195554
 20
-458.144136
 30
0.0
 70
    32
  0
VERTEX
  5
849
  8
1
 10
-1305.190582
 20
-458.201018
 30
0.0
 70
    32
  0
VERTEX
  5
84A
  8
1
 10
-1305.184812
 20
-458.258036
 30
0.0
 70
    32
  0
VERTEX
  5
84B
  8
1
 10
-1305.17823
 20
-458.315207
 30
0.0
 70
    32
  0
VERTEX
  5
84C
  8
1
 10
-1305.170819
 20
-458.372548
 30
0.0
 70
    32
  0
VERTEX
  5
84D
  8
1
 10
-1305.162561
 20
-458.430075
 30
0.0
 70
    32
  0
VERTEX
  5
84E
  8
1
 10
-1305.153436
 20
-458.487803
 30
0.0
 70
    32
  0
VERTEX
  5
84F
  8
1
 10
-1305.143421
 20
-458.545745
 30
0.0
 70
    32
  0
VERTEX
  5
850
  8
1
 10
-1305.132492
 20
-458.603916
 30
0.0
 70
    32
  0
VERTEX
  5
851
  8
1
 10
-1305.120621
 20
-458.662325
 30
0.0
 70
    32
  0
VERTEX
  5
852
  8
1
 10
-1305.107779
 20
-458.720982
 30
0.0
 70
    32
  0
VERTEX
  5
853
  8
1
 10
-1305.093936
 20
-458.779894
 30
0.0
 70
    32
  0
VERTEX
  5
854
  8
1
 10
-1305.079057
 20
-458.839067
 30
0.0
 70
    32
  0
VERTEX
  5
855
  8
1
 10
-1305.063107
 20
-458.898504
 30
0.0
 70
    32
  0
VERTEX
  5
856
  8
1
 10
-1305.046048
 20
-458.958204
 30
0.0
 70
    32
  0
VERTEX
  5
857
  8
1
 10
-1305.027838
 20
-459.018166
 30
0.0
 70
    32
  0
VERTEX
  5
858
  8
1
 10
-1305.008435
 20
-459.078381
 30
0.0
 70
    32
  0
VERTEX
  5
859
  8
1
 10
-1304.987795
 20
-459.138841
 30
0.0
 70
    32
  0
VERTEX
  5
85A
  8
1
 10
-1304.965869
 20
-459.199531
 30
0.0
 70
    32
  0
VERTEX
  5
85B
  8
1
 10
-1304.942608
 20
-459.260431
 30
0.0
 70
    32
  0
VERTEX
  5
85C
  8
1
 10
-1304.917962
 20
-459.321518
 30
0.0
 70
    32
  0
VERTEX
  5
85D
  8
1
 10
-1304.891876
 20
-459.382761
 30
0.0
 70
    32
  0
VERTEX
  5
85E
  8
1
 10
-1304.864296
 20
-459.444125
 30
0.0
 70
    32
  0
VERTEX
  5
85F
  8
1
 10
-1304.835165
 20
-459.505566
 30
0.0
 70
    32
  0
VERTEX
  5
860
  8
1
 10
-1304.804427
 20
-459.567035
 30
0.0
 70
    32
  0
VERTEX
  5
861
  8
1
 10
-1304.772024
 20
-459.628473
 30
0.0
 70
    32
  0
VERTEX
  5
862
  8
1
 10
-1304.737896
 20
-459.689813
 30
0.0
 70
    32
  0
VERTEX
  5
863
  8
1
 10
-1304.701986
 20
-459.750981
 30
0.0
 70
    32
  0
VERTEX
  5
864
  8
1
 10
-1304.664237
 20
-459.811889
 30
0.0
 70
    32
  0
VERTEX
  5
865
  8
1
 10
-1304.624593
 20
-459.872442
 30
0.0
 70
    32
  0
VERTEX
  5
866
  8
1
 10
-1304.583
 20
-459.932534
 30
0.0
 70
    32
  0
VERTEX
  5
867
  8
1
 10
-1304.539409
 20
-459.992046
 30
0.0
 70
    32
  0
VERTEX
  5
868
  8
1
 10
-1304.493774
 20
-460.050851
 30
0.0
 70
    32
  0
VERTEX
  5
869
  8
1
 10
-1304.446053
 20
-460.108806
 30
0.0
 70
    32
  0
VERTEX
  5
86A
  8
1
 10
-1304.396213
 20
-460.16576
 30
0.0
 70
    32
  0
VERTEX
  5
86B
  8
1
 10
-1304.344228
 20
-460.221548
 30
0.0
 70
    32
  0
VERTEX
  5
86C
  8
1
 10
-1304.290079
 20
-460.275996
 30
0.0
 70
    32
  0
VERTEX
  5
86D
  8
1
 10
-1304.233759
 20
-460.328919
 30
0.0
 70
    32
  0
VERTEX
  5
86E
  8
1
 10
-1304.175274
 20
-460.380122
 30
0.0
 70
    32
  0
VERTEX
  5
86F
  8
1
 10
-1304.11464
 20
-460.429402
 30
0.0
 70
    32
  0
VERTEX
  5
870
  8
1
 10
-1304.051889
 20
-460.47655
 30
0.0
 70
    32
  0
VERTEX
  5
871
  8
1
 10
-1303.987069
 20
-460.521353
 30
0.0
 70
    32
  0
VERTEX
  5
872
  8
1
 10
-1303.920243
 20
-460.563595
 30
0.0
 70
    32
  0
VERTEX
  5
873
  8
1
 10
-1303.851493
 20
-460.60306
 30
0.0
 70
    32
  0
VERTEX
  5
874
  8
1
 10
-1303.780917
 20
-460.639536
 30
0.0
 70
    32
  0
VERTEX
  5
875
  8
1
 10
-1303.708633
 20
-460.672817
 30
0.0
 70
    32
  0
VERTEX
  5
876
  8
1
 10
-1303.634774
 20
-460.702706
 30
0.0
 70
    32
  0
VERTEX
  5
877
  8
1
 10
-1303.559494
 20
-460.72902
 30
0.0
 70
    32
  0
VERTEX
  5
878
  8
1
 10
-1303.48296
 20
-460.751591
 30
0.0
 70
    32
  0
VERTEX
  5
879
  8
1
 10
-1303.405356
 20
-460.770273
 30
0.0
 70
    32
  0
VERTEX
  5
87A
  8
1
 10
-1303.326879
 20
-460.784938
 30
0.0
 70
    32
  0
VERTEX
  5
87B
  8
1
 10
-1303.247737
 20
-460.795487
 30
0.0
 70
    32
  0
VERTEX
  5
87C
  8
1
 10
-1303.168147
 20
-460.801846
 30
0.0
 70
    32
  0
VERTEX
  5
87D
  8
1
 10
-1303.088332
 20
-460.803971
 30
0.0
 70
    32
  0
SEQEND
  5
87E
  8
DEFPOINTS
  0
LINE
  5
87F
  8
1
  6
DIVIDE
 10
-483.970384
 20
-492.164843
 30
0.0
 11
-491.968622
 21
-492.164843
 31
0.0
  0
LINE
  5
880
  8
1
 10
-528.241757
 20
-444.207628
 30
0.0
 11
-465.252417
 21
-444.207628
 31
0.0
  0
LINE
  5
881
  8
1
 10
-528.710283
 20
-450.806174
 30
0.0
 11
-498.903287
 21
-450.806174
 31
0.0
  0
LINE
  5
882
  8
1
 10
-496.782457
 20
-460.803971
 30
0.0
 11
-487.874821
 21
-460.803971
 31
0.0
  0
LINE
  5
883
  8
1
 10
-478.401706
 20
-457.804666
 30
0.0
 11
-478.401706
 21
-450.806174
 31
0.0
  0
LINE
  5
884
  8
1
 10
-477.270585
 20
-457.804691
 30
0.0
 11
-477.270585
 21
-444.207628
 31
0.0
  0
LINE
  5
885
  8
1
 10
-485.753997
 20
-457.804698
 30
0.0
 11
-485.753997
 21
-444.207628
 31
0.0
  0
LINE
  5
886
  8
1
 10
-497.772165
 20
-457.804685
 30
0.0
 11
-497.772165
 21
-444.207628
 31
0.0
  0
LINE
  5
887
  8
1
 10
-498.903287
 20
-457.804669
 30
0.0
 11
-498.903287
 21
-450.806174
 31
0.0
  0
LINE
  5
888
  8
1
 10
-476.280878
 20
-460.803971
 30
0.0
 11
-467.373242
 21
-460.803971
 31
0.0
  0
LINE
  5
889
  8
1
 10
-485.753997
 20
-450.806174
 30
0.0
 11
-478.401706
 21
-450.806174
 31
0.0
  0
LINE
  5
88A
  8
1
 10
-539.552974
 20
-447.206966
 30
0.0
 11
-530.36261
 21
-447.206966
 31
0.0
  0
LINE
  5
88B
  8
1
 10
-538.421853
 20
-453.805512
 30
0.0
 11
-526.242198
 21
-453.805512
 31
0.0
  0
LINE
  5
88C
  8
1
 10
-528.241757
 20
-444.207628
 30
0.0
 11
-530.36261
 21
-447.206966
 31
0.0
  0
LINE
  5
88D
  8
1
 10
-528.710283
 20
-450.806174
 30
0.0
 11
-530.831136
 21
-453.805512
 31
0.0
  0
LINE
  5
88E
  8
1
 10
-487.521376
 20
-537.787016
 30
0.0
 11
-487.521376
 21
-492.164843
 31
0.0
  0
LINE
  5
88F
  8
1
 10
-523.242858
 20
-450.806174
 30
0.0
 11
-526.242198
 21
-453.805512
 31
0.0
  0
POLYLINE
  5
890
  8
1
 66
     1
 10
0.0
 20
0.0
 30
0.0
 70
     8
  0
VERTEX
  5
891
  8
1
 10
-487.87485
 20
-460.803971
 30
0.0
 70
    32
  0
VERTEX
  5
892
  8
1
 10
-487.795035
 20
-460.801847
 30
0.0
 70
    32
  0
VERTEX
  5
893
  8
1
 10
-487.715445
 20
-460.795487
 30
0.0
 70
    32
  0
VERTEX
  5
894
  8
1
 10
-487.636303
 20
-460.784938
 30
0.0
 70
    32
  0
VERTEX
  5
895
  8
1
 10
-487.557826
 20
-460.770273
 30
0.0
 70
    32
  0
VERTEX
  5
896
  8
1
 10
-487.480222
 20
-460.751592
 30
0.0
 70
    32
  0
VERTEX
  5
897
  8
1
 10
-487.403688
 20
-460.729021
 30
0.0
 70
    32
  0
VERTEX
  5
898
  8
1
 10
-487.328408
 20
-460.702707
 30
0.0
 70
    32
  0
VERTEX
  5
899
  8
1
 10
-487.254549
 20
-460.672818
 30
0.0
 70
    32
  0
VERTEX
  5
89A
  8
1
 10
-487.182265
 20
-460.639537
 30
0.0
 70
    32
  0
VERTEX
  5
89B
  8
1
 10
-487.111689
 20
-460.603061
 30
0.0
 70
    32
  0
VERTEX
  5
89C
  8
1
 10
-487.042939
 20
-460.563596
 30
0.0
 70
    32
  0
VERTEX
  5
89D
  8
1
 10
-486.976113
 20
-460.521354
 30
0.0
 70
    32
  0
VERTEX
  5
89E
  8
1
 10
-486.911293
 20
-460.476551
 30
0.0
 70
    32
  0
VERTEX
  5
89F
  8
1
 10
-486.848542
 20
-460.429402
 30
0.0
 70
    32
  0
VERTEX
  5
8A0
  8
1
 10
-486.787908
 20
-460.380122
 30
0.0
 70
    32
  0
VERTEX
  5
8A1
  8
1
 10
-486.729423
 20
-460.328919
 30
0.0
 70
    32
  0
VERTEX
  5
8A2
  8
1
 10
-486.673103
 20
-460.275997
 30
0.0
 70
    32
  0
VERTEX
  5
8A3
  8
1
 10
-486.618954
 20
-460.221549
 30
0.0
 70
    32
  0
VERTEX
  5
8A4
  8
1
 10
-486.566969
 20
-460.16576
 30
0.0
 70
    32
  0
VERTEX
  5
8A5
  8
1
 10
-486.517129
 20
-460.108806
 30
0.0
 70
    32
  0
VERTEX
  5
8A6
  8
1
 10
-486.469408
 20
-460.050851
 30
0.0
 70
    32
  0
VERTEX
  5
8A7
  8
1
 10
-486.423773
 20
-459.992047
 30
0.0
 70
    32
  0
VERTEX
  5
8A8
  8
1
 10
-486.380182
 20
-459.932534
 30
0.0
 70
    32
  0
VERTEX
  5
8A9
  8
1
 10
-486.338589
 20
-459.872442
 30
0.0
 70
    32
  0
VERTEX
  5
8AA
  8
1
 10
-486.298945
 20
-459.811889
 30
0.0
 70
    32
  0
VERTEX
  5
8AB
  8
1
 10
-486.261196
 20
-459.750981
 30
0.0
 70
    32
  0
VERTEX
  5
8AC
  8
1
 10
-486.225286
 20
-459.689814
 30
0.0
 70
    32
  0
VERTEX
  5
8AD
  8
1
 10
-486.191158
 20
-459.628474
 30
0.0
 70
    32
  0
VERTEX
  5
8AE
  8
1
 10
-486.158755
 20
-459.567036
 30
0.0
 70
    32
  0
VERTEX
  5
8AF
  8
1
 10
-486.128017
 20
-459.505567
 30
0.0
 70
    32
  0
VERTEX
  5
8B0
  8
1
 10
-486.098886
 20
-459.444125
 30
0.0
 70
    32
  0
VERTEX
  5
8B1
  8
1
 10
-486.071306
 20
-459.382762
 30
0.0
 70
    32
  0
VERTEX
  5
8B2
  8
1
 10
-486.04522
 20
-459.321518
 30
0.0
 70
    32
  0
VERTEX
  5
8B3
  8
1
 10
-486.020574
 20
-459.260432
 30
0.0
 70
    32
  0
VERTEX
  5
8B4
  8
1
 10
-485.997313
 20
-459.199531
 30
0.0
 70
    32
  0
VERTEX
  5
8B5
  8
1
 10
-485.975387
 20
-459.138842
 30
0.0
 70
    32
  0
VERTEX
  5
8B6
  8
1
 10
-485.954747
 20
-459.078382
 30
0.0
 70
    32
  0
VERTEX
  5
8B7
  8
1
 10
-485.935344
 20
-459.018166
 30
0.0
 70
    32
  0
VERTEX
  5
8B8
  8
1
 10
-485.917134
 20
-458.958205
 30
0.0
 70
    32
  0
VERTEX
  5
8B9
  8
1
 10
-485.900075
 20
-458.898505
 30
0.0
 70
    32
  0
VERTEX
  5
8BA
  8
1
 10
-485.884125
 20
-458.839068
 30
0.0
 70
    32
  0
VERTEX
  5
8BB
  8
1
 10
-485.869246
 20
-458.779895
 30
0.0
 70
    32
  0
VERTEX
  5
8BC
  8
1
 10
-485.855403
 20
-458.720982
 30
0.0
 70
    32
  0
VERTEX
  5
8BD
  8
1
 10
-485.842561
 20
-458.662325
 30
0.0
 70
    32
  0
VERTEX
  5
8BE
  8
1
 10
-485.83069
 20
-458.603916
 30
0.0
 70
    32
  0
VERTEX
  5
8BF
  8
1
 10
-485.819761
 20
-458.545746
 30
0.0
 70
    32
  0
VERTEX
  5
8C0
  8
1
 10
-485.809746
 20
-458.487803
 30
0.0
 70
    32
  0
VERTEX
  5
8C1
  8
1
 10
-485.800621
 20
-458.430075
 30
0.0
 70
    32
  0
VERTEX
  5
8C2
  8
1
 10
-485.792363
 20
-458.372549
 30
0.0
 70
    32
  0
VERTEX
  5
8C3
  8
1
 10
-485.784952
 20
-458.315208
 30
0.0
 70
    32
  0
VERTEX
  5
8C4
  8
1
 10
-485.77837
 20
-458.258037
 30
0.0
 70
    32
  0
VERTEX
  5
8C5
  8
1
 10
-485.7726
 20
-458.201019
 30
0.0
 70
    32
  0
VERTEX
  5
8C6
  8
1
 10
-485.767628
 20
-458.144137
 30
0.0
 70
    32
  0
VERTEX
  5
8C7
  8
1
 10
-485.763442
 20
-458.087371
 30
0.0
 70
    32
  0
VERTEX
  5
8C8
  8
1
 10
-485.76003
 20
-458.030704
 30
0.0
 70
    32
  0
VERTEX
  5
8C9
  8
1
 10
-485.757386
 20
-457.974116
 30
0.0
 70
    32
  0
VERTEX
  5
8CA
  8
1
 10
-485.755502
 20
-457.917588
 30
0.0
 70
    32
  0
VERTEX
  5
8CB
  8
1
 10
-485.754373
 20
-457.8611
 30
0.0
 70
    32
  0
VERTEX
  5
8CC
  8
1
 10
-485.753997
 20
-457.804632
 30
0.0
 70
    32
  0
SEQEND
  5
8CD
  8
DEFPOINTS
  0
POLYLINE
  5
8CE
  8
1
 66
     1
 10
0.0
 20
0.0
 30
0.0
 70
     8
  0
VERTEX
  5
8CF
  8
1
 10
-477.270585
 20
-457.804632
 30
0.0
 70
    32
  0
VERTEX
  5
8D0
  8
1
 10
-477.270209
 20
-457.8611
 30
0.0
 70
    32
  0
VERTEX
  5
8D1
  8
1
 10
-477.26908
 20
-457.917588
 30
0.0
 70
    32
  0
VERTEX
  5
8D2
  8
1
 10
-477.267196
 20
-457.974116
 30
0.0
 70
    32
  0
VERTEX
  5
8D3
  8
1
 10
-477.264551
 20
-458.030704
 30
0.0
 70
    32
  0
VERTEX
  5
8D4
  8
1
 10
-477.26114
 20
-458.087371
 30
0.0
 70
    32
  0
VERTEX
  5
8D5
  8
1
 10
-477.256954
 20
-458.144137
 30
0.0
 70
    32
  0
VERTEX
  5
8D6
  8
1
 10
-477.251982
 20
-458.201019
 30
0.0
 70
    32
  0
VERTEX
  5
8D7
  8
1
 10
-477.246212
 20
-458.258037
 30
0.0
 70
    32
  0
VERTEX
  5
8D8
  8
1
 10
-477.23963
 20
-458.315208
 30
0.0
 70
    32
  0
VERTEX
  5
8D9
  8
1
 10
-477.232219
 20
-458.372549
 30
0.0
 70
    32
  0
VERTEX
  5
8DA
  8
1
 10
-477.223961
 20
-458.430075
 30
0.0
 70
    32
  0
VERTEX
  5
8DB
  8
1
 10
-477.214836
 20
-458.487803
 30
0.0
 70
    32
  0
VERTEX
  5
8DC
  8
1
 10
-477.204821
 20
-458.545746
 30
0.0
 70
    32
  0
VERTEX
  5
8DD
  8
1
 10
-477.193891
 20
-458.603916
 30
0.0
 70
    32
  0
VERTEX
  5
8DE
  8
1
 10
-477.182021
 20
-458.662325
 30
0.0
 70
    32
  0
VERTEX
  5
8DF
  8
1
 10
-477.169179
 20
-458.720982
 30
0.0
 70
    32
  0
VERTEX
  5
8E0
  8
1
 10
-477.155336
 20
-458.779895
 30
0.0
 70
    32
  0
VERTEX
  5
8E1
  8
1
 10
-477.140457
 20
-458.839068
 30
0.0
 70
    32
  0
VERTEX
  5
8E2
  8
1
 10
-477.124507
 20
-458.898505
 30
0.0
 70
    32
  0
VERTEX
  5
8E3
  8
1
 10
-477.107448
 20
-458.958205
 30
0.0
 70
    32
  0
VERTEX
  5
8E4
  8
1
 10
-477.089238
 20
-459.018166
 30
0.0
 70
    32
  0
VERTEX
  5
8E5
  8
1
 10
-477.069835
 20
-459.078382
 30
0.0
 70
    32
  0
VERTEX
  5
8E6
  8
1
 10
-477.049195
 20
-459.138842
 30
0.0
 70
    32
  0
VERTEX
  5
8E7
  8
1
 10
-477.027269
 20
-459.199531
 30
0.0
 70
    32
  0
VERTEX
  5
8E8
  8
1
 10
-477.004008
 20
-459.260432
 30
0.0
 70
    32
  0
VERTEX
  5
8E9
  8
1
 10
-476.979361
 20
-459.321518
 30
0.0
 70
    32
  0
VERTEX
  5
8EA
  8
1
 10
-476.953276
 20
-459.382762
 30
0.0
 70
    32
  0
VERTEX
  5
8EB
  8
1
 10
-476.925696
 20
-459.444125
 30
0.0
 70
    32
  0
VERTEX
  5
8EC
  8
1
 10
-476.896565
 20
-459.505567
 30
0.0
 70
    32
  0
VERTEX
  5
8ED
  8
1
 10
-476.865827
 20
-459.567036
 30
0.0
 70
    32
  0
VERTEX
  5
8EE
  8
1
 10
-476.833423
 20
-459.628474
 30
0.0
 70
    32
  0
VERTEX
  5
8EF
  8
1
 10
-476.799296
 20
-459.689814
 30
0.0
 70
    32
  0
VERTEX
  5
8F0
  8
1
 10
-476.763386
 20
-459.750981
 30
0.0
 70
    32
  0
VERTEX
  5
8F1
  8
1
 10
-476.725637
 20
-459.811889
 30
0.0
 70
    32
  0
VERTEX
  5
8F2
  8
1
 10
-476.685992
 20
-459.872442
 30
0.0
 70
    32
  0
VERTEX
  5
8F3
  8
1
 10
-476.6444
 20
-459.932534
 30
0.0
 70
    32
  0
VERTEX
  5
8F4
  8
1
 10
-476.600809
 20
-459.992047
 30
0.0
 70
    32
  0
VERTEX
  5
8F5
  8
1
 10
-476.555174
 20
-460.050851
 30
0.0
 70
    32
  0
VERTEX
  5
8F6
  8
1
 10
-476.507453
 20
-460.108806
 30
0.0
 70
    32
  0
VERTEX
  5
8F7
  8
1
 10
-476.457613
 20
-460.16576
 30
0.0
 70
    32
  0
VERTEX
  5
8F8
  8
1
 10
-476.405628
 20
-460.221549
 30
0.0
 70
    32
  0
VERTEX
  5
8F9
  8
1
 10
-476.351479
 20
-460.275997
 30
0.0
 70
    32
  0
VERTEX
  5
8FA
  8
1
 10
-476.295159
 20
-460.328919
 30
0.0
 70
    32
  0
VERTEX
  5
8FB
  8
1
 10
-476.236674
 20
-460.380122
 30
0.0
 70
    32
  0
VERTEX
  5
8FC
  8
1
 10
-476.17604
 20
-460.429402
 30
0.0
 70
    32
  0
VERTEX
  5
8FD
  8
1
 10
-476.113289
 20
-460.476551
 30
0.0
 70
    32
  0
VERTEX
  5
8FE
  8
1
 10
-476.048469
 20
-460.521354
 30
0.0
 70
    32
  0
VERTEX
  5
8FF
  8
1
 10
-475.981643
 20
-460.563596
 30
0.0
 70
    32
  0
VERTEX
  5
900
  8
1
 10
-475.912893
 20
-460.603061
 30
0.0
 70
    32
  0
VERTEX
  5
901
  8
1
 10
-475.842317
 20
-460.639537
 30
0.0
 70
    32
  0
VERTEX
  5
902
  8
1
 10
-475.770033
 20
-460.672818
 30
0.0
 70
    32
  0
VERTEX
  5
903
  8
1
 10
-475.696174
 20
-460.702707
 30
0.0
 70
    32
  0
VERTEX
  5
904
  8
1
 10
-475.620894
 20
-460.729021
 30
0.0
 70
    32
  0
VERTEX
  5
905
  8
1
 10
-475.54436
 20
-460.751592
 30
0.0
 70
    32
  0
VERTEX
  5
906
  8
1
 10
-475.466756
 20
-460.770273
 30
0.0
 70
    32
  0
VERTEX
  5
907
  8
1
 10
-475.388279
 20
-460.784938
 30
0.0
 70
    32
  0
VERTEX
  5
908
  8
1
 10
-475.309137
 20
-460.795487
 30
0.0
 70
    32
  0
VERTEX
  5
909
  8
1
 10
-475.229547
 20
-460.801847
 30
0.0
 70
    32
  0
VERTEX
  5
90A
  8
1
 10
-475.149731
 20
-460.803971
 30
0.0
 70
    32
  0
SEQEND
  5
90B
  8
DEFPOINTS
  0
POLYLINE
  5
90C
  8
1
 66
     1
 10
0.0
 20
0.0
 30
0.0
 70
     8
  0
VERTEX
  5
90D
  8
1
 10
-497.772165
 20
-457.804632
 30
0.0
 70
    32
  0
VERTEX
  5
90E
  8
1
 10
-497.771789
 20
-457.8611
 30
0.0
 70
    32
  0
VERTEX
  5
90F
  8
1
 10
-497.770661
 20
-457.917588
 30
0.0
 70
    32
  0
VERTEX
  5
910
  8
1
 10
-497.768776
 20
-457.974116
 30
0.0
 70
    32
  0
VERTEX
  5
911
  8
1
 10
-497.766132
 20
-458.030704
 30
0.0
 70
    32
  0
VERTEX
  5
912
  8
1
 10
-497.762721
 20
-458.087371
 30
0.0
 70
    32
  0
VERTEX
  5
913
  8
1
 10
-497.758534
 20
-458.144137
 30
0.0
 70
    32
  0
VERTEX
  5
914
  8
1
 10
-497.753562
 20
-458.201019
 30
0.0
 70
    32
  0
VERTEX
  5
915
  8
1
 10
-497.747792
 20
-458.258037
 30
0.0
 70
    32
  0
VERTEX
  5
916
  8
1
 10
-497.74121
 20
-458.315208
 30
0.0
 70
    32
  0
VERTEX
  5
917
  8
1
 10
-497.733799
 20
-458.372549
 30
0.0
 70
    32
  0
VERTEX
  5
918
  8
1
 10
-497.725542
 20
-458.430075
 30
0.0
 70
    32
  0
VERTEX
  5
919
  8
1
 10
-497.716416
 20
-458.487803
 30
0.0
 70
    32
  0
VERTEX
  5
91A
  8
1
 10
-497.706401
 20
-458.545746
 30
0.0
 70
    32
  0
VERTEX
  5
91B
  8
1
 10
-497.695472
 20
-458.603916
 30
0.0
 70
    32
  0
VERTEX
  5
91C
  8
1
 10
-497.683601
 20
-458.662325
 30
0.0
 70
    32
  0
VERTEX
  5
91D
  8
1
 10
-497.67076
 20
-458.720982
 30
0.0
 70
    32
  0
VERTEX
  5
91E
  8
1
 10
-497.656916
 20
-458.779895
 30
0.0
 70
    32
  0
VERTEX
  5
91F
  8
1
 10
-497.642038
 20
-458.839068
 30
0.0
 70
    32
  0
VERTEX
  5
920
  8
1
 10
-497.626088
 20
-458.898505
 30
0.0
 70
    32
  0
VERTEX
  5
921
  8
1
 10
-497.609028
 20
-458.958205
 30
0.0
 70
    32
  0
VERTEX
  5
922
  8
1
 10
-497.590818
 20
-459.018166
 30
0.0
 70
    32
  0
VERTEX
  5
923
  8
1
 10
-497.571416
 20
-459.078382
 30
0.0
 70
    32
  0
VERTEX
  5
924
  8
1
 10
-497.550775
 20
-459.138842
 30
0.0
 70
    32
  0
VERTEX
  5
925
  8
1
 10
-497.528849
 20
-459.199531
 30
0.0
 70
    32
  0
VERTEX
  5
926
  8
1
 10
-497.505589
 20
-459.260432
 30
0.0
 70
    32
  0
VERTEX
  5
927
  8
1
 10
-497.480942
 20
-459.321518
 30
0.0
 70
    32
  0
VERTEX
  5
928
  8
1
 10
-497.454856
 20
-459.382762
 30
0.0
 70
    32
  0
VERTEX
  5
929
  8
1
 10
-497.427276
 20
-459.444125
 30
0.0
 70
    32
  0
VERTEX
  5
92A
  8
1
 10
-497.398146
 20
-459.505567
 30
0.0
 70
    32
  0
VERTEX
  5
92B
  8
1
 10
-497.367408
 20
-459.567036
 30
0.0
 70
    32
  0
VERTEX
  5
92C
  8
1
 10
-497.335004
 20
-459.628474
 30
0.0
 70
    32
  0
VERTEX
  5
92D
  8
1
 10
-497.300876
 20
-459.689814
 30
0.0
 70
    32
  0
VERTEX
  5
92E
  8
1
 10
-497.264966
 20
-459.750981
 30
0.0
 70
    32
  0
VERTEX
  5
92F
  8
1
 10
-497.227217
 20
-459.811889
 30
0.0
 70
    32
  0
VERTEX
  5
930
  8
1
 10
-497.187573
 20
-459.872442
 30
0.0
 70
    32
  0
VERTEX
  5
931
  8
1
 10
-497.14598
 20
-459.932534
 30
0.0
 70
    32
  0
VERTEX
  5
932
  8
1
 10
-497.102389
 20
-459.992047
 30
0.0
 70
    32
  0
VERTEX
  5
933
  8
1
 10
-497.056754
 20
-460.050851
 30
0.0
 70
    32
  0
VERTEX
  5
934
  8
1
 10
-497.009034
 20
-460.108806
 30
0.0
 70
    32
  0
VERTEX
  5
935
  8
1
 10
-496.959194
 20
-460.16576
 30
0.0
 70
    32
  0
VERTEX
  5
936
  8
1
 10
-496.907208
 20
-460.221549
 30
0.0
 70
    32
  0
VERTEX
  5
937
  8
1
 10
-496.853059
 20
-460.275997
 30
0.0
 70
    32
  0
VERTEX
  5
938
  8
1
 10
-496.79674
 20
-460.328919
 30
0.0
 70
    32
  0
VERTEX
  5
939
  8
1
 10
-496.738254
 20
-460.380122
 30
0.0
 70
    32
  0
VERTEX
  5
93A
  8
1
 10
-496.67762
 20
-460.429402
 30
0.0
 70
    32
  0
VERTEX
  5
93B
  8
1
 10
-496.614869
 20
-460.476551
 30
0.0
 70
    32
  0
VERTEX
  5
93C
  8
1
 10
-496.550049
 20
-460.521354
 30
0.0
 70
    32
  0
VERTEX
  5
93D
  8
1
 10
-496.483224
 20
-460.563596
 30
0.0
 70
    32
  0
VERTEX
  5
93E
  8
1
 10
-496.414474
 20
-460.603061
 30
0.0
 70
    32
  0
VERTEX
  5
93F
  8
1
 10
-496.343898
 20
-460.639537
 30
0.0
 70
    32
  0
VERTEX
  5
940
  8
1
 10
-496.271613
 20
-460.672818
 30
0.0
 70
    32
  0
VERTEX
  5
941
  8
1
 10
-496.197755
 20
-460.702707
 30
0.0
 70
    32
  0
VERTEX
  5
942
  8
1
 10
-496.122474
 20
-460.729021
 30
0.0
 70
    32
  0
VERTEX
  5
943
  8
1
 10
-496.04594
 20
-460.751592
 30
0.0
 70
    32
  0
VERTEX
  5
944
  8
1
 10
-495.968336
 20
-460.770273
 30
0.0
 70
    32
  0
VERTEX
  5
945
  8
1
 10
-495.889859
 20
-460.784938
 30
0.0
 70
    32
  0
VERTEX
  5
946
  8
1
 10
-495.810718
 20
-460.795487
 30
0.0
 70
    32
  0
VERTEX
  5
947
  8
1
 10
-495.731128
 20
-460.801847
 30
0.0
 70
    32
  0
VERTEX
  5
948
  8
1
 10
-495.651312
 20
-460.803971
 30
0.0
 70
    32
  0
SEQEND
  5
949
  8
DEFPOINTS
  0
POLYLINE
  5
94A
  8
1
 66
     1
 10
0.0
 20
0.0
 30
0.0
 70
     8
  0
VERTEX
  5
94B
  8
1
 10
-478.401706
 20
-457.804632
 30
0.0
 70
    32
  0
VERTEX
  5
94C
  8
1
 10
-478.40133
 20
-457.8611
 30
0.0
 70
    32
  0
VERTEX
  5
94D
  8
1
 10
-478.400202
 20
-457.917588
 30
0.0
 70
    32
  0
VERTEX
  5
94E
  8
1
 10
-478.398318
 20
-457.974116
 30
0.0
 70
    32
  0
VERTEX
  5
94F
  8
1
 10
-478.395673
 20
-458.030704
 30
0.0
 70
    32
  0
VERTEX
  5
950
  8
1
 10
-478.392262
 20
-458.087371
 30
0.0
 70
    32
  0
VERTEX
  5
951
  8
1
 10
-478.388076
 20
-458.144137
 30
0.0
 70
    32
  0
VERTEX
  5
952
  8
1
 10
-478.383104
 20
-458.201019
 30
0.0
 70
    32
  0
VERTEX
  5
953
  8
1
 10
-478.377334
 20
-458.258037
 30
0.0
 70
    32
  0
VERTEX
  5
954
  8
1
 10
-478.370751
 20
-458.315208
 30
0.0
 70
    32
  0
VERTEX
  5
955
  8
1
 10
-478.36334
 20
-458.372549
 30
0.0
 70
    32
  0
VERTEX
  5
956
  8
1
 10
-478.355083
 20
-458.430075
 30
0.0
 70
    32
  0
VERTEX
  5
957
  8
1
 10
-478.345958
 20
-458.487803
 30
0.0
 70
    32
  0
VERTEX
  5
958
  8
1
 10
-478.335943
 20
-458.545746
 30
0.0
 70
    32
  0
VERTEX
  5
959
  8
1
 10
-478.325013
 20
-458.603916
 30
0.0
 70
    32
  0
VERTEX
  5
95A
  8
1
 10
-478.313142
 20
-458.662325
 30
0.0
 70
    32
  0
VERTEX
  5
95B
  8
1
 10
-478.300301
 20
-458.720982
 30
0.0
 70
    32
  0
VERTEX
  5
95C
  8
1
 10
-478.286458
 20
-458.779895
 30
0.0
 70
    32
  0
VERTEX
  5
95D
  8
1
 10
-478.271579
 20
-458.839068
 30
0.0
 70
    32
  0
VERTEX
  5
95E
  8
1
 10
-478.255629
 20
-458.898505
 30
0.0
 70
    32
  0
VERTEX
  5
95F
  8
1
 10
-478.238569
 20
-458.958205
 30
0.0
 70
    32
  0
VERTEX
  5
960
  8
1
 10
-478.22036
 20
-459.018166
 30
0.0
 70
    32
  0
VERTEX
  5
961
  8
1
 10
-478.200957
 20
-459.078382
 30
0.0
 70
    32
  0
VERTEX
  5
962
  8
1
 10
-478.180316
 20
-459.138842
 30
0.0
 70
    32
  0
VERTEX
  5
963
  8
1
 10
-478.15839
 20
-459.199531
 30
0.0
 70
    32
  0
VERTEX
  5
964
  8
1
 10
-478.13513
 20
-459.260432
 30
0.0
 70
    32
  0
VERTEX
  5
965
  8
1
 10
-478.110483
 20
-459.321518
 30
0.0
 70
    32
  0
VERTEX
  5
966
  8
1
 10
-478.084397
 20
-459.382762
 30
0.0
 70
    32
  0
VERTEX
  5
967
  8
1
 10
-478.056817
 20
-459.444125
 30
0.0
 70
    32
  0
VERTEX
  5
968
  8
1
 10
-478.027687
 20
-459.505567
 30
0.0
 70
    32
  0
VERTEX
  5
969
  8
1
 10
-477.996949
 20
-459.567036
 30
0.0
 70
    32
  0
VERTEX
  5
96A
  8
1
 10
-477.964545
 20
-459.628474
 30
0.0
 70
    32
  0
VERTEX
  5
96B
  8
1
 10
-477.930417
 20
-459.689814
 30
0.0
 70
    32
  0
VERTEX
  5
96C
  8
1
 10
-477.894508
 20
-459.750981
 30
0.0
 70
    32
  0
VERTEX
  5
96D
  8
1
 10
-477.856758
 20
-459.811889
 30
0.0
 70
    32
  0
VERTEX
  5
96E
  8
1
 10
-477.817114
 20
-459.872442
 30
0.0
 70
    32
  0
VERTEX
  5
96F
  8
1
 10
-477.775522
 20
-459.932534
 30
0.0
 70
    32
  0
VERTEX
  5
970
  8
1
 10
-477.731931
 20
-459.992047
 30
0.0
 70
    32
  0
VERTEX
  5
971
  8
1
 10
-477.686295
 20
-460.050851
 30
0.0
 70
    32
  0
VERTEX
  5
972
  8
1
 10
-477.638575
 20
-460.108806
 30
0.0
 70
    32
  0
VERTEX
  5
973
  8
1
 10
-477.588735
 20
-460.16576
 30
0.0
 70
    32
  0
VERTEX
  5
974
  8
1
 10
-477.536749
 20
-460.221549
 30
0.0
 70
    32
  0
VERTEX
  5
975
  8
1
 10
-477.4826
 20
-460.275997
 30
0.0
 70
    32
  0
VERTEX
  5
976
  8
1
 10
-477.426281
 20
-460.328919
 30
0.0
 70
    32
  0
VERTEX
  5
977
  8
1
 10
-477.367795
 20
-460.380122
 30
0.0
 70
    32
  0
VERTEX
  5
978
  8
1
 10
-477.307161
 20
-460.429402
 30
0.0
 70
    32
  0
VERTEX
  5
979
  8
1
 10
-477.244411
 20
-460.476551
 30
0.0
 70
    32
  0
VERTEX
  5
97A
  8
1
 10
-477.17959
 20
-460.521354
 30
0.0
 70
    32
  0
VERTEX
  5
97B
  8
1
 10
-477.112765
 20
-460.563596
 30
0.0
 70
    32
  0
VERTEX
  5
97C
  8
1
 10
-477.044015
 20
-460.603061
 30
0.0
 70
    32
  0
VERTEX
  5
97D
  8
1
 10
-476.973439
 20
-460.639537
 30
0.0
 70
    32
  0
VERTEX
  5
97E
  8
1
 10
-476.901154
 20
-460.672818
 30
0.0
 70
    32
  0
VERTEX
  5
97F
  8
1
 10
-476.827296
 20
-460.702707
 30
0.0
 70
    32
  0
VERTEX
  5
980
  8
1
 10
-476.752015
 20
-460.729021
 30
0.0
 70
    32
  0
VERTEX
  5
981
  8
1
 10
-476.675481
 20
-460.751592
 30
0.0
 70
    32
  0
VERTEX
  5
982
  8
1
 10
-476.597877
 20
-460.770273
 30
0.0
 70
    32
  0
VERTEX
  5
983
  8
1
 10
-476.519401
 20
-460.784938
 30
0.0
 70
    32
  0
VERTEX
  5
984
  8
1
 10
-476.440259
 20
-460.795487
 30
0.0
 70
    32
  0
VERTEX
  5
985
  8
1
 10
-476.360669
 20
-460.801847
 30
0.0
 70
    32
  0
VERTEX
  5
986
  8
1
 10
-476.280853
 20
-460.803971
 30
0.0
 70
    32
  0
SEQEND
  5
987
  8
DEFPOINTS
  0
POLYLINE
  5
988
  8
1
 66
     1
 10
0.0
 20
0.0
 30
0.0
 70
     8
  0
VERTEX
  5
989
  8
1
 10
-498.903287
 20
-457.804632
 30
0.0
 70
    32
  0
VERTEX
  5
98A
  8
1
 10
-498.902911
 20
-457.8611
 30
0.0
 70
    32
  0
VERTEX
  5
98B
  8
1
 10
-498.901782
 20
-457.917588
 30
0.0
 70
    32
  0
VERTEX
  5
98C
  8
1
 10
-498.899898
 20
-457.974116
 30
0.0
 70
    32
  0
VERTEX
  5
98D
  8
1
 10
-498.897254
 20
-458.030704
 30
0.0
 70
    32
  0
VERTEX
  5
98E
  8
1
 10
-498.893843
 20
-458.087371
 30
0.0
 70
    32
  0
VERTEX
  5
98F
  8
1
 10
-498.889656
 20
-458.144137
 30
0.0
 70
    32
  0
VERTEX
  5
990
  8
1
 10
-498.884684
 20
-458.201019
 30
0.0
 70
    32
  0
VERTEX
  5
991
  8
1
 10
-498.878914
 20
-458.258037
 30
0.0
 70
    32
  0
VERTEX
  5
992
  8
1
 10
-498.872332
 20
-458.315208
 30
0.0
 70
    32
  0
VERTEX
  5
993
  8
1
 10
-498.864921
 20
-458.372549
 30
0.0
 70
    32
  0
VERTEX
  5
994
  8
1
 10
-498.856663
 20
-458.430075
 30
0.0
 70
    32
  0
VERTEX
  5
995
  8
1
 10
-498.847538
 20
-458.487803
 30
0.0
 70
    32
  0
VERTEX
  5
996
  8
1
 10
-498.837523
 20
-458.545746
 30
0.0
 70
    32
  0
VERTEX
  5
997
  8
1
 10
-498.826594
 20
-458.603916
 30
0.0
 70
    32
  0
VERTEX
  5
998
  8
1
 10
-498.814723
 20
-458.662325
 30
0.0
 70
    32
  0
VERTEX
  5
999
  8
1
 10
-498.801881
 20
-458.720982
 30
0.0
 70
    32
  0
VERTEX
  5
99A
  8
1
 10
-498.788038
 20
-458.779895
 30
0.0
 70
    32
  0
VERTEX
  5
99B
  8
1
 10
-498.773159
 20
-458.839068
 30
0.0
 70
    32
  0
VERTEX
  5
99C
  8
1
 10
-498.757209
 20
-458.898505
 30
0.0
 70
    32
  0
VERTEX
  5
99D
  8
1
 10
-498.74015
 20
-458.958205
 30
0.0
 70
    32
  0
VERTEX
  5
99E
  8
1
 10
-498.72194
 20
-459.018166
 30
0.0
 70
    32
  0
VERTEX
  5
99F
  8
1
 10
-498.702537
 20
-459.078382
 30
0.0
 70
    32
  0
VERTEX
  5
9A0
  8
1
 10
-498.681897
 20
-459.138842
 30
0.0
 70
    32
  0
VERTEX
  5
9A1
  8
1
 10
-498.659971
 20
-459.199531
 30
0.0
 70
    32
  0
VERTEX
  5
9A2
  8
1
 10
-498.63671
 20
-459.260432
 30
0.0
 70
    32
  0
VERTEX
  5
9A3
  8
1
 10
-498.612064
 20
-459.321518
 30
0.0
 70
    32
  0
VERTEX
  5
9A4
  8
1
 10
-498.585978
 20
-459.382762
 30
0.0
 70
    32
  0
VERTEX
  5
9A5
  8
1
 10
-498.558398
 20
-459.444125
 30
0.0
 70
    32
  0
VERTEX
  5
9A6
  8
1
 10
-498.529267
 20
-459.505567
 30
0.0
 70
    32
  0
VERTEX
  5
9A7
  8
1
 10
-498.498529
 20
-459.567036
 30
0.0
 70
    32
  0
VERTEX
  5
9A8
  8
1
 10
-498.466126
 20
-459.628474
 30
0.0
 70
    32
  0
VERTEX
  5
9A9
  8
1
 10
-498.431998
 20
-459.689814
 30
0.0
 70
    32
  0
VERTEX
  5
9AA
  8
1
 10
-498.396088
 20
-459.750981
 30
0.0
 70
    32
  0
VERTEX
  5
9AB
  8
1
 10
-498.358339
 20
-459.811889
 30
0.0
 70
    32
  0
VERTEX
  5
9AC
  8
1
 10
-498.318695
 20
-459.872442
 30
0.0
 70
    32
  0
VERTEX
  5
9AD
  8
1
 10
-498.277102
 20
-459.932534
 30
0.0
 70
    32
  0
VERTEX
  5
9AE
  8
1
 10
-498.233511
 20
-459.992047
 30
0.0
 70
    32
  0
VERTEX
  5
9AF
  8
1
 10
-498.187876
 20
-460.050851
 30
0.0
 70
    32
  0
VERTEX
  5
9B0
  8
1
 10
-498.140155
 20
-460.108806
 30
0.0
 70
    32
  0
VERTEX
  5
9B1
  8
1
 10
-498.090315
 20
-460.16576
 30
0.0
 70
    32
  0
VERTEX
  5
9B2
  8
1
 10
-498.03833
 20
-460.221549
 30
0.0
 70
    32
  0
VERTEX
  5
9B3
  8
1
 10
-497.984181
 20
-460.275997
 30
0.0
 70
    32
  0
VERTEX
  5
9B4
  8
1
 10
-497.927861
 20
-460.328919
 30
0.0
 70
    32
  0
VERTEX
  5
9B5
  8
1
 10
-497.869376
 20
-460.380122
 30
0.0
 70
    32
  0
VERTEX
  5
9B6
  8
1
 10
-497.808742
 20
-460.429402
 30
0.0
 70
    32
  0
VERTEX
  5
9B7
  8
1
 10
-497.745991
 20
-460.476551
 30
0.0
 70
    32
  0
VERTEX
  5
9B8
  8
1
 10
-497.681171
 20
-460.521354
 30
0.0
 70
    32
  0
VERTEX
  5
9B9
  8
1
 10
-497.614345
 20
-460.563596
 30
0.0
 70
    32
  0
VERTEX
  5
9BA
  8
1
 10
-497.545595
 20
-460.603061
 30
0.0
 70
    32
  0
VERTEX
  5
9BB
  8
1
 10
-497.47502
 20
-460.639537
 30
0.0
 70
    32
  0
VERTEX
  5
9BC
  8
1
 10
-497.402735
 20
-460.672818
 30
0.0
 70
    32
  0
VERTEX
  5
9BD
  8
1
 10
-497.328876
 20
-460.702707
 30
0.0
 70
    32
  0
VERTEX
  5
9BE
  8
1
 10
-497.253596
 20
-460.729021
 30
0.0
 70
    32
  0
VERTEX
  5
9BF
  8
1
 10
-497.177062
 20
-460.751592
 30
0.0
 70
    32
  0
VERTEX
  5
9C0
  8
1
 10
-497.099458
 20
-460.770273
 30
0.0
 70
    32
  0
VERTEX
  5
9C1
  8
1
 10
-497.020981
 20
-460.784938
 30
0.0
 70
    32
  0
VERTEX
  5
9C2
  8
1
 10
-496.941839
 20
-460.795487
 30
0.0
 70
    32
  0
VERTEX
  5
9C3
  8
1
 10
-496.862249
 20
-460.801847
 30
0.0
 70
    32
  0
VERTEX
  5
9C4
  8
1
 10
-496.782434
 20
-460.803971
 30
0.0
 70
    32
  0
SEQEND
  5
9C5
  8
DEFPOINTS
  0
LINE
  5
9C6
  8
1
 10
-491.468732
 20
-434.177416
 30
0.0
 11
-491.468732
 21
-444.175314
 31
0.0
  0
LINE
  5
9C7
  8
1
 10
-484.470274
 20
-434.177516
 30
0.0
 11
-484.470274
 21
-444.175314
 31
0.0
  0
LINE
  5
9C8
  8
1
 10
-479.471375
 20
-434.177516
 30
0.0
 11
-479.471375
 21
-444.175314
 31
0.0
  0
LINE
  5
9C9
  8
1
 10
-496.467631
 20
-434.177516
 30
0.0
 11
-496.467631
 21
-444.175214
 31
0.0
  0
LINE
  5
9CA
  8
1
 10
-479.471375
 20
-453.7732
 30
0.0
 11
-479.471375
 21
-473.768795
 31
0.0
  0
LINE
  5
9CB
  8
1
 10
-484.470274
 20
-453.7732
 30
0.0
 11
-484.470274
 21
-473.768795
 31
0.0
  0
LINE
  5
9CC
  8
1
 10
-491.468732
 20
-461.17157
 30
0.0
 11
-491.468732
 21
-473.768795
 31
0.0
  0
LINE
  5
9CD
  8
1
 10
-496.467631
 20
-461.17157
 30
0.0
 11
-496.467631
 21
-473.768695
 31
0.0
  0
LINE
  5
9CE
  8
1
 10
-479.471375
 20
-463.770997
 30
0.0
 11
-496.467831
 21
-463.770997
 31
0.0
  0
LINE
  5
9CF
  8
1
 10
-479.471375
 20
-473.768795
 30
0.0
 11
-496.467831
 21
-473.768795
 31
0.0
  0
LINE
  5
9D0
  8
1
  6
DASHDOT
 10
-483.970384
 20
-492.164843
 30
0.0
 11
-483.970384
 21
-473.768795
 31
0.0
  0
LINE
  5
9D1
  8
1
  6
DASHDOT
 10
-491.968622
 20
-492.164843
 30
0.0
 11
-491.968622
 21
-473.768795
 31
0.0
  0
POLYLINE
  5
9D2
  8
1
 66
     1
 10
0.0
 20
0.0
 30
0.0
 70
     8
  0
VERTEX
  5
9D3
  8
1
 10
-467.37327
 20
-460.803971
 30
0.0
 70
    32
  0
VERTEX
  5
9D4
  8
1
 10
-467.293454
 20
-460.801847
 30
0.0
 70
    32
  0
VERTEX
  5
9D5
  8
1
 10
-467.213864
 20
-460.795487
 30
0.0
 70
    32
  0
VERTEX
  5
9D6
  8
1
 10
-467.134722
 20
-460.784938
 30
0.0
 70
    32
  0
VERTEX
  5
9D7
  8
1
 10
-467.056246
 20
-460.770273
 30
0.0
 70
    32
  0
VERTEX
  5
9D8
  8
1
 10
-466.978642
 20
-460.751592
 30
0.0
 70
    32
  0
VERTEX
  5
9D9
  8
1
 10
-466.902108
 20
-460.729021
 30
0.0
 70
    32
  0
VERTEX
  5
9DA
  8
1
 10
-466.826827
 20
-460.702707
 30
0.0
 70
    32
  0
VERTEX
  5
9DB
  8
1
 10
-466.752969
 20
-460.672818
 30
0.0
 70
    32
  0
VERTEX
  5
9DC
  8
1
 10
-466.680684
 20
-460.639537
 30
0.0
 70
    32
  0
VERTEX
  5
9DD
  8
1
 10
-466.610108
 20
-460.603061
 30
0.0
 70
    32
  0
VERTEX
  5
9DE
  8
1
 10
-466.541358
 20
-460.563596
 30
0.0
 70
    32
  0
VERTEX
  5
9DF
  8
1
 10
-466.474532
 20
-460.521354
 30
0.0
 70
    32
  0
VERTEX
  5
9E0
  8
1
 10
-466.409712
 20
-460.476551
 30
0.0
 70
    32
  0
VERTEX
  5
9E1
  8
1
 10
-466.346962
 20
-460.429402
 30
0.0
 70
    32
  0
VERTEX
  5
9E2
  8
1
 10
-466.286328
 20
-460.380122
 30
0.0
 70
    32
  0
VERTEX
  5
9E3
  8
1
 10
-466.227842
 20
-460.328919
 30
0.0
 70
    32
  0
VERTEX
  5
9E4
  8
1
 10
-466.171523
 20
-460.275997
 30
0.0
 70
    32
  0
VERTEX
  5
9E5
  8
1
 10
-466.117374
 20
-460.221549
 30
0.0
 70
    32
  0
VERTEX
  5
9E6
  8
1
 10
-466.065388
 20
-460.16576
 30
0.0
 70
    32
  0
VERTEX
  5
9E7
  8
1
 10
-466.015548
 20
-460.108806
 30
0.0
 70
    32
  0
VERTEX
  5
9E8
  8
1
 10
-465.967828
 20
-460.050851
 30
0.0
 70
    32
  0
VERTEX
  5
9E9
  8
1
 10
-465.922192
 20
-459.992047
 30
0.0
 70
    32
  0
VERTEX
  5
9EA
  8
1
 10
-465.878601
 20
-459.932534
 30
0.0
 70
    32
  0
VERTEX
  5
9EB
  8
1
 10
-465.837009
 20
-459.872442
 30
0.0
 70
    32
  0
VERTEX
  5
9EC
  8
1
 10
-465.797365
 20
-459.811889
 30
0.0
 70
    32
  0
VERTEX
  5
9ED
  8
1
 10
-465.759615
 20
-459.750981
 30
0.0
 70
    32
  0
VERTEX
  5
9EE
  8
1
 10
-465.723706
 20
-459.689814
 30
0.0
 70
    32
  0
VERTEX
  5
9EF
  8
1
 10
-465.689578
 20
-459.628474
 30
0.0
 70
    32
  0
VERTEX
  5
9F0
  8
1
 10
-465.657174
 20
-459.567036
 30
0.0
 70
    32
  0
VERTEX
  5
9F1
  8
1
 10
-465.626436
 20
-459.505567
 30
0.0
 70
    32
  0
VERTEX
  5
9F2
  8
1
 10
-465.597306
 20
-459.444125
 30
0.0
 70
    32
  0
VERTEX
  5
9F3
  8
1
 10
-465.569726
 20
-459.382762
 30
0.0
 70
    32
  0
VERTEX
  5
9F4
  8
1
 10
-465.54364
 20
-459.321518
 30
0.0
 70
    32
  0
VERTEX
  5
9F5
  8
1
 10
-465.518993
 20
-459.260432
 30
0.0
 70
    32
  0
VERTEX
  5
9F6
  8
1
 10
-465.495733
 20
-459.199531
 30
0.0
 70
    32
  0
VERTEX
  5
9F7
  8
1
 10
-465.473807
 20
-459.138842
 30
0.0
 70
    32
  0
VERTEX
  5
9F8
  8
1
 10
-465.453166
 20
-459.078382
 30
0.0
 70
    32
  0
VERTEX
  5
9F9
  8
1
 10
-465.433763
 20
-459.018166
 30
0.0
 70
    32
  0
VERTEX
  5
9FA
  8
1
 10
-465.415554
 20
-458.958205
 30
0.0
 70
    32
  0
VERTEX
  5
9FB
  8
1
 10
-465.398494
 20
-458.898505
 30
0.0
 70
    32
  0
VERTEX
  5
9FC
  8
1
 10
-465.382544
 20
-458.839068
 30
0.0
 70
    32
  0
VERTEX
  5
9FD
  8
1
 10
-465.367665
 20
-458.779895
 30
0.0
 70
    32
  0
VERTEX
  5
9FE
  8
1
 10
-465.353822
 20
-458.720982
 30
0.0
 70
    32
  0
VERTEX
  5
9FF
  8
1
 10
-465.340981
 20
-458.662325
 30
0.0
 70
    32
  0
VERTEX
  5
A00
  8
1
 10
-465.32911
 20
-458.603916
 30
0.0
 70
    32
  0
VERTEX
  5
A01
  8
1
 10
-465.31818
 20
-458.545746
 30
0.0
 70
    32
  0
VERTEX
  5
A02
  8
1
 10
-465.308165
 20
-458.487803
 30
0.0
 70
    32
  0
VERTEX
  5
A03
  8
1
 10
-465.29904
 20
-458.430075
 30
0.0
 70
    32
  0
VERTEX
  5
A04
  8
1
 10
-465.290783
 20
-458.372549
 30
0.0
 70
    32
  0
VERTEX
  5
A05
  8
1
 10
-465.283372
 20
-458.315208
 30
0.0
 70
    32
  0
VERTEX
  5
A06
  8
1
 10
-465.276789
 20
-458.258037
 30
0.0
 70
    32
  0
VERTEX
  5
A07
  8
1
 10
-465.271019
 20
-458.201019
 30
0.0
 70
    32
  0
VERTEX
  5
A08
  8
1
 10
-465.266047
 20
-458.144137
 30
0.0
 70
    32
  0
VERTEX
  5
A09
  8
1
 10
-465.261861
 20
-458.087371
 30
0.0
 70
    32
  0
VERTEX
  5
A0A
  8
1
 10
-465.25845
 20
-458.030704
 30
0.0
 70
    32
  0
VERTEX
  5
A0B
  8
1
 10
-465.255805
 20
-457.974116
 30
0.0
 70
    32
  0
VERTEX
  5
A0C
  8
1
 10
-465.253921
 20
-457.917588
 30
0.0
 70
    32
  0
VERTEX
  5
A0D
  8
1
 10
-465.252793
 20
-457.8611
 30
0.0
 70
    32
  0
VERTEX
  5
A0E
  8
1
 10
-465.252417
 20
-457.804632
 30
0.0
 70
    32
  0
SEQEND
  5
A0F
  8
DEFPOINTS
  0
LINE
  5
A10
  8
1
 10
-479.471375
 20
-434.177516
 30
0.0
 11
-496.467831
 21
-434.177516
 31
0.0
  0
LINE
  5
A11
  8
1
  6
DIVIDE
 10
-491.968622
 20
-434.177516
 30
0.0
 11
-491.968703
 21
-386.507879
 31
0.0
  0
LINE
  5
A12
  8
1
  6
DIVIDE
 10
-483.970584
 20
-434.177516
 30
0.0
 11
-483.970503
 21
-386.507879
 31
0.0
  0
LINE
  5
A13
  8
1
 10
-465.252417
 20
-452.805769
 30
0.0
 11
-465.252417
 21
-444.207628
 31
0.0
  0
LINE
  5
A14
  8
1
 10
1453.983632
 20
-444.007671
 30
0.0
 11
1516.972972
 21
-444.007671
 31
0.0
  0
LINE
  5
A15
  8
1
 10
1453.515106
 20
-450.606218
 30
0.0
 11
1483.322102
 21
-450.606218
 31
0.0
  0
LINE
  5
A16
  8
1
 10
1485.442932
 20
-460.604015
 30
0.0
 11
1494.350568
 21
-460.604015
 31
0.0
  0
LINE
  5
A17
  8
1
 10
1484.453224
 20
-457.604728
 30
0.0
 11
1484.453224
 21
-444.007671
 31
0.0
  0
LINE
  5
A18
  8
1
 10
1483.322102
 20
-457.604713
 30
0.0
 11
1483.322102
 21
-450.606218
 31
0.0
  0
LINE
  5
A19
  8
1
 10
1442.672415
 20
-447.007009
 30
0.0
 11
1451.862779
 21
-447.007009
 31
0.0
  0
LINE
  5
A1A
  8
1
 10
1443.803536
 20
-453.605556
 30
0.0
 11
1455.983191
 21
-453.605556
 31
0.0
  0
LINE
  5
A1B
  8
1
 10
1453.983632
 20
-444.007671
 30
0.0
 11
1451.862779
 21
-447.007009
 31
0.0
  0
LINE
  5
A1C
  8
1
 10
1453.515106
 20
-450.606218
 30
0.0
 11
1451.394253
 21
-453.605556
 31
0.0
  0
LINE
  5
A1D
  8
1
 10
1458.982531
 20
-450.606218
 30
0.0
 11
1455.983191
 21
-453.605556
 31
0.0
  0
POLYLINE
  5
A1E
  8
1
 66
     1
 10
0.0
 20
0.0
 30
0.0
 70
     8
  0
VERTEX
  5
A1F
  8
1
 10
1484.453224
 20
-457.604675
 30
0.0
 70
    32
  0
VERTEX
  5
A20
  8
1
 10
1484.4536
 20
-457.661144
 30
0.0
 70
    32
  0
VERTEX
  5
A21
  8
1
 10
1484.454729
 20
-457.717632
 30
0.0
 70
    32
  0
VERTEX
  5
A22
  8
1
 10
1484.456613
 20
-457.77416
 30
0.0
 70
    32
  0
VERTEX
  5
A23
  8
1
 10
1484.459257
 20
-457.830748
 30
0.0
 70
    32
  0
VERTEX
  5
A24
  8
1
 10
1484.462668
 20
-457.887415
 30
0.0
 70
    32
  0
VERTEX
  5
A25
  8
1
 10
1484.466855
 20
-457.94418
 30
0.0
 70
    32
  0
VERTEX
  5
A26
  8
1
 10
1484.471827
 20
-458.001062
 30
0.0
 70
    32
  0
VERTEX
  5
A27
  8
1
 10
1484.477597
 20
-458.05808
 30
0.0
 70
    32
  0
VERTEX
  5
A28
  8
1
 10
1484.484179
 20
-458.115251
 30
0.0
 70
    32
  0
VERTEX
  5
A29
  8
1
 10
1484.49159
 20
-458.172592
 30
0.0
 70
    32
  0
VERTEX
  5
A2A
  8
1
 10
1484.499848
 20
-458.230119
 30
0.0
 70
    32
  0
VERTEX
  5
A2B
  8
1
 10
1484.508973
 20
-458.287847
 30
0.0
 70
    32
  0
VERTEX
  5
A2C
  8
1
 10
1484.518988
 20
-458.345789
 30
0.0
 70
    32
  0
VERTEX
  5
A2D
  8
1
 10
1484.529917
 20
-458.40396
 30
0.0
 70
    32
  0
VERTEX
  5
A2E
  8
1
 10
1484.541788
 20
-458.462369
 30
0.0
 70
    32
  0
VERTEX
  5
A2F
  8
1
 10
1484.554629
 20
-458.521026
 30
0.0
 70
    32
  0
VERTEX
  5
A30
  8
1
 10
1484.568473
 20
-458.579938
 30
0.0
 70
    32
  0
VERTEX
  5
A31
  8
1
 10
1484.583351
 20
-458.639111
 30
0.0
 70
    32
  0
VERTEX
  5
A32
  8
1
 10
1484.599301
 20
-458.698548
 30
0.0
 70
    32
  0
VERTEX
  5
A33
  8
1
 10
1484.616361
 20
-458.758248
 30
0.0
 70
    32
  0
VERTEX
  5
A34
  8
1
 10
1484.634571
 20
-458.81821
 30
0.0
 70
    32
  0
VERTEX
  5
A35
  8
1
 10
1484.653973
 20
-458.878425
 30
0.0
 70
    32
  0
VERTEX
  5
A36
  8
1
 10
1484.674614
 20
-458.938885
 30
0.0
 70
    32
  0
VERTEX
  5
A37
  8
1
 10
1484.69654
 20
-458.999575
 30
0.0
 70
    32
  0
VERTEX
  5
A38
  8
1
 10
1484.7198
 20
-459.060475
 30
0.0
 70
    32
  0
VERTEX
  5
A39
  8
1
 10
1484.744447
 20
-459.121562
 30
0.0
 70
    32
  0
VERTEX
  5
A3A
  8
1
 10
1484.770533
 20
-459.182805
 30
0.0
 70
    32
  0
VERTEX
  5
A3B
  8
1
 10
1484.798113
 20
-459.244169
 30
0.0
 70
    32
  0
VERTEX
  5
A3C
  8
1
 10
1484.827243
 20
-459.30561
 30
0.0
 70
    32
  0
VERTEX
  5
A3D
  8
1
 10
1484.857981
 20
-459.367079
 30
0.0
 70
    32
  0
VERTEX
  5
A3E
  8
1
 10
1484.890385
 20
-459.428517
 30
0.0
 70
    32
  0
VERTEX
  5
A3F
  8
1
 10
1484.924513
 20
-459.489858
 30
0.0
 70
    32
  0
VERTEX
  5
A40
  8
1
 10
1484.960423
 20
-459.551025
 30
0.0
 70
    32
  0
VERTEX
  5
A41
  8
1
 10
1484.998172
 20
-459.611933
 30
0.0
 70
    32
  0
VERTEX
  5
A42
  8
1
 10
1485.037816
 20
-459.672486
 30
0.0
 70
    32
  0
VERTEX
  5
A43
  8
1
 10
1485.079409
 20
-459.732578
 30
0.0
 70
    32
  0
VERTEX
  5
A44
  8
1
 10
1485.123
 20
-459.79209
 30
0.0
 70
    32
  0
VERTEX
  5
A45
  8
1
 10
1485.168635
 20
-459.850895
 30
0.0
 70
    32
  0
VERTEX
  5
A46
  8
1
 10
1485.216356
 20
-459.90885
 30
0.0
 70
    32
  0
VERTEX
  5
A47
  8
1
 10
1485.266195
 20
-459.965804
 30
0.0
 70
    32
  0
VERTEX
  5
A48
  8
1
 10
1485.318181
 20
-460.021592
 30
0.0
 70
    32
  0
VERTEX
  5
A49
  8
1
 10
1485.37233
 20
-460.07604
 30
0.0
 70
    32
  0
VERTEX
  5
A4A
  8
1
 10
1485.428649
 20
-460.128963
 30
0.0
 70
    32
  0
VERTEX
  5
A4B
  8
1
 10
1485.487135
 20
-460.180166
 30
0.0
 70
    32
  0
VERTEX
  5
A4C
  8
1
 10
1485.547769
 20
-460.229446
 30
0.0
 70
    32
  0
VERTEX
  5
A4D
  8
1
 10
1485.61052
 20
-460.276594
 30
0.0
 70
    32
  0
VERTEX
  5
A4E
  8
1
 10
1485.67534
 20
-460.321397
 30
0.0
 70
    32
  0
VERTEX
  5
A4F
  8
1
 10
1485.742165
 20
-460.363639
 30
0.0
 70
    32
  0
VERTEX
  5
A50
  8
1
 10
1485.810915
 20
-460.403104
 30
0.0
 70
    32
  0
VERTEX
  5
A51
  8
1
 10
1485.881491
 20
-460.43958
 30
0.0
 70
    32
  0
VERTEX
  5
A52
  8
1
 10
1485.953776
 20
-460.472861
 30
0.0
 70
    32
  0
VERTEX
  5
A53
  8
1
 10
1486.027634
 20
-460.50275
 30
0.0
 70
    32
  0
VERTEX
  5
A54
  8
1
 10
1486.102915
 20
-460.529064
 30
0.0
 70
    32
  0
VERTEX
  5
A55
  8
1
 10
1486.179449
 20
-460.551635
 30
0.0
 70
    32
  0
VERTEX
  5
A56
  8
1
 10
1486.257053
 20
-460.570317
 30
0.0
 70
    32
  0
VERTEX
  5
A57
  8
1
 10
1486.33553
 20
-460.584982
 30
0.0
 70
    32
  0
VERTEX
  5
A58
  8
1
 10
1486.414671
 20
-460.595531
 30
0.0
 70
    32
  0
VERTEX
  5
A59
  8
1
 10
1486.494261
 20
-460.60189
 30
0.0
 70
    32
  0
VERTEX
  5
A5A
  8
1
 10
1486.574077
 20
-460.604015
 30
0.0
 70
    32
  0
SEQEND
  5
A5B
  8
DEFPOINTS
  0
POLYLINE
  5
A5C
  8
1
 66
     1
 10
0.0
 20
0.0
 30
0.0
 70
     8
  0
VERTEX
  5
A5D
  8
1
 10
1483.322102
 20
-457.604675
 30
0.0
 70
    32
  0
VERTEX
  5
A5E
  8
1
 10
1483.322478
 20
-457.661144
 30
0.0
 70
    32
  0
VERTEX
  5
A5F
  8
1
 10
1483.323607
 20
-457.717632
 30
0.0
 70
    32
  0
VERTEX
  5
A60
  8
1
 10
1483.325491
 20
-457.77416
 30
0.0
 70
    32
  0
VERTEX
  5
A61
  8
1
 10
1483.328135
 20
-457.830748
 30
0.0
 70
    32
  0
VERTEX
  5
A62
  8
1
 10
1483.331547
 20
-457.887415
 30
0.0
 70
    32
  0
VERTEX
  5
A63
  8
1
 10
1483.335733
 20
-457.94418
 30
0.0
 70
    32
  0
VERTEX
  5
A64
  8
1
 10
1483.340705
 20
-458.001062
 30
0.0
 70
    32
  0
VERTEX
  5
A65
  8
1
 10
1483.346475
 20
-458.05808
 30
0.0
 70
    32
  0
VERTEX
  5
A66
  8
1
 10
1483.353057
 20
-458.115251
 30
0.0
 70
    32
  0
VERTEX
  5
A67
  8
1
 10
1483.360468
 20
-458.172592
 30
0.0
 70
    32
  0
VERTEX
  5
A68
  8
1
 10
1483.368726
 20
-458.230119
 30
0.0
 70
    32
  0
VERTEX
  5
A69
  8
1
 10
1483.377851
 20
-458.287847
 30
0.0
 70
    32
  0
VERTEX
  5
A6A
  8
1
 10
1483.387866
 20
-458.345789
 30
0.0
 70
    32
  0
VERTEX
  5
A6B
  8
1
 10
1483.398795
 20
-458.40396
 30
0.0
 70
    32
  0
VERTEX
  5
A6C
  8
1
 10
1483.410666
 20
-458.462369
 30
0.0
 70
    32
  0
VERTEX
  5
A6D
  8
1
 10
1483.423508
 20
-458.521026
 30
0.0
 70
    32
  0
VERTEX
  5
A6E
  8
1
 10
1483.437351
 20
-458.579938
 30
0.0
 70
    32
  0
VERTEX
  5
A6F
  8
1
 10
1483.45223
 20
-458.639111
 30
0.0
 70
    32
  0
VERTEX
  5
A70
  8
1
 10
1483.46818
 20
-458.698548
 30
0.0
 70
    32
  0
VERTEX
  5
A71
  8
1
 10
1483.485239
 20
-458.758248
 30
0.0
 70
    32
  0
VERTEX
  5
A72
  8
1
 10
1483.503449
 20
-458.81821
 30
0.0
 70
    32
  0
VERTEX
  5
A73
  8
1
 10
1483.522852
 20
-458.878425
 30
0.0
 70
    32
  0
VERTEX
  5
A74
  8
1
 10
1483.543492
 20
-458.938885
 30
0.0
 70
    32
  0
VERTEX
  5
A75
  8
1
 10
1483.565418
 20
-458.999575
 30
0.0
 70
    32
  0
VERTEX
  5
A76
  8
1
 10
1483.588679
 20
-459.060475
 30
0.0
 70
    32
  0
VERTEX
  5
A77
  8
1
 10
1483.613325
 20
-459.121562
 30
0.0
 70
    32
  0
VERTEX
  5
A78
  8
1
 10
1483.639411
 20
-459.182805
 30
0.0
 70
    32
  0
VERTEX
  5
A79
  8
1
 10
1483.666991
 20
-459.244169
 30
0.0
 70
    32
  0
VERTEX
  5
A7A
  8
1
 10
1483.696122
 20
-459.30561
 30
0.0
 70
    32
  0
VERTEX
  5
A7B
  8
1
 10
1483.72686
 20
-459.367079
 30
0.0
 70
    32
  0
VERTEX
  5
A7C
  8
1
 10
1483.759263
 20
-459.428517
 30
0.0
 70
    32
  0
VERTEX
  5
A7D
  8
1
 10
1483.793391
 20
-459.489858
 30
0.0
 70
    32
  0
VERTEX
  5
A7E
  8
1
 10
1483.829301
 20
-459.551025
 30
0.0
 70
    32
  0
VERTEX
  5
A7F
  8
1
 10
1483.86705
 20
-459.611933
 30
0.0
 70
    32
  0
VERTEX
  5
A80
  8
1
 10
1483.906694
 20
-459.672486
 30
0.0
 70
    32
  0
VERTEX
  5
A81
  8
1
 10
1483.948287
 20
-459.732578
 30
0.0
 70
    32
  0
VERTEX
  5
A82
  8
1
 10
1483.991878
 20
-459.79209
 30
0.0
 70
    32
  0
VERTEX
  5
A83
  8
1
 10
1484.037513
 20
-459.850895
 30
0.0
 70
    32
  0
VERTEX
  5
A84
  8
1
 10
1484.085234
 20
-459.90885
 30
0.0
 70
    32
  0
VERTEX
  5
A85
  8
1
 10
1484.135074
 20
-459.965804
 30
0.0
 70
    32
  0
VERTEX
  5
A86
  8
1
 10
1484.187059
 20
-460.021592
 30
0.0
 70
    32
  0
VERTEX
  5
A87
  8
1
 10
1484.241208
 20
-460.07604
 30
0.0
 70
    32
  0
VERTEX
  5
A88
  8
1
 10
1484.297528
 20
-460.128963
 30
0.0
 70
    32
  0
VERTEX
  5
A89
  8
1
 10
1484.356013
 20
-460.180166
 30
0.0
 70
    32
  0
VERTEX
  5
A8A
  8
1
 10
1484.416647
 20
-460.229446
 30
0.0
 70
    32
  0
VERTEX
  5
A8B
  8
1
 10
1484.479398
 20
-460.276594
 30
0.0
 70
    32
  0
VERTEX
  5
A8C
  8
1
 10
1484.544218
 20
-460.321397
 30
0.0
 70
    32
  0
VERTEX
  5
A8D
  8
1
 10
1484.611044
 20
-460.363639
 30
0.0
 70
    32
  0
VERTEX
  5
A8E
  8
1
 10
1484.679794
 20
-460.403104
 30
0.0
 70
    32
  0
VERTEX
  5
A8F
  8
1
 10
1484.75037
 20
-460.43958
 30
0.0
 70
    32
  0
VERTEX
  5
A90
  8
1
 10
1484.822654
 20
-460.472861
 30
0.0
 70
    32
  0
VERTEX
  5
A91
  8
1
 10
1484.896513
 20
-460.50275
 30
0.0
 70
    32
  0
VERTEX
  5
A92
  8
1
 10
1484.971793
 20
-460.529064
 30
0.0
 70
    32
  0
VERTEX
  5
A93
  8
1
 10
1485.048327
 20
-460.551635
 30
0.0
 70
    32
  0
VERTEX
  5
A94
  8
1
 10
1485.125931
 20
-460.570317
 30
0.0
 70
    32
  0
VERTEX
  5
A95
  8
1
 10
1485.204408
 20
-460.584982
 30
0.0
 70
    32
  0
VERTEX
  5
A96
  8
1
 10
1485.28355
 20
-460.595531
 30
0.0
 70
    32
  0
VERTEX
  5
A97
  8
1
 10
1485.36314
 20
-460.60189
 30
0.0
 70
    32
  0
VERTEX
  5
A98
  8
1
 10
1485.442955
 20
-460.604015
 30
0.0
 70
    32
  0
SEQEND
  5
A99
  8
DEFPOINTS
  0
LINE
  5
A9A
  8
1
 10
1516.972972
 20
-457.604712
 30
0.0
 11
1516.972972
 21
-444.007671
 31
0.0
  0
LINE
  5
A9B
  8
1
 10
1503.823683
 20
-457.604709
 30
0.0
 11
1503.823683
 21
-450.606218
 31
0.0
  0
LINE
  5
A9C
  8
1
 10
1504.954804
 20
-457.604735
 30
0.0
 11
1504.954804
 21
-444.007671
 31
0.0
  0
LINE
  5
A9D
  8
1
 10
1496.471392
 20
-457.604741
 30
0.0
 11
1496.471392
 21
-444.007671
 31
0.0
  0
LINE
  5
A9E
  8
1
 10
1496.471392
 20
-450.606218
 30
0.0
 11
1503.823683
 21
-450.606218
 31
0.0
  0
POLYLINE
  5
A9F
  8
1
 66
     1
 10
0.0
 20
0.0
 30
0.0
 70
     8
  0
VERTEX
  5
AA0
  8
1
 10
1504.954804
 20
-457.604675
 30
0.0
 70
    32
  0
VERTEX
  5
AA1
  8
1
 10
1504.95518
 20
-457.661144
 30
0.0
 70
    32
  0
VERTEX
  5
AA2
  8
1
 10
1504.956309
 20
-457.717632
 30
0.0
 70
    32
  0
VERTEX
  5
AA3
  8
1
 10
1504.958193
 20
-457.77416
 30
0.0
 70
    32
  0
VERTEX
  5
AA4
  8
1
 10
1504.960838
 20
-457.830748
 30
0.0
 70
    32
  0
VERTEX
  5
AA5
  8
1
 10
1504.964249
 20
-457.887415
 30
0.0
 70
    32
  0
VERTEX
  5
AA6
  8
1
 10
1504.968435
 20
-457.94418
 30
0.0
 70
    32
  0
VERTEX
  5
AA7
  8
1
 10
1504.973407
 20
-458.001062
 30
0.0
 70
    32
  0
VERTEX
  5
AA8
  8
1
 10
1504.979177
 20
-458.05808
 30
0.0
 70
    32
  0
VERTEX
  5
AA9
  8
1
 10
1504.985759
 20
-458.115251
 30
0.0
 70
    32
  0
VERTEX
  5
AAA
  8
1
 10
1504.99317
 20
-458.172592
 30
0.0
 70
    32
  0
VERTEX
  5
AAB
  8
1
 10
1505.001428
 20
-458.230119
 30
0.0
 70
    32
  0
VERTEX
  5
AAC
  8
1
 10
1505.010553
 20
-458.287847
 30
0.0
 70
    32
  0
VERTEX
  5
AAD
  8
1
 10
1505.020568
 20
-458.345789
 30
0.0
 70
    32
  0
VERTEX
  5
AAE
  8
1
 10
1505.031498
 20
-458.40396
 30
0.0
 70
    32
  0
VERTEX
  5
AAF
  8
1
 10
1505.043368
 20
-458.462369
 30
0.0
 70
    32
  0
VERTEX
  5
AB0
  8
1
 10
1505.05621
 20
-458.521026
 30
0.0
 70
    32
  0
VERTEX
  5
AB1
  8
1
 10
1505.070053
 20
-458.579938
 30
0.0
 70
    32
  0
VERTEX
  5
AB2
  8
1
 10
1505.084932
 20
-458.639111
 30
0.0
 70
    32
  0
VERTEX
  5
AB3
  8
1
 10
1505.100882
 20
-458.698548
 30
0.0
 70
    32
  0
VERTEX
  5
AB4
  8
1
 10
1505.117941
 20
-458.758248
 30
0.0
 70
    32
  0
VERTEX
  5
AB5
  8
1
 10
1505.136151
 20
-458.81821
 30
0.0
 70
    32
  0
VERTEX
  5
AB6
  8
1
 10
1505.155554
 20
-458.878425
 30
0.0
 70
    32
  0
VERTEX
  5
AB7
  8
1
 10
1505.176194
 20
-458.938885
 30
0.0
 70
    32
  0
VERTEX
  5
AB8
  8
1
 10
1505.19812
 20
-458.999575
 30
0.0
 70
    32
  0
VERTEX
  5
AB9
  8
1
 10
1505.221381
 20
-459.060475
 30
0.0
 70
    32
  0
VERTEX
  5
ABA
  8
1
 10
1505.246028
 20
-459.121562
 30
0.0
 70
    32
  0
VERTEX
  5
ABB
  8
1
 10
1505.272114
 20
-459.182805
 30
0.0
 70
    32
  0
VERTEX
  5
ABC
  8
1
 10
1505.299694
 20
-459.244169
 30
0.0
 70
    32
  0
VERTEX
  5
ABD
  8
1
 10
1505.328824
 20
-459.30561
 30
0.0
 70
    32
  0
VERTEX
  5
ABE
  8
1
 10
1505.359562
 20
-459.367079
 30
0.0
 70
    32
  0
VERTEX
  5
ABF
  8
1
 10
1505.391966
 20
-459.428517
 30
0.0
 70
    32
  0
VERTEX
  5
AC0
  8
1
 10
1505.426093
 20
-459.489858
 30
0.0
 70
    32
  0
VERTEX
  5
AC1
  8
1
 10
1505.462003
 20
-459.551025
 30
0.0
 70
    32
  0
VERTEX
  5
AC2
  8
1
 10
1505.499752
 20
-459.611933
 30
0.0
 70
    32
  0
VERTEX
  5
AC3
  8
1
 10
1505.539397
 20
-459.672486
 30
0.0
 70
    32
  0
VERTEX
  5
AC4
  8
1
 10
1505.580989
 20
-459.732578
 30
0.0
 70
    32
  0
VERTEX
  5
AC5
  8
1
 10
1505.62458
 20
-459.79209
 30
0.0
 70
    32
  0
VERTEX
  5
AC6
  8
1
 10
1505.670216
 20
-459.850895
 30
0.0
 70
    32
  0
VERTEX
  5
AC7
  8
1
 10
1505.717936
 20
-459.90885
 30
0.0
 70
    32
  0
VERTEX
  5
AC8
  8
1
 10
1505.767776
 20
-459.965804
 30
0.0
 70
    32
  0
VERTEX
  5
AC9
  8
1
 10
1505.819761
 20
-460.021592
 30
0.0
 70
    32
  0
VERTEX
  5
ACA
  8
1
 10
1505.87391
 20
-460.07604
 30
0.0
 70
    32
  0
VERTEX
  5
ACB
  8
1
 10
1505.93023
 20
-460.128963
 30
0.0
 70
    32
  0
VERTEX
  5
ACC
  8
1
 10
1505.988715
 20
-460.180166
 30
0.0
 70
    32
  0
VERTEX
  5
ACD
  8
1
 10
1506.04935
 20
-460.229446
 30
0.0
 70
    32
  0
VERTEX
  5
ACE
  8
1
 10
1506.1121
 20
-460.276594
 30
0.0
 70
    32
  0
VERTEX
  5
ACF
  8
1
 10
1506.17692
 20
-460.321397
 30
0.0
 70
    32
  0
VERTEX
  5
AD0
  8
1
 10
1506.243746
 20
-460.363639
 30
0.0
 70
    32
  0
VERTEX
  5
AD1
  8
1
 10
1506.312496
 20
-460.403104
 30
0.0
 70
    32
  0
VERTEX
  5
AD2
  8
1
 10
1506.383072
 20
-460.43958
 30
0.0
 70
    32
  0
VERTEX
  5
AD3
  8
1
 10
1506.455356
 20
-460.472861
 30
0.0
 70
    32
  0
VERTEX
  5
AD4
  8
1
 10
1506.529215
 20
-460.50275
 30
0.0
 70
    32
  0
VERTEX
  5
AD5
  8
1
 10
1506.604496
 20
-460.529064
 30
0.0
 70
    32
  0
VERTEX
  5
AD6
  8
1
 10
1506.681029
 20
-460.551635
 30
0.0
 70
    32
  0
VERTEX
  5
AD7
  8
1
 10
1506.758633
 20
-460.570317
 30
0.0
 70
    32
  0
VERTEX
  5
AD8
  8
1
 10
1506.83711
 20
-460.584982
 30
0.0
 70
    32
  0
VERTEX
  5
AD9
  8
1
 10
1506.916252
 20
-460.595531
 30
0.0
 70
    32
  0
VERTEX
  5
ADA
  8
1
 10
1506.995842
 20
-460.60189
 30
0.0
 70
    32
  0
VERTEX
  5
ADB
  8
1
 10
1507.075658
 20
-460.604015
 30
0.0
 70
    32
  0
SEQEND
  5
ADC
  8
DEFPOINTS
  0
POLYLINE
  5
ADD
  8
1
 66
     1
 10
0.0
 20
0.0
 30
0.0
 70
     8
  0
VERTEX
  5
ADE
  8
1
 10
1503.823683
 20
-457.604675
 30
0.0
 70
    32
  0
VERTEX
  5
ADF
  8
1
 10
1503.824059
 20
-457.661144
 30
0.0
 70
    32
  0
VERTEX
  5
AE0
  8
1
 10
1503.825187
 20
-457.717632
 30
0.0
 70
    32
  0
VERTEX
  5
AE1
  8
1
 10
1503.827071
 20
-457.77416
 30
0.0
 70
    32
  0
VERTEX
  5
AE2
  8
1
 10
1503.829716
 20
-457.830748
 30
0.0
 70
    32
  0
VERTEX
  5
AE3
  8
1
 10
1503.833127
 20
-457.887415
 30
0.0
 70
    32
  0
VERTEX
  5
AE4
  8
1
 10
1503.837313
 20
-457.94418
 30
0.0
 70
    32
  0
VERTEX
  5
AE5
  8
1
 10
1503.842285
 20
-458.001062
 30
0.0
 70
    32
  0
VERTEX
  5
AE6
  8
1
 10
1503.848055
 20
-458.05808
 30
0.0
 70
    32
  0
VERTEX
  5
AE7
  8
1
 10
1503.854638
 20
-458.115251
 30
0.0
 70
    32
  0
VERTEX
  5
AE8
  8
1
 10
1503.862049
 20
-458.172592
 30
0.0
 70
    32
  0
VERTEX
  5
AE9
  8
1
 10
1503.870306
 20
-458.230119
 30
0.0
 70
    32
  0
VERTEX
  5
AEA
  8
1
 10
1503.879431
 20
-458.287847
 30
0.0
 70
    32
  0
VERTEX
  5
AEB
  8
1
 10
1503.889446
 20
-458.345789
 30
0.0
 70
    32
  0
VERTEX
  5
AEC
  8
1
 10
1503.900376
 20
-458.40396
 30
0.0
 70
    32
  0
VERTEX
  5
AED
  8
1
 10
1503.912247
 20
-458.462369
 30
0.0
 70
    32
  0
VERTEX
  5
AEE
  8
1
 10
1503.925088
 20
-458.521026
 30
0.0
 70
    32
  0
VERTEX
  5
AEF
  8
1
 10
1503.938931
 20
-458.579938
 30
0.0
 70
    32
  0
VERTEX
  5
AF0
  8
1
 10
1503.95381
 20
-458.639111
 30
0.0
 70
    32
  0
VERTEX
  5
AF1
  8
1
 10
1503.96976
 20
-458.698548
 30
0.0
 70
    32
  0
VERTEX
  5
AF2
  8
1
 10
1503.98682
 20
-458.758248
 30
0.0
 70
    32
  0
VERTEX
  5
AF3
  8
1
 10
1504.005029
 20
-458.81821
 30
0.0
 70
    32
  0
VERTEX
  5
AF4
  8
1
 10
1504.024432
 20
-458.878425
 30
0.0
 70
    32
  0
VERTEX
  5
AF5
  8
1
 10
1504.045073
 20
-458.938885
 30
0.0
 70
    32
  0
VERTEX
  5
AF6
  8
1
 10
1504.066999
 20
-458.999575
 30
0.0
 70
    32
  0
VERTEX
  5
AF7
  8
1
 10
1504.090259
 20
-459.060475
 30
0.0
 70
    32
  0
VERTEX
  5
AF8
  8
1
 10
1504.114906
 20
-459.121562
 30
0.0
 70
    32
  0
VERTEX
  5
AF9
  8
1
 10
1504.140992
 20
-459.182805
 30
0.0
 70
    32
  0
VERTEX
  5
AFA
  8
1
 10
1504.168572
 20
-459.244169
 30
0.0
 70
    32
  0
VERTEX
  5
AFB
  8
1
 10
1504.197702
 20
-459.30561
 30
0.0
 70
    32
  0
VERTEX
  5
AFC
  8
1
 10
1504.22844
 20
-459.367079
 30
0.0
 70
    32
  0
VERTEX
  5
AFD
  8
1
 10
1504.260844
 20
-459.428517
 30
0.0
 70
    32
  0
VERTEX
  5
AFE
  8
1
 10
1504.294972
 20
-459.489858
 30
0.0
 70
    32
  0
VERTEX
  5
AFF
  8
1
 10
1504.330881
 20
-459.551025
 30
0.0
 70
    32
  0
VERTEX
  5
B00
  8
1
 10
1504.368631
 20
-459.611933
 30
0.0
 70
    32
  0
VERTEX
  5
B01
  8
1
 10
1504.408275
 20
-459.672486
 30
0.0
 70
    32
  0
VERTEX
  5
B02
  8
1
 10
1504.449867
 20
-459.732578
 30
0.0
 70
    32
  0
VERTEX
  5
B03
  8
1
 10
1504.493458
 20
-459.79209
 30
0.0
 70
    32
  0
VERTEX
  5
B04
  8
1
 10
1504.539094
 20
-459.850895
 30
0.0
 70
    32
  0
VERTEX
  5
B05
  8
1
 10
1504.586814
 20
-459.90885
 30
0.0
 70
    32
  0
VERTEX
  5
B06
  8
1
 10
1504.636654
 20
-459.965804
 30
0.0
 70
    32
  0
VERTEX
  5
B07
  8
1
 10
1504.68864
 20
-460.021592
 30
0.0
 70
    32
  0
VERTEX
  5
B08
  8
1
 10
1504.742789
 20
-460.07604
 30
0.0
 70
    32
  0
VERTEX
  5
B09
  8
1
 10
1504.799108
 20
-460.128963
 30
0.0
 70
    32
  0
VERTEX
  5
B0A
  8
1
 10
1504.857594
 20
-460.180166
 30
0.0
 70
    32
  0
VERTEX
  5
B0B
  8
1
 10
1504.918228
 20
-460.229446
 30
0.0
 70
    32
  0
VERTEX
  5
B0C
  8
1
 10
1504.980978
 20
-460.276594
 30
0.0
 70
    32
  0
VERTEX
  5
B0D
  8
1
 10
1505.045799
 20
-460.321397
 30
0.0
 70
    32
  0
VERTEX
  5
B0E
  8
1
 10
1505.112624
 20
-460.363639
 30
0.0
 70
    32
  0
VERTEX
  5
B0F
  8
1
 10
1505.181374
 20
-460.403104
 30
0.0
 70
    32
  0
VERTEX
  5
B10
  8
1
 10
1505.25195
 20
-460.43958
 30
0.0
 70
    32
  0
VERTEX
  5
B11
  8
1
 10
1505.324235
 20
-460.472861
 30
0.0
 70
    32
  0
VERTEX
  5
B12
  8
1
 10
1505.398093
 20
-460.50275
 30
0.0
 70
    32
  0
VERTEX
  5
B13
  8
1
 10
1505.473374
 20
-460.529064
 30
0.0
 70
    32
  0
VERTEX
  5
B14
  8
1
 10
1505.549908
 20
-460.551635
 30
0.0
 70
    32
  0
VERTEX
  5
B15
  8
1
 10
1505.627512
 20
-460.570317
 30
0.0
 70
    32
  0
VERTEX
  5
B16
  8
1
 10
1505.705988
 20
-460.584982
 30
0.0
 70
    32
  0
VERTEX
  5
B17
  8
1
 10
1505.78513
 20
-460.595531
 30
0.0
 70
    32
  0
VERTEX
  5
B18
  8
1
 10
1505.86472
 20
-460.60189
 30
0.0
 70
    32
  0
VERTEX
  5
B19
  8
1
 10
1505.944536
 20
-460.604015
 30
0.0
 70
    32
  0
SEQEND
  5
B1A
  8
DEFPOINTS
  0
LINE
  5
B1B
  8
1
 10
1505.944511
 20
-460.604015
 30
0.0
 11
1514.852147
 21
-460.604015
 31
0.0
  0
POLYLINE
  5
B1C
  8
1
 66
     1
 10
0.0
 20
0.0
 30
0.0
 70
     8
  0
VERTEX
  5
B1D
  8
1
 10
1514.852119
 20
-460.604015
 30
0.0
 70
    32
  0
VERTEX
  5
B1E
  8
1
 10
1514.931935
 20
-460.60189
 30
0.0
 70
    32
  0
VERTEX
  5
B1F
  8
1
 10
1515.011525
 20
-460.595531
 30
0.0
 70
    32
  0
VERTEX
  5
B20
  8
1
 10
1515.090667
 20
-460.584982
 30
0.0
 70
    32
  0
VERTEX
  5
B21
  8
1
 10
1515.169144
 20
-460.570317
 30
0.0
 70
    32
  0
VERTEX
  5
B22
  8
1
 10
1515.246747
 20
-460.551635
 30
0.0
 70
    32
  0
VERTEX
  5
B23
  8
1
 10
1515.323281
 20
-460.529064
 30
0.0
 70
    32
  0
VERTEX
  5
B24
  8
1
 10
1515.398562
 20
-460.50275
 30
0.0
 70
    32
  0
VERTEX
  5
B25
  8
1
 10
1515.47242
 20
-460.472861
 30
0.0
 70
    32
  0
VERTEX
  5
B26
  8
1
 10
1515.544705
 20
-460.43958
 30
0.0
 70
    32
  0
VERTEX
  5
B27
  8
1
 10
1515.615281
 20
-460.403104
 30
0.0
 70
    32
  0
VERTEX
  5
B28
  8
1
 10
1515.684031
 20
-460.363639
 30
0.0
 70
    32
  0
VERTEX
  5
B29
  8
1
 10
1515.750857
 20
-460.321397
 30
0.0
 70
    32
  0
VERTEX
  5
B2A
  8
1
 10
1515.815677
 20
-460.276594
 30
0.0
 70
    32
  0
VERTEX
  5
B2B
  8
1
 10
1515.878427
 20
-460.229446
 30
0.0
 70
    32
  0
VERTEX
  5
B2C
  8
1
 10
1515.939061
 20
-460.180166
 30
0.0
 70
    32
  0
VERTEX
  5
B2D
  8
1
 10
1515.997547
 20
-460.128963
 30
0.0
 70
    32
  0
VERTEX
  5
B2E
  8
1
 10
1516.053866
 20
-460.07604
 30
0.0
 70
    32
  0
VERTEX
  5
B2F
  8
1
 10
1516.108015
 20
-460.021592
 30
0.0
 70
    32
  0
VERTEX
  5
B30
  8
1
 10
1516.160001
 20
-459.965804
 30
0.0
 70
    32
  0
VERTEX
  5
B31
  8
1
 10
1516.209841
 20
-459.90885
 30
0.0
 70
    32
  0
VERTEX
  5
B32
  8
1
 10
1516.257561
 20
-459.850895
 30
0.0
 70
    32
  0
VERTEX
  5
B33
  8
1
 10
1516.303197
 20
-459.79209
 30
0.0
 70
    32
  0
VERTEX
  5
B34
  8
1
 10
1516.346788
 20
-459.732578
 30
0.0
 70
    32
  0
VERTEX
  5
B35
  8
1
 10
1516.38838
 20
-459.672486
 30
0.0
 70
    32
  0
VERTEX
  5
B36
  8
1
 10
1516.428024
 20
-459.611933
 30
0.0
 70
    32
  0
VERTEX
  5
B37
  8
1
 10
1516.465774
 20
-459.551025
 30
0.0
 70
    32
  0
VERTEX
  5
B38
  8
1
 10
1516.501683
 20
-459.489858
 30
0.0
 70
    32
  0
VERTEX
  5
B39
  8
1
 10
1516.535811
 20
-459.428517
 30
0.0
 70
    32
  0
VERTEX
  5
B3A
  8
1
 10
1516.568215
 20
-459.367079
 30
0.0
 70
    32
  0
VERTEX
  5
B3B
  8
1
 10
1516.598953
 20
-459.30561
 30
0.0
 70
    32
  0
VERTEX
  5
B3C
  8
1
 10
1516.628083
 20
-459.244169
 30
0.0
 70
    32
  0
VERTEX
  5
B3D
  8
1
 10
1516.655663
 20
-459.182805
 30
0.0
 70
    32
  0
VERTEX
  5
B3E
  8
1
 10
1516.681749
 20
-459.121562
 30
0.0
 70
    32
  0
VERTEX
  5
B3F
  8
1
 10
1516.706396
 20
-459.060475
 30
0.0
 70
    32
  0
VERTEX
  5
B40
  8
1
 10
1516.729656
 20
-458.999575
 30
0.0
 70
    32
  0
VERTEX
  5
B41
  8
1
 10
1516.751582
 20
-458.938885
 30
0.0
 70
    32
  0
VERTEX
  5
B42
  8
1
 10
1516.772223
 20
-458.878425
 30
0.0
 70
    32
  0
VERTEX
  5
B43
  8
1
 10
1516.791626
 20
-458.81821
 30
0.0
 70
    32
  0
VERTEX
  5
B44
  8
1
 10
1516.809835
 20
-458.758248
 30
0.0
 70
    32
  0
VERTEX
  5
B45
  8
1
 10
1516.826895
 20
-458.698548
 30
0.0
 70
    32
  0
VERTEX
  5
B46
  8
1
 10
1516.842845
 20
-458.639111
 30
0.0
 70
    32
  0
VERTEX
  5
B47
  8
1
 10
1516.857724
 20
-458.579938
 30
0.0
 70
    32
  0
VERTEX
  5
B48
  8
1
 10
1516.871567
 20
-458.521026
 30
0.0
 70
    32
  0
VERTEX
  5
B49
  8
1
 10
1516.884408
 20
-458.462369
 30
0.0
 70
    32
  0
VERTEX
  5
B4A
  8
1
 10
1516.896279
 20
-458.40396
 30
0.0
 70
    32
  0
VERTEX
  5
B4B
  8
1
 10
1516.907209
 20
-458.345789
 30
0.0
 70
    32
  0
VERTEX
  5
B4C
  8
1
 10
1516.917224
 20
-458.287847
 30
0.0
 70
    32
  0
VERTEX
  5
B4D
  8
1
 10
1516.926349
 20
-458.230119
 30
0.0
 70
    32
  0
VERTEX
  5
B4E
  8
1
 10
1516.934607
 20
-458.172592
 30
0.0
 70
    32
  0
VERTEX
  5
B4F
  8
1
 10
1516.942017
 20
-458.115251
 30
0.0
 70
    32
  0
VERTEX
  5
B50
  8
1
 10
1516.9486
 20
-458.05808
 30
0.0
 70
    32
  0
VERTEX
  5
B51
  8
1
 10
1516.95437
 20
-458.001062
 30
0.0
 70
    32
  0
VERTEX
  5
B52
  8
1
 10
1516.959342
 20
-457.94418
 30
0.0
 70
    32
  0
VERTEX
  5
B53
  8
1
 10
1516.963528
 20
-457.887415
 30
0.0
 70
    32
  0
VERTEX
  5
B54
  8
1
 10
1516.966939
 20
-457.830748
 30
0.0
 70
    32
  0
VERTEX
  5
B55
  8
1
 10
1516.969584
 20
-457.77416
 30
0.0
 70
    32
  0
VERTEX
  5
B56
  8
1
 10
1516.971468
 20
-457.717632
 30
0.0
 70
    32
  0
VERTEX
  5
B57
  8
1
 10
1516.972596
 20
-457.661144
 30
0.0
 70
    32
  0
VERTEX
  5
B58
  8
1
 10
1516.972972
 20
-457.604675
 30
0.0
 70
    32
  0
SEQEND
  5
B59
  8
DEFPOINTS
  0
POLYLINE
  5
B5A
  8
1
 66
     1
 10
0.0
 20
0.0
 30
0.0
 70
     8
  0
VERTEX
  5
B5B
  8
1
 10
1494.350539
 20
-460.604015
 30
0.0
 70
    32
  0
VERTEX
  5
B5C
  8
1
 10
1494.430354
 20
-460.60189
 30
0.0
 70
    32
  0
VERTEX
  5
B5D
  8
1
 10
1494.509944
 20
-460.595531
 30
0.0
 70
    32
  0
VERTEX
  5
B5E
  8
1
 10
1494.589086
 20
-460.584982
 30
0.0
 70
    32
  0
VERTEX
  5
B5F
  8
1
 10
1494.667563
 20
-460.570317
 30
0.0
 70
    32
  0
VERTEX
  5
B60
  8
1
 10
1494.745167
 20
-460.551635
 30
0.0
 70
    32
  0
VERTEX
  5
B61
  8
1
 10
1494.821701
 20
-460.529064
 30
0.0
 70
    32
  0
VERTEX
  5
B62
  8
1
 10
1494.896981
 20
-460.50275
 30
0.0
 70
    32
  0
VERTEX
  5
B63
  8
1
 10
1494.97084
 20
-460.472861
 30
0.0
 70
    32
  0
VERTEX
  5
B64
  8
1
 10
1495.043125
 20
-460.43958
 30
0.0
 70
    32
  0
VERTEX
  5
B65
  8
1
 10
1495.1137
 20
-460.403104
 30
0.0
 70
    32
  0
VERTEX
  5
B66
  8
1
 10
1495.18245
 20
-460.363639
 30
0.0
 70
    32
  0
VERTEX
  5
B67
  8
1
 10
1495.249276
 20
-460.321397
 30
0.0
 70
    32
  0
VERTEX
  5
B68
  8
1
 10
1495.314096
 20
-460.276594
 30
0.0
 70
    32
  0
VERTEX
  5
B69
  8
1
 10
1495.376847
 20
-460.229446
 30
0.0
 70
    32
  0
VERTEX
  5
B6A
  8
1
 10
1495.437481
 20
-460.180166
 30
0.0
 70
    32
  0
VERTEX
  5
B6B
  8
1
 10
1495.495966
 20
-460.128963
 30
0.0
 70
    32
  0
VERTEX
  5
B6C
  8
1
 10
1495.552286
 20
-460.07604
 30
0.0
 70
    32
  0
VERTEX
  5
B6D
  8
1
 10
1495.606435
 20
-460.021592
 30
0.0
 70
    32
  0
VERTEX
  5
B6E
  8
1
 10
1495.65842
 20
-459.965804
 30
0.0
 70
    32
  0
VERTEX
  5
B6F
  8
1
 10
1495.70826
 20
-459.90885
 30
0.0
 70
    32
  0
VERTEX
  5
B70
  8
1
 10
1495.755981
 20
-459.850895
 30
0.0
 70
    32
  0
VERTEX
  5
B71
  8
1
 10
1495.801616
 20
-459.79209
 30
0.0
 70
    32
  0
VERTEX
  5
B72
  8
1
 10
1495.845207
 20
-459.732578
 30
0.0
 70
    32
  0
VERTEX
  5
B73
  8
1
 10
1495.8868
 20
-459.672486
 30
0.0
 70
    32
  0
VERTEX
  5
B74
  8
1
 10
1495.926444
 20
-459.611933
 30
0.0
 70
    32
  0
VERTEX
  5
B75
  8
1
 10
1495.964193
 20
-459.551025
 30
0.0
 70
    32
  0
VERTEX
  5
B76
  8
1
 10
1496.000103
 20
-459.489858
 30
0.0
 70
    32
  0
VERTEX
  5
B77
  8
1
 10
1496.034231
 20
-459.428517
 30
0.0
 70
    32
  0
VERTEX
  5
B78
  8
1
 10
1496.066634
 20
-459.367079
 30
0.0
 70
    32
  0
VERTEX
  5
B79
  8
1
 10
1496.097372
 20
-459.30561
 30
0.0
 70
    32
  0
VERTEX
  5
B7A
  8
1
 10
1496.126503
 20
-459.244169
 30
0.0
 70
    32
  0
VERTEX
  5
B7B
  8
1
 10
1496.154083
 20
-459.182805
 30
0.0
 70
    32
  0
VERTEX
  5
B7C
  8
1
 10
1496.180169
 20
-459.121562
 30
0.0
 70
    32
  0
VERTEX
  5
B7D
  8
1
 10
1496.204815
 20
-459.060475
 30
0.0
 70
    32
  0
VERTEX
  5
B7E
  8
1
 10
1496.228076
 20
-458.999575
 30
0.0
 70
    32
  0
VERTEX
  5
B7F
  8
1
 10
1496.250002
 20
-458.938885
 30
0.0
 70
    32
  0
VERTEX
  5
B80
  8
1
 10
1496.270643
 20
-458.878425
 30
0.0
 70
    32
  0
VERTEX
  5
B81
  8
1
 10
1496.290045
 20
-458.81821
 30
0.0
 70
    32
  0
VERTEX
  5
B82
  8
1
 10
1496.308255
 20
-458.758248
 30
0.0
 70
    32
  0
VERTEX
  5
B83
  8
1
 10
1496.325314
 20
-458.698548
 30
0.0
 70
    32
  0
VERTEX
  5
B84
  8
1
 10
1496.341265
 20
-458.639111
 30
0.0
 70
    32
  0
VERTEX
  5
B85
  8
1
 10
1496.356143
 20
-458.579938
 30
0.0
 70
    32
  0
VERTEX
  5
B86
  8
1
 10
1496.369986
 20
-458.521026
 30
0.0
 70
    32
  0
VERTEX
  5
B87
  8
1
 10
1496.382828
 20
-458.462369
 30
0.0
 70
    32
  0
VERTEX
  5
B88
  8
1
 10
1496.394699
 20
-458.40396
 30
0.0
 70
    32
  0
VERTEX
  5
B89
  8
1
 10
1496.405628
 20
-458.345789
 30
0.0
 70
    32
  0
VERTEX
  5
B8A
  8
1
 10
1496.415643
 20
-458.287847
 30
0.0
 70
    32
  0
VERTEX
  5
B8B
  8
1
 10
1496.424768
 20
-458.230119
 30
0.0
 70
    32
  0
VERTEX
  5
B8C
  8
1
 10
1496.433026
 20
-458.172592
 30
0.0
 70
    32
  0
VERTEX
  5
B8D
  8
1
 10
1496.440437
 20
-458.115251
 30
0.0
 70
    32
  0
VERTEX
  5
B8E
  8
1
 10
1496.447019
 20
-458.05808
 30
0.0
 70
    32
  0
VERTEX
  5
B8F
  8
1
 10
1496.452789
 20
-458.001062
 30
0.0
 70
    32
  0
VERTEX
  5
B90
  8
1
 10
1496.457761
 20
-457.94418
 30
0.0
 70
    32
  0
VERTEX
  5
B91
  8
1
 10
1496.461948
 20
-457.887415
 30
0.0
 70
    32
  0
VERTEX
  5
B92
  8
1
 10
1496.465359
 20
-457.830748
 30
0.0
 70
    32
  0
VERTEX
  5
B93
  8
1
 10
1496.468003
 20
-457.77416
 30
0.0
 70
    32
  0
VERTEX
  5
B94
  8
1
 10
1496.469887
 20
-457.717632
 30
0.0
 70
    32
  0
VERTEX
  5
B95
  8
1
 10
1496.471016
 20
-457.661144
 30
0.0
 70
    32
  0
VERTEX
  5
B96
  8
1
 10
1496.471392
 20
-457.604675
 30
0.0
 70
    32
  0
SEQEND
  5
B97
  8
DEFPOINTS
  0
LINE
  5
B98
  8
1
 10
1410.422745
 20
-572.579352
 30
0.0
 11
1410.422745
 21
-295.640351
 31
0.0
  0
LINE
  5
B99
  8
1
 10
440.375806
 20
-444.007672
 30
0.0
 11
391.851323
 21
-444.007672
 31
0.0
  0
LINE
  5
B9A
  8
1
 10
440.844332
 20
-450.606218
 30
0.0
 11
406.215716
 21
-450.606218
 31
0.0
  0
LINE
  5
B9B
  8
1
 10
451.687023
 20
-447.00701
 30
0.0
 11
442.496659
 21
-447.00701
 31
0.0
  0
LINE
  5
B9C
  8
1
 10
450.555901
 20
-453.605557
 30
0.0
 11
438.376246
 21
-453.605557
 31
0.0
  0
LINE
  5
B9D
  8
1
 10
440.844332
 20
-450.606218
 30
0.0
 11
442.965185
 21
-453.605557
 31
0.0
  0
LINE
  5
B9E
  8
1
 10
435.376907
 20
-450.606218
 30
0.0
 11
438.376246
 21
-453.605557
 31
0.0
  0
LINE
  5
B9F
  8
1
 10
440.375806
 20
-444.007672
 30
0.0
 11
442.496659
 21
-447.00701
 31
0.0
  0
LINE
  5
BA0
  8
1
 10
451.687023
 20
-447.00701
 30
0.0
 11
451.687023
 21
-536.924465
 31
0.0
  0
LINE
  5
BA1
  8
1
  6
DIVIDE
 10
621.938771
 20
-330.632644
 30
0.0
 11
974.861035
 21
-330.632644
 31
0.0
  0
LINE
  5
BA2
  8
1
  6
DIVIDE
 10
621.938771
 20
-465.602915
 30
0.0
 11
974.861035
 21
-465.602915
 31
0.0
  0
LINE
  5
BA3
  8
1
  6
DIVIDE
 10
974.861035
 20
-465.602915
 30
0.0
 11
974.861035
 21
-330.632644
 31
0.0
  0
LINE
  5
BA4
  8
1
  6
DIVIDE
 10
621.938771
 20
-465.602915
 30
0.0
 11
621.938771
 21
-330.632644
 31
0.0
  0
LINE
  5
BA5
  8
1
  6
DIVIDE
 10
506.464206
 20
-386.085848
 30
0.0
 11
591.445488
 21
-386.085848
 31
0.0
  0
LINE
  5
BA6
  8
1
  6
DIVIDE
 10
506.464206
 20
-491.062725
 30
0.0
 11
591.445488
 21
-491.062725
 31
0.0
  0
LINE
  5
BA7
  8
1
  6
DIVIDE
 10
591.445488
 20
-491.062725
 30
0.0
 11
591.445488
 21
-386.085848
 31
0.0
  0
LINE
  5
BA8
  8
1
  6
DIVIDE
 10
506.464206
 20
-491.062725
 30
0.0
 11
506.464206
 21
-386.085848
 31
0.0
  0
LINE
  5
BA9
  8
1
  6
DASHDOT
 10
950.86632
 20
-680.640396
 30
0.0
 11
950.86632
 21
-247.842769
 31
0.0
  0
LINE
  5
BAA
  8
1
  6
DASHDOT
 10
602.648422
 20
-438.574286
 30
0.0
 11
500.882965
 21
-438.574286
 31
0.0
  0
LINE
  5
BAB
  8
1
 10
-1111.962688
 20
392.349362
 30
0.0
 11
-1111.962688
 21
908.23573
 31
0.0
  0
LINE
  5
BAC
  8
1
 10
-659.062446
 20
392.349362
 30
0.0
 11
-659.062446
 21
908.23573
 31
0.0
  0
LINE
  5
BAD
  8
1
 10
364.542523
 20
-450.856163
 30
0.0
 11
385.5393
 21
-450.856163
 31
0.0
  0
LINE
  5
BAE
  8
1
 10
364.542523
 20
-460.354071
 30
0.0
 11
385.5393
 21
-460.354071
 31
0.0
  0
POLYLINE
  5
BAF
  8
1
 66
     1
 10
0.0
 20
0.0
 30
0.0
 70
     4
  0
VERTEX
  5
BB0
  8
1
 10
433.166448
 20
-413.1429
 30
0.0
 70
     8
  0
VERTEX
  5
BB1
  8
1
 10
433.031015
 20
-413.404116
 30
0.0
 70
     8
  0
VERTEX
  5
BB2
  8
1
 10
432.877222
 20
-413.707811
 30
0.0
 70
     8
  0
VERTEX
  5
BB3
  8
1
 10
432.708573
 20
-414.051177
 30
0.0
 70
     8
  0
VERTEX
  5
BB4
  8
1
 10
432.528571
 20
-414.431409
 30
0.0
 70
     8
  0
VERTEX
  5
BB5
  8
1
 10
432.34072
 20
-414.845702
 30
0.0
 70
     8
  0
VERTEX
  5
BB6
  8
1
 10
432.148525
 20
-415.291249
 30
0.0
 70
     8
  0
VERTEX
  5
BB7
  8
1
 10
431.955487
 20
-415.765244
 30
0.0
 70
     8
  0
VERTEX
  5
BB8
  8
1
 10
431.765519
 20
-416.265004
 30
0.0
 70
     8
  0
VERTEX
  5
BB9
  8
1
 10
431.584155
 20
-416.788325
 30
0.0
 70
     8
  0
VERTEX
  5
BBA
  8
1
 10
431.417336
 20
-417.333127
 30
0.0
 70
     8
  0
VERTEX
  5
BBB
  8
1
 10
431.271005
 20
-417.897327
 30
0.0
 70
     8
  0
VERTEX
  5
BBC
  8
1
 10
431.151104
 20
-418.478845
 30
0.0
 70
     8
  0
VERTEX
  5
BBD
  8
1
 10
431.063574
 20
-419.075599
 30
0.0
 70
     8
  0
VERTEX
  5
BBE
  8
1
 10
431.014357
 20
-419.685508
 30
0.0
 70
     8
  0
VERTEX
  5
BBF
  8
1
 10
431.009395
 20
-420.30649
 30
0.0
 70
     8
  0
VERTEX
  5
BC0
  8
1
 10
431.053159
 20
-420.935709
 30
0.0
 70
     8
  0
VERTEX
  5
BC1
  8
1
 10
431.14424
 20
-421.567313
 30
0.0
 70
     8
  0
VERTEX
  5
BC2
  8
1
 10
431.27976
 20
-422.194692
 30
0.0
 70
     8
  0
VERTEX
  5
BC3
  8
1
 10
431.456837
 20
-422.81124
 30
0.0
 70
     8
  0
VERTEX
  5
BC4
  8
1
 10
431.672594
 20
-423.410347
 30
0.0
 70
     8
  0
VERTEX
  5
BC5
  8
1
 10
431.92415
 20
-423.985408
 30
0.0
 70
     8
  0
VERTEX
  5
BC6
  8
1
 10
432.208626
 20
-424.529812
 30
0.0
 70
     8
  0
VERTEX
  5
BC7
  8
1
 10
432.523143
 20
-425.036953
 30
0.0
 70
     8
  0
VERTEX
  5
BC8
  8
1
 10
432.864013
 20
-425.50312
 30
0.0
 70
     8
  0
VERTEX
  5
BC9
  8
1
 10
433.224316
 20
-425.936189
 30
0.0
 70
     8
  0
VERTEX
  5
BCA
  8
1
 10
433.596322
 20
-426.346934
 30
0.0
 70
     8
  0
VERTEX
  5
BCB
  8
1
 10
433.972305
 20
-426.74613
 30
0.0
 70
     8
  0
VERTEX
  5
BCC
  8
1
 10
434.344534
 20
-427.144549
 30
0.0
 70
     8
  0
VERTEX
  5
BCD
  8
1
 10
434.705283
 20
-427.552966
 30
0.0
 70
     8
  0
VERTEX
  5
BCE
  8
1
 10
435.046821
 20
-427.982154
 30
0.0
 70
     8
  0
VERTEX
  5
BCF
  8
1
 10
435.361421
 20
-428.442887
 30
0.0
 70
     8
  0
VERTEX
  5
BD0
  8
1
 10
435.642362
 20
-428.942867
 30
0.0
 70
     8
  0
VERTEX
  5
BD1
  8
1
 10
435.88695
 20
-429.477506
 30
0.0
 70
     8
  0
VERTEX
  5
BD2
  8
1
 10
436.093502
 20
-430.039141
 30
0.0
 70
     8
  0
VERTEX
  5
BD3
  8
1
 10
436.260332
 20
-430.620112
 30
0.0
 70
     8
  0
VERTEX
  5
BD4
  8
1
 10
436.385755
 20
-431.212757
 30
0.0
 70
     8
  0
VERTEX
  5
BD5
  8
1
 10
436.468086
 20
-431.809417
 30
0.0
 70
     8
  0
VERTEX
  5
BD6
  8
1
 10
436.50564
 20
-432.402429
 30
0.0
 70
     8
  0
VERTEX
  5
BD7
  8
1
 10
436.496733
 20
-432.984133
 30
0.0
 70
     8
  0
VERTEX
  5
BD8
  8
1
 10
436.440892
 20
-433.548499
 30
0.0
 70
     8
  0
VERTEX
  5
BD9
  8
1
 10
436.342504
 20
-434.096026
 30
0.0
 70
     8
  0
VERTEX
  5
BDA
  8
1
 10
436.207166
 20
-434.628847
 30
0.0
 70
     8
  0
VERTEX
  5
BDB
  8
1
 10
436.040478
 20
-435.149092
 30
0.0
 70
     8
  0
VERTEX
  5
BDC
  8
1
 10
435.848039
 20
-435.658893
 30
0.0
 70
     8
  0
VERTEX
  5
BDD
  8
1
 10
435.635448
 20
-436.16038
 30
0.0
 70
     8
  0
VERTEX
  5
BDE
  8
1
 10
435.408303
 20
-436.655686
 30
0.0
 70
     8
  0
VERTEX
  5
BDF
  8
1
 10
435.172203
 20
-437.146941
 30
0.0
 70
     8
  0
VERTEX
  5
BE0
  8
1
 10
434.931688
 20
-437.635038
 30
0.0
 70
     8
  0
VERTEX
  5
BE1
  8
1
 10
434.687064
 20
-438.115917
 30
0.0
 70
     8
  0
VERTEX
  5
BE2
  8
1
 10
434.437577
 20
-438.584278
 30
0.0
 70
     8
  0
VERTEX
  5
BE3
  8
1
 10
434.182472
 20
-439.034824
 30
0.0
 70
     8
  0
VERTEX
  5
BE4
  8
1
 10
433.920995
 20
-439.462256
 30
0.0
 70
     8
  0
VERTEX
  5
BE5
  8
1
 10
433.652394
 20
-439.861274
 30
0.0
 70
     8
  0
VERTEX
  5
BE6
  8
1
 10
433.375913
 20
-440.22658
 30
0.0
 70
     8
  0
VERTEX
  5
BE7
  8
1
 10
433.090799
 20
-440.552875
 30
0.0
 70
     8
  0
VERTEX
  5
BE8
  8
1
 10
432.797471
 20
-440.836333
 30
0.0
 70
     8
  0
VERTEX
  5
BE9
  8
1
 10
432.501043
 20
-441.079024
 30
0.0
 70
     8
  0
VERTEX
  5
BEA
  8
1
 10
432.2078
 20
-441.284489
 30
0.0
 70
     8
  0
VERTEX
  5
BEB
  8
1
 10
431.92403
 20
-441.456271
 30
0.0
 70
     8
  0
VERTEX
  5
BEC
  8
1
 10
431.656018
 20
-441.597911
 30
0.0
 70
     8
  0
VERTEX
  5
BED
  8
1
 10
431.41005
 20
-441.712952
 30
0.0
 70
     8
  0
VERTEX
  5
BEE
  8
1
 10
431.192414
 20
-441.804936
 30
0.0
 70
     8
  0
VERTEX
  5
BEF
  8
1
 10
431.009395
 20
-441.877404
 30
0.0
 70
     8
  0
VERTEX
  5
BF0
  8
1
 10
433.550603
 20
-412.414016
 30
0.0
 70
    16
  0
VERTEX
  5
BF1
  8
1
 10
433.550603
 20
-412.414016
 30
0.0
 70
    16
  0
VERTEX
  5
BF2
  8
1
 10
431.927089
 20
-415.491719
 30
0.0
 70
    16
  0
VERTEX
  5
BF3
  8
1
 10
430.473964
 20
-420.210576
 30
0.0
 70
    16
  0
VERTEX
  5
BF4
  8
1
 10
432.233423
 20
-425.504915
 30
0.0
 70
    16
  0
VERTEX
  5
BF5
  8
1
 10
435.731201
 20
-427.991484
 30
0.0
 70
    16
  0
VERTEX
  5
BF6
  8
1
 10
437.010299
 20
-433.186474
 30
0.0
 70
    16
  0
VERTEX
  5
BF7
  8
1
 10
435.207998
 20
-437.167414
 30
0.0
 70
    16
  0
VERTEX
  5
BF8
  8
1
 10
433.190927
 20
-441.025513
 30
0.0
 70
    16
  0
VERTEX
  5
BF9
  8
1
 10
430.573088
 20
-442.047783
 30
0.0
 70
    16
  0
VERTEX
  5
BFA
  8
1
 10
430.573088
 20
-442.047783
 30
0.0
 70
    16
  0
SEQEND
  5
BFB
  8
DEFPOINTS
  0
LINE
  5
BFC
  8
1
  6
DASHDOT
 10
-345.042997
 20
296.309136
 30
0.0
 11
-325.047402
 21
296.309136
 31
0.0
  0
LINE
  5
BFD
  8
1
  6
DASHDOT
 10
-325.047402
 20
296.309136
 30
0.0
 11
-325.047402
 21
281.312439
 31
0.0
  0
LINE
  5
BFE
  8
1
  6
DASHDOT
 10
-355.040795
 20
296.309136
 30
0.0
 11
-350.041896
 21
296.309136
 31
0.0
  0
LINE
  5
BFF
  8
1
  6
DASHDOT
 10
-375.036391
 20
296.309136
 30
0.0
 11
-360.039694
 21
296.309136
 31
0.0
  0
LINE
  5
C00
  8
1
  6
DASHDOT
 10
-385.034189
 20
296.309136
 30
0.0
 11
-380.03529
 21
296.309136
 31
0.0
  0
LINE
  5
C01
  8
1
  6
DASHDOT
 10
-405.029784
 20
296.309136
 30
0.0
 11
-390.033088
 21
296.309136
 31
0.0
  0
LINE
  5
C02
  8
1
  6
DASHDOT
 10
-405.029784
 20
256.317944
 30
0.0
 11
-390.033088
 21
256.317944
 31
0.0
  0
LINE
  5
C03
  8
1
  6
DASHDOT
 10
-385.034189
 20
256.317944
 30
0.0
 11
-380.03529
 21
256.317944
 31
0.0
  0
LINE
  5
C04
  8
1
  6
DASHDOT
 10
-405.029784
 20
266.315742
 30
0.0
 11
-405.029784
 21
256.317944
 31
0.0
  0
LINE
  5
C05
  8
1
  6
DASHDOT
 10
-405.029784
 20
276.31354
 30
0.0
 11
-405.029784
 21
271.314641
 31
0.0
  0
LINE
  5
C06
  8
1
  6
DASHDOT
 10
-405.029784
 20
296.309136
 30
0.0
 11
-405.029784
 21
281.312439
 31
0.0
  0
LINE
  5
C07
  8
1
  6
DASHDOT
 10
-375.036391
 20
256.317944
 30
0.0
 11
-360.039694
 21
256.317944
 31
0.0
  0
LINE
  5
C08
  8
1
  6
DASHDOT
 10
-345.042997
 20
256.317944
 30
0.0
 11
-325.047402
 21
256.317944
 31
0.0
  0
LINE
  5
C09
  8
1
  6
DASHDOT
 10
-355.040795
 20
256.317944
 30
0.0
 11
-350.041896
 21
256.317944
 31
0.0
  0
LINE
  5
C0A
  8
1
  6
DASHDOT
 10
-325.047402
 20
266.315742
 30
0.0
 11
-325.047402
 21
256.317944
 31
0.0
  0
LINE
  5
C0B
  8
1
  6
DASHDOT
 10
-325.047402
 20
276.31354
 30
0.0
 11
-325.047402
 21
271.314641
 31
0.0
  0
LINE
  5
C0C
  8
1
  6
DASHDOT
 10
-885.512567
 20
143.055073
 30
0.0
 11
-885.512567
 21
1155.674387
 31
0.0
  0
LINE
  5
C0D
  8
1
  6
DASHDOT
 10
-163.53958
 20
650.292546
 30
0.0
 11
-1607.485554
 21
650.292546
 31
0.0
  0
LINE
  5
C0E
  8
1
  6
DIVIDE
 10
1357.776693
 20
-330.632644
 30
0.0
 11
1004.854429
 21
-330.632644
 31
0.0
  0
LINE
  5
C0F
  8
1
  6
DIVIDE
 10
1004.854429
 20
-465.602915
 30
0.0
 11
1004.854429
 21
-330.632644
 31
0.0
  0
LINE
  5
C10
  8
1
  6
DIVIDE
 10
1357.776693
 20
-465.602915
 30
0.0
 11
1004.854429
 21
-465.602915
 31
0.0
  0
LINE
  5
C11
  8
1
  6
DIVIDE
 10
1357.776693
 20
-465.602915
 30
0.0
 11
1357.776693
 21
-330.632644
 31
0.0
  0
LINE
  5
C12
  8
1
 10
271.391928
 20
-438.574286
 30
0.0
 11
142.597529
 21
-438.574286
 31
0.0
  0
TEXT
  5
C18
  8
0
 10
-4195.48
 20
2771.12
 30
0.0
 40
0.2
  1
BF6_2
  0
TEXT
  5
C19
  8
0
 10
-4195.48
 20
2770.86
 30
0.0
 40
0.2
  1
FXYFJ90K,112K,140K,160K
  0
TEXT
  8
3
  40
100
  5
C75
  72
0
  71
0
 10
115.942
 20
-1251.81
 30
0.000000
  1

  0
TEXT
  8
3
  40
100
  5
C76
  72
0
  71
0
 10
115.942
 20
-1381.81
 30
0.000000
  1

  0
TEXT
  8
3
  40
100
  5
C77
  72
0
  71
0
 10
115.942
 20
-1511.81
 30
0.000000
  1
GBF6_2
  0
TEXT
  8
3
  40
100
  5
C78
  72
0
  71
0
 10
115.942
 20
-1641.81
 30
0.000000
  1
FXYF80KVE
  0
TEXT
  8
3
  40
100
  5
C79
  72
0
  71
0
 10
115.942
 20
-1771.81
 30
0.000000
  1
FXYF100KVE
  0
TEXT
  8
3
  40
100
  5
C7A
  72
0
  71
0
 10
115.942
 20
-1901.81
 30
0.000000
  1
FXYF125KVE
  0
ENDSEC
  0
EOF
