  0
SECTION
  2
HEADER
  9
$ACADVER
  1
AC1009
  9
$DWGCODEPAGE
  3
dos932
  9
$INSBASE
 10
0.0
 20
0.0
 30
0.0
  9
$EXTMIN
 10
-1936.494668
 20
-1308.254285
 30
0.0
  9
$EXTMAX
 10
4287.49
 20
2654.812874
 30
0.0
  9
$LIMMIN
 10
-1999.707313
 20
-1705.947668
  9
$LIMMAX
 10
4752.690037
 20
3066.372924
  9
$ORTHOMODE
 70
     0
  9
$REGENMODE
 70
     1
  9
$FILLMODE
 70
     1
  9
$QTEXTMODE
 70
     0
  9
$MIRRTEXT
 70
     0
  9
$DRAGMODE
 70
     2
  9
$LTSCALE
 40
1.0
  9
$OSMODE
 70
     0
  9
$ATTMODE
 70
     1
  9
$TEXTSIZE
 40
0.2
  9
$TRACEWID
 40
0.05
  9
$TEXTSTYLE
  7
STANDARD
  9
$CLAYER
  8
0
  9
$CELTYPE
  6
BYLAYER
  9
$CECOLOR
 62
   256
  9
$DIMSCALE
 40
1.0
  9
$DIMASZ
 40
0.18
  9
$DIMEXO
 40
3.0
  9
$DIMDLI
 40
0.38
  9
$DIMRND
 40
0.0
  9
$DIMDLE
 40
0.0
  9
$DIMEXE
 40
5.0
  9
$DIMTP
 40
0.0
  9
$DIMTM
 40
0.0
  9
$DIMTXT
 40
0.18
  9
$DIMCEN
 40
0.09
  9
$DIMTSZ
 40
0.0
  9
$DIMTOL
 70
     0
  9
$DIMLIM
 70
     0
  9
$DIMTIH
 70
     1
  9
$DIMTOH
 70
     1
  9
$DIMSE1
 70
     0
  9
$DIMSE2
 70
     0
  9
$DIMTAD
 70
     1
  9
$DIMZIN
 70
     0
  9
$DIMBLK
  1

  9
$DIMASO
 70
     1
  9
$DIMSHO
 70
     0
  9
$DIMPOST
  1

  9
$DIMAPOST
  1

  9
$DIMALT
 70
     0
  9
$DIMALTD
 70
     2
  9
$DIMALTF
 40
25.4
  9
$DIMLFAC
 40
1.0
  9
$DIMTOFL
 70
     0
  9
$DIMTVP
 40
1.0
  9
$DIMTIX
 70
     0
  9
$DIMSOXD
 70
     0
  9
$DIMSAH
 70
     0
  9
$DIMBLK1
  1

  9
$DIMBLK2
  1

  9
$DIMSTYLE
  2
STANDARD
  9
$DIMCLRD
 70
     0
  9
$DIMCLRE
 70
     0
  9
$DIMCLRT
 70
     0
  9
$DIMTFAC
 40
1.0
  9
$DIMGAP
 40
0.09
  9
$LUNITS
 70
     2
  9
$LUPREC
 70
     4
  9
$SKETCHINC
 40
0.1
  9
$FILLETRAD
 40
0.05
  9
$AUNITS
 70
     0
  9
$AUPREC
 70
     0
  9
$MENU
  1
acad
  9
$ELEVATION
 40
0.0
  9
$PELEVATION
 40
0.0
  9
$THICKNESS
 40
0.0
  9
$LIMCHECK
 70
     0
  9
$BLIPMODE
 70
     1
  9
$CHAMFERA
 40
0.0
  9
$CHAMFERB
 40
0.0
  9
$SKPOLY
 70
     0
  9
$TDCREATE
 40
0.0
  9
$TDUPDATE
 40
0.0
  9
$TDINDWG
 40
0.0
  9
$TDUSRTIMER
 40
0.0
  9
$USRTIMER
 70
     1
  9
$ANGBASE
 50
0.0
  9
$ANGDIR
 70
     0
  9
$PDMODE
 70
     0
  9
$PDSIZE
 40
0.0
  9
$PLINEWID
 40
0.0
  9
$COORDS
 70
     0
  9
$SPLFRAME
 70
     0
  9
$SPLINETYPE
 70
     6
  9
$SPLINESEGS
 70
     8
  9
$ATTDIA
 70
     1
  9
$ATTREQ
 70
     1
  9
$HANDLING
 70
     1
  9
$HANDSEED
  5
E78
  9
$SURFTAB1
 70
     6
  9
$SURFTAB2
 70
     6
  9
$SURFTYPE
 70
     6
  9
$SURFU
 70
     6
  9
$SURFV
 70
     6
  9
$UCSNAME
  2

  9
$UCSORG
 10
0.0
 20
0.0
 30
0.0
  9
$UCSXDIR
 10
1.0
 20
0.0
 30
0.0
  9
$UCSYDIR
 10
0.0
 20
1.0
 30
0.0
  9
$PUCSNAME
  2

  9
$PUCSORG
 10
0.0
 20
0.0
 30
0.0
  9
$PUCSXDIR
 10
1.0
 20
0.0
 30
0.0
  9
$PUCSYDIR
 10
0.0
 20
1.0
 30
0.0
  9
$USERI1
 70
     0
  9
$USERI2
 70
     0
  9
$USERI3
 70
     0
  9
$USERI4
 70
     0
  9
$USERI5
 70
     0
  9
$USERR1
 40
0.0
  9
$USERR2
 40
0.0
  9
$USERR3
 40
0.0
  9
$USERR4
 40
0.0
  9
$USERR5
 40
0.0
  9
$WORLDVIEW
 70
     1
  9
$SHADEDGE
 70
     3
  9
$SHADEDIF
 70
    70
  9
$TILEMODE
 70
     1
  9
$MAXACTVP
 70
    16
  9
$PINSBASE
 10
0.0
 20
0.0
 30
0.0
  9
$PLIMCHECK
 70
     0
  9
$PEXTMIN
 10
1.000000E+020
 20
1.000000E+020
 30
1.000000E+020
  9
$PEXTMAX
 10
-1.000000E+020
 20
-1.000000E+020
 30
-1.000000E+020
  9
$PLIMMIN
 10
0.0
 20
0.0
  9
$PLIMMAX
 10
12.0
 20
9.0
  9
$UNITMODE
 70
     0
  9
$VISRETAIN
 70
     0
  9
$PLINEGEN
 70
     0
  9
$PSLTSCALE
 70
     1
  9
$TREEDEPTH
 70
  3020
  0
ENDSEC
  0
SECTION
  2
TABLES
  0
TABLE
  2
VPORT
 70
     2
  0
VPORT
  2
*ACTIVE
 70
     0
 10
0.0
 20
0.0
 11
1.0
 21
1.0
 12
2956.164071
 22
680.212628
 13
0.0
 23
0.0
 14
1.0
 24
1.0
 15
0.0
 25
0.0
 16
0.0
 26
0.0
 36
1.0
 17
0.0
 27
0.0
 37
0.0
 40
4772.320592
 41
2.076923
 42
50.0
 43
0.0
 44
0.0
 50
0.0
 51
0.0
 71
     0
 72
   100
 73
     1
 74
     1
 75
     0
 76
     0
 77
     0
 78
     0
  0
ENDTAB
  0
TABLE
  2
LTYPE
 70
     5
  0
LTYPE
  2
CONTINUOUS
 70
    64
  3
Solid line
 72
    65
 73
     0
 40
0.0
  0
LTYPE
  2
DASHDOT
 70
    64
  3
__ . __ . __ . __ . __ . __ . __ . __ . __ . __
 72
    65
 73
     4
 40
1.0
 49
0.5
 49
-0.25
 49
0.0
 49
-0.25
  0
LTYPE
  2
DOT
 70
    64
  3
...............................................
 72
    65
 73
     2
 40
0.25
 49
0.0
 49
-0.25
  0
LTYPE
  2
DIVIDE
 70
    64
  3
__ . . __ . . __ . . __ . . __ . . __ . . __
 72
    65
 73
     6
 40
1.25
 49
0.5
 49
-0.25
 49
0.0
 49
-0.25
 49
0.0
 49
-0.25
  0
LTYPE
  2
DASHED
 70
    64
  3
__ __ __ __ __ __ __ __ __ __ __ __ __ __ __
 72
    65
 73
     2
 40
0.75
 49
0.5
 49
-0.25
  0
ENDTAB
  0
TABLE
  2
LAYER
 70
     5
  0
LAYER
  2
0
 70
     0
 62
     7
  6
CONTINUOUS
  0
LAYER
  2
DEFPOINTS
 70
     0
 62
    -7
  6
CONTINUOUS
  0
LAYER
  2
1
 70
     0
 62
     7
  6
CONTINUOUS
  0
LAYER
  2
2
 70
     0
 62
     7
  6
DOT
  0
LAYER
  2
3
 70
     0
 62
     7
  6
CONTINUOUS
  0
ENDTAB
  0
TABLE
  2
STYLE
 70
     3
  0
STYLE
  2
STANDARD
 70
    64
 40
150.0
 41
0.8
 50
0.0
 71
     0
 42
0.2
  3
txt
  4

  0
STYLE
  2
MONOTXT
 70
    64
 40
0.0
 41
0.5
 50
0.0
 71
     0
 42
4.191412
  3
monotxt
  4
BIGFONT
  0
STYLE
  2
VERTICAL
 70
    68
 40
0.0
 41
0.5
 50
0.0
 71
     0
 42
4.191412
  3
monotxt
  4
BIGFONT
  0
ENDTAB
  0
TABLE
  2
VIEW
 70
     0
  0
ENDTAB
  0
TABLE
  2
UCS
 70
     0
  0
ENDTAB
  0
TABLE
  2
APPID
 70
     1
  0
APPID
  2
ACAD
 70
     0
  0
ENDTAB
  0
TABLE
  2
DIMSTYLE
 70
     1
  0
DIMSTYLE
  2
STANDARD
 70
     0
  3

  4

  5

  6

  7

 40
1.0
 41
0.18
 42
0.0625
 43
0.38
 44
0.18
 45
0.0
 46
0.0
 47
0.0
 48
0.0
140
0.18
141
0.09
142
0.0
143
25.4
144
1.0
145
0.0
146
1.0
147
0.09
 71
     0
 72
     0
 73
     1
 74
     1
 75
     0
 76
     0
 77
     0
 78
     0
170
     0
171
     2
172
     0
173
     0
174
     0
175
     0
176
     0
177
     0
178
     0
  0
ENDTAB
  0
ENDSEC
  0
SECTION
  2
BLOCKS
  0
BLOCK
  5
D5B
  8
0
  2
$MODEL_SPACE
 70
     0
 10
0.0
 20
0.0
 30
0.0
  3
$MODEL_SPACE
  1

  0
ENDBLK
  5
D5C
  8
0
  0
BLOCK
  5
D58
 67
     1
  8
0
  2
$PAPER_SPACE
 70
     0
 10
0.0
 20
0.0
 30
0.0
  3
$PAPER_SPACE
  1

  0
ENDBLK
  5
D59
 67
     1
  8
0
  0
BLOCK
  5
2B
  8
1
  2
*U2
 70
    65
 10
0.0
 20
0.0
 30
0.0
  3
*U2
  1

  0
LINE
  5
2C
  8
1
  6
DASHDOT
 10
2120.732759
 20
858.262042
 30
0.0
 11
1830.247808
 21
858.262042
 31
0.0
  0
LINE
  5
2D
  8
1
 10
1844.132759
 20
875.162042
 30
0.0
 11
1841.732759
 21
875.162042
 31
0.0
  0
LINE
  5
2E
  8
1
 10
1844.132759
 20
841.362042
 30
0.0
 11
1841.732759
 21
841.362042
 31
0.0
  0
LINE
  5
2F
  8
1
  6
DOT
 10
1894.132759
 20
842.262042
 30
0.0
 11
1844.132759
 21
841.762042
 31
0.0
  0
LINE
  5
30
  8
1
  6
DOT
 10
1894.132759
 20
842.262042
 30
0.0
 11
1894.132759
 21
874.262042
 31
0.0
  0
LINE
  5
31
  8
1
  6
DOT
 10
1894.132759
 20
874.262042
 30
0.0
 11
1844.132759
 21
874.762042
 31
0.0
  0
ENDBLK
  5
32
  8
0
  0
BLOCK
  5
34
  8
1
  2
*U3
 70
    65
 10
0.0
 20
0.0
 30
0.0
  3
*U3
  1

  0
LINE
  5
35
  8
1
 10
1841.732759
 20
668.286571
 30
0.0
 11
1841.732759
 21
723.286571
 31
0.0
  0
LINE
  5
36
  8
1
 10
1845.032759
 20
668.286571
 30
0.0
 11
1845.032759
 21
719.986571
 31
0.0
  0
LINE
  5
37
  8
1
 10
1886.732759
 20
711.286571
 30
0.0
 11
1886.732759
 21
719.986571
 31
0.0
  0
LINE
  5
38
  8
1
 10
1890.032759
 20
711.286571
 30
0.0
 11
1890.032759
 21
723.286571
 31
0.0
  0
LINE
  5
39
  8
1
  6
DASHDOT
 10
1866.732759
 20
706.795054
 30
0.0
 11
1866.732759
 21
734.95894
 31
0.0
  0
LINE
  5
3A
  8
1
 10
1841.732759
 20
723.286571
 30
0.0
 11
1890.032759
 21
723.286571
 31
0.0
  0
LINE
  5
3B
  8
1
 10
1845.032759
 20
719.986571
 30
0.0
 11
1886.732759
 21
719.986571
 31
0.0
  0
LINE
  5
3C
  8
1
 10
1886.732759
 20
711.286571
 30
0.0
 11
1890.032759
 21
711.286571
 31
0.0
  0
LINE
  5
3D
  8
1
 10
1841.732759
 20
668.286571
 30
0.0
 11
1845.032759
 21
668.286571
 31
0.0
  0
ENDBLK
  5
3E
  8
0
  0
BLOCK
  5
40
  8
1
  2
*U4
 70
    65
 10
0.0
 20
0.0
 30
0.0
  3
*U4
  1

  0
LINE
  5
41
  8
1
 10
672.532759
 20
668.286571
 30
0.0
 11
672.532759
 21
723.286571
 31
0.0
  0
LINE
  5
42
  8
1
 10
669.232759
 20
668.286571
 30
0.0
 11
669.232759
 21
719.986571
 31
0.0
  0
LINE
  5
43
  8
1
 10
627.532759
 20
711.286571
 30
0.0
 11
627.532759
 21
719.986571
 31
0.0
  0
LINE
  5
44
  8
1
 10
624.232759
 20
711.286571
 30
0.0
 11
624.232759
 21
723.286571
 31
0.0
  0
LINE
  5
45
  8
1
  6
DASHDOT
 10
647.532759
 20
706.795054
 30
0.0
 11
647.532759
 21
734.95894
 31
0.0
  0
LINE
  5
46
  8
1
 10
672.532759
 20
723.286571
 30
0.0
 11
624.232759
 21
723.286571
 31
0.0
  0
LINE
  5
47
  8
1
 10
669.232759
 20
719.986571
 30
0.0
 11
627.532759
 21
719.986571
 31
0.0
  0
LINE
  5
48
  8
1
 10
627.532759
 20
711.286571
 30
0.0
 11
624.232759
 21
711.286571
 31
0.0
  0
LINE
  5
49
  8
1
 10
672.532759
 20
668.286571
 30
0.0
 11
669.232759
 21
668.286571
 31
0.0
  0
ENDBLK
  5
4A
  8
0
  0
BLOCK
  5
4C
  8
1
  2
*U5
 70
    65
 10
0.0
 20
0.0
 30
0.0
  3
*U5
  1

  0
LINE
  5
4D
  8
1
 10
562.13269
 20
573.286671
 30
0.0
 11
362.13259
 21
573.286671
 31
0.0
  0
LINE
  5
4E
  8
1
 10
362.13259
 20
573.286671
 30
0.0
 11
362.13259
 21
563.286671
 31
0.0
  0
LINE
  5
4F
  8
1
 10
562.13269
 20
563.286671
 30
0.0
 11
362.13299
 21
563.286471
 31
0.0
  0
LINE
  5
50
  8
1
 10
511.67819
 20
563.286671
 30
0.0
 11
521.67819
 21
573.286671
 31
0.0
  0
LINE
  5
51
  8
1
 10
479.25179
 20
573.286671
 30
0.0
 11
469.25179
 21
563.286671
 31
0.0
  0
LINE
  5
52
  8
1
 10
426.82539
 20
563.286671
 30
0.0
 11
436.82539
 21
573.286671
 31
0.0
  0
LINE
  5
53
  8
1
 10
394.39899
 20
573.286671
 30
0.0
 11
384.39899
 21
563.286671
 31
0.0
  0
LINE
  5
54
  8
1
 10
562.13259
 20
571.314771
 30
0.0
 11
554.10449
 21
563.286671
 31
0.0
  0
LINE
  5
55
  8
1
 10
562.13259
 20
563.286671
 30
0.0
 11
562.13259
 21
573.286671
 31
0.0
  0
ENDBLK
  5
56
  8
0
  0
BLOCK
  5
58
  8
1
  2
*U6
 70
    65
 10
0.0
 20
0.0
 30
0.0
  3
*U6
  1

  0
LINE
  5
59
  8
1
 10
2152.13269
 20
563.286671
 30
0.0
 11
1952.13269
 21
563.286571
 31
0.0
  0
LINE
  5
5A
  8
1
 10
2152.13269
 20
573.286671
 30
0.0
 11
1952.13269
 21
573.286671
 31
0.0
  0
LINE
  5
5B
  8
1
 10
2152.13269
 20
573.286671
 30
0.0
 11
2152.13269
 21
563.286671
 31
0.0
  0
LINE
  5
5C
  8
1
 10
1952.13269
 20
573.286671
 30
0.0
 11
1952.13269
 21
563.286671
 31
0.0
  0
LINE
  5
5D
  8
1
 10
2085.83579
 20
573.286671
 30
0.0
 11
2075.83579
 21
563.286671
 31
0.0
  0
LINE
  5
5E
  8
1
 10
2118.26229
 20
563.286671
 30
0.0
 11
2128.26229
 21
573.286671
 31
0.0
  0
LINE
  5
5F
  8
1
 10
2033.40929
 20
563.286571
 30
0.0
 11
2043.40929
 21
573.286671
 31
0.0
  0
LINE
  5
60
  8
1
 10
2000.98279
 20
573.286671
 30
0.0
 11
1990.98279
 21
563.286571
 31
0.0
  0
LINE
  5
61
  8
1
 10
1952.13269
 20
566.862971
 30
0.0
 11
1958.55629
 21
573.286671
 31
0.0
  0
ENDBLK
  5
62
  8
0
  0
BLOCK
  5
64
  8
1
  2
*U7
 70
    65
 10
0.0
 20
0.0
 30
0.0
  3
*U7
  1

  0
LINE
  5
65
  8
1
 10
1849.731759
 20
727.286871
 30
0.0
 11
1849.731759
 21
723.286571
 31
0.0
  0
LINE
  5
66
  8
1
 10
1849.731759
 20
727.286571
 30
0.0
 11
1883.731559
 21
727.286571
 31
0.0
  0
ARC
  5
67
  8
1
 10
1858.981559
 20
743.302471
 30
0.0
 40
16.0161
 50
241.0607
 51
298.94
  0
LINE
  5
68
  8
1
 10
1851.231759
 20
727.286371
 30
0.0
 11
1851.231759
 21
740.286371
 31
0.0
  0
ARC
  5
69
  8
1
 10
1858.981559
 20
726.270271
 30
0.0
 40
16.0161
 50
61.0603
 51
118.9396
  0
LINE
  5
6A
  8
1
  6
DASHDOT
 10
1866.731559
 20
1118.564171
 30
0.0
 11
1866.731559
 21
675.210871
 31
0.0
  0
LINE
  5
6B
  8
1
  6
DIVIDE
 10
1859.732259
 20
1103.563671
 30
0.0
 11
1859.731559
 21
742.286371
 31
0.0
  0
LINE
  5
6C
  8
1
  6
DIVIDE
 10
1873.731259
 20
1103.563671
 30
0.0
 11
1873.731559
 21
742.286371
 31
0.0
  0
ARC
  5
6D
  8
1
 10
1874.481559
 20
726.270271
 30
0.0
 40
16.0161
 50
61.0605
 51
118.9398
  0
LINE
  5
6E
  8
1
 10
1882.231559
 20
727.286571
 30
0.0
 11
1882.231559
 21
740.286571
 31
0.0
  0
ARC
  5
6F
  8
1
 10
1874.481559
 20
743.302471
 30
0.0
 40
16.0161
 50
241.0605
 51
298.9398
  0
LINE
  5
70
  8
1
 10
1883.731559
 20
727.286371
 30
0.0
 11
1883.731559
 21
723.286571
 31
0.0
  0
LINE
  5
71
  8
1
 10
1858.981259
 20
742.286371
 30
0.0
 11
1874.481259
 21
742.286371
 31
0.0
  0
ENDBLK
  5
72
  8
0
  0
BLOCK
  5
74
  8
1
  2
*U8
 70
    65
 10
0.0
 20
0.0
 30
0.0
  3
*U8
  1

  0
ARC
  5
75
  8
1
 10
1858.981559
 20
702.002971
 30
0.0
 40
16.0161
 50
241.0607
 51
298.94
  0
ARC
  5
76
  8
1
 10
1858.981559
 20
684.970671
 30
0.0
 40
16.0161
 50
61.0603
 51
118.9396
  0
LINE
  5
77
  8
1
 10
1858.981259
 20
685.986871
 30
0.0
 11
1874.481259
 21
685.986871
 31
0.0
  0
LINE
  5
78
  8
1
 10
1859.731559
 20
685.986871
 30
0.0
 11
1859.731559
 21
680.986871
 31
0.0
  0
ARC
  5
79
  8
1
 10
1858.981559
 20
717.002971
 30
0.0
 40
16.0161
 50
241.0607
 51
298.94
  0
LINE
  5
7A
  8
1
 10
1851.231759
 20
715.986871
 30
0.0
 11
1851.231759
 21
687.986671
 31
0.0
  0
ARC
  5
7B
  8
1
 10
1858.981559
 20
699.970671
 30
0.0
 40
16.0161
 50
61.0603
 51
118.9396
  0
LINE
  5
7C
  8
1
 10
1849.731759
 20
715.986871
 30
0.0
 11
1883.731559
 21
715.986571
 31
0.0
  0
LINE
  5
7D
  8
1
 10
1849.731759
 20
719.986571
 30
0.0
 11
1849.731759
 21
715.987071
 31
0.0
  0
LINE
  5
7E
  8
1
 10
1883.731559
 20
719.986571
 30
0.0
 11
1883.731559
 21
715.986571
 31
0.0
  0
LINE
  5
7F
  8
1
 10
1882.231559
 20
715.986571
 30
0.0
 11
1882.231259
 21
687.986671
 31
0.0
  0
ARC
  5
80
  8
1
 10
1874.481559
 20
699.970671
 30
0.0
 40
16.0161
 50
61.0605
 51
118.9398
  0
ARC
  5
81
  8
1
 10
1874.481559
 20
684.970671
 30
0.0
 40
16.0161
 50
61.0605
 51
118.9398
  0
ARC
  5
82
  8
1
 10
1874.481559
 20
717.002971
 30
0.0
 40
16.0161
 50
241.0605
 51
298.9398
  0
ARC
  5
83
  8
1
 10
1874.481559
 20
702.002971
 30
0.0
 40
16.0161
 50
241.0605
 51
298.9398
  0
INSERT
  5
84
  8
1
  2
*U7
 10
0.0
 20
0.0
 30
0.0
  0
LINE
  5
85
  8
1
 10
1873.731759
 20
680.987071
 30
0.0
 11
1859.731559
 21
680.986871
 31
0.0
  0
LINE
  5
86
  8
1
 10
1873.731559
 20
685.986871
 30
0.0
 11
1873.731759
 21
680.987071
 31
0.0
  0
ENDBLK
  5
87
  8
0
  0
BLOCK
  5
89
  8
1
  2
*U9
 70
    65
 10
0.0
 20
0.0
 30
0.0
  3
*U9
  1

  0
LINE
  5
8A
  8
1
 10
664.533845
 20
727.28632
 30
0.0
 11
664.533849
 21
723.28602
 31
0.0
  0
LINE
  5
8B
  8
1
 10
664.533845
 20
727.28602
 30
0.0
 11
630.534045
 21
727.285988
 31
0.0
  0
ARC
  5
8C
  8
1
 10
655.28403
 20
743.301911
 30
0.0
 40
16.0161
 50
241.060053
 51
298.939353
  0
LINE
  5
8D
  8
1
 10
663.033845
 20
727.285818
 30
0.0
 11
663.033833
 21
740.285818
 31
0.0
  0
ARC
  5
8E
  8
1
 10
655.284046
 20
726.269711
 30
0.0
 40
16.0161
 50
61.060453
 51
118.939753
  0
LINE
  5
8F
  8
1
  6
DASHDOT
 10
647.533681
 20
1118.563604
 30
0.0
 11
647.534092
 21
675.210304
 31
0.0
  0
LINE
  5
90
  8
1
  6
DIVIDE
 10
654.532995
 20
1103.56311
 30
0.0
 11
654.534031
 21
742.28581
 31
0.0
  0
LINE
  5
91
  8
1
  6
DIVIDE
 10
640.533995
 20
1103.563097
 30
0.0
 11
640.534031
 21
742.285797
 31
0.0
  0
ARC
  5
92
  8
1
 10
639.784046
 20
726.269697
 30
0.0
 40
16.0161
 50
61.060253
 51
118.939553
  0
LINE
  5
93
  8
1
 10
632.034045
 20
727.285989
 30
0.0
 11
632.034033
 21
740.285989
 31
0.0
  0
ARC
  5
94
  8
1
 10
639.78403
 20
743.301897
 30
0.0
 40
16.0161
 50
241.060253
 51
298.939553
  0
LINE
  5
95
  8
1
 10
630.534045
 20
727.285788
 30
0.0
 11
630.534049
 21
723.285988
 31
0.0
  0
LINE
  5
96
  8
1
 10
655.284331
 20
742.285811
 30
0.0
 11
639.784331
 21
742.285797
 31
0.0
  0
ENDBLK
  5
97
  8
0
  0
BLOCK
  5
99
  8
1
  2
*U10
 70
    65
 10
0.0
 20
0.0
 30
0.0
  3
*U10
  1

  0
ARC
  5
9A
  8
1
 10
655.284067
 20
702.002411
 30
0.0
 40
16.0161
 50
241.060053
 51
298.939353
  0
ARC
  5
9B
  8
1
 10
655.284083
 20
684.970111
 30
0.0
 40
16.0161
 50
61.060453
 51
118.939753
  0
LINE
  5
9C
  8
1
 10
655.284382
 20
685.986311
 30
0.0
 11
639.784382
 21
685.986297
 31
0.0
  0
LINE
  5
9D
  8
1
 10
654.534082
 20
685.98631
 30
0.0
 11
654.534087
 21
680.98631
 31
0.0
  0
ARC
  5
9E
  8
1
 10
655.284054
 20
717.002411
 30
0.0
 40
16.0161
 50
241.060053
 51
298.939353
  0
LINE
  5
9F
  8
1
 10
663.033854
 20
715.986318
 30
0.0
 11
663.033881
 21
687.986118
 31
0.0
  0
ARC
  5
A0
  8
1
 10
655.284069
 20
699.970111
 30
0.0
 40
16.0161
 50
61.060453
 51
118.939753
  0
LINE
  5
A1
  8
1
 10
664.533854
 20
715.98632
 30
0.0
 11
630.534054
 21
715.985988
 31
0.0
  0
LINE
  5
A2
  8
1
 10
664.533851
 20
719.98602
 30
0.0
 11
664.533854
 21
715.98652
 31
0.0
  0
LINE
  5
A3
  8
1
 10
630.534051
 20
719.985988
 30
0.0
 11
630.534054
 21
715.985988
 31
0.0
  0
LINE
  5
A4
  8
1
 10
632.034054
 20
715.985989
 30
0.0
 11
632.034381
 21
687.986089
 31
0.0
  0
ARC
  5
A5
  8
1
 10
639.784069
 20
699.970097
 30
0.0
 40
16.0161
 50
61.060253
 51
118.939553
  0
ARC
  5
A6
  8
1
 10
639.784083
 20
684.970097
 30
0.0
 40
16.0161
 50
61.060253
 51
118.939553
  0
ARC
  5
A7
  8
1
 10
639.784054
 20
717.002397
 30
0.0
 40
16.0161
 50
241.060253
 51
298.939553
  0
ARC
  5
A8
  8
1
 10
639.784067
 20
702.002397
 30
0.0
 40
16.0161
 50
241.060253
 51
298.939553
  0
INSERT
  5
A9
  8
1
  2
*U9
 10
0.0
 20
0.0
 30
0.0
  0
LINE
  5
AA
  8
1
 10
640.533887
 20
680.986497
 30
0.0
 11
654.534087
 21
680.98631
 31
0.0
  0
LINE
  5
AB
  8
1
 10
640.534082
 20
685.986297
 30
0.0
 11
640.533887
 21
680.986497
 31
0.0
  0
ENDBLK
  5
AC
  8
0
  0
BLOCK
  5
AE
  8
1
  2
*U11
 70
    65
 10
0.0
 20
0.0
 30
0.0
  3
*U11
  1

  0
LINE
  5
AF
  8
1
  6
DASHDOT
 10
3803.85376
 20
2047.199494
 30
0.0
 11
3722.821243
 21
2047.199494
 31
0.0
  0
LINE
  5
B0
  8
1
  6
DASHDOT
 10
3793.055093
 20
2047.199494
 30
0.0
 11
3727.170142
 21
2047.199494
 31
0.0
  0
LINE
  5
B1
  8
1
 10
3741.055093
 20
2030.299494
 30
0.0
 11
3738.655093
 21
2030.299494
 31
0.0
  0
LINE
  5
B2
  8
1
 10
3741.055093
 20
2064.099494
 30
0.0
 11
3738.655093
 21
2064.099494
 31
0.0
  0
LINE
  5
B3
  8
1
 10
3791.055093
 20
2063.199494
 30
0.0
 11
3741.055093
 21
2063.699494
 31
0.0
  0
LINE
  5
B4
  8
1
 10
3791.055093
 20
2063.199494
 30
0.0
 11
3791.055093
 21
2031.199494
 31
0.0
  0
LINE
  5
B5
  8
1
 10
3791.055093
 20
2031.199494
 30
0.0
 11
3741.055093
 21
2030.699494
 31
0.0
  0
ENDBLK
  5
B6
  8
0
  0
BLOCK
  5
B8
  8
1
  2
*U12
 70
    65
 10
0.0
 20
0.0
 30
0.0
  3
*U12
  1

  0
LINE
  5
B9
  8
1
 10
3738.655093
 20
2237.174965
 30
0.0
 11
3738.655093
 21
2182.174965
 31
0.0
  0
LINE
  5
BA
  8
1
 10
3741.955093
 20
2237.174965
 30
0.0
 11
3741.955093
 21
2185.474965
 31
0.0
  0
LINE
  5
BB
  8
1
 10
3783.655093
 20
2194.174965
 30
0.0
 11
3783.655093
 21
2185.474965
 31
0.0
  0
LINE
  5
BC
  8
1
 10
3786.955093
 20
2194.174965
 30
0.0
 11
3786.955093
 21
2182.174965
 31
0.0
  0
LINE
  5
BD
  8
1
  6
DASHDOT
 10
3763.655093
 20
2198.666482
 30
0.0
 11
3763.655093
 21
2170.502596
 31
0.0
  0
LINE
  5
BE
  8
1
 10
3738.655093
 20
2182.174965
 30
0.0
 11
3786.955093
 21
2182.174965
 31
0.0
  0
LINE
  5
BF
  8
1
 10
3741.955093
 20
2185.474965
 30
0.0
 11
3783.655093
 21
2185.474965
 31
0.0
  0
LINE
  5
C0
  8
1
 10
3783.655093
 20
2194.174965
 30
0.0
 11
3786.955093
 21
2194.174965
 31
0.0
  0
LINE
  5
C1
  8
1
 10
3738.655093
 20
2237.174965
 30
0.0
 11
3741.955093
 21
2237.174965
 31
0.0
  0
ENDBLK
  5
C2
  8
0
  0
BLOCK
  5
C4
  8
1
  2
*U13
 70
    65
 10
0.0
 20
0.0
 30
0.0
  3
*U13
  1

  0
LINE
  5
C5
  8
1
 10
2569.455093
 20
2237.174965
 30
0.0
 11
2569.455093
 21
2182.174965
 31
0.0
  0
LINE
  5
C6
  8
1
 10
2566.155093
 20
2237.174965
 30
0.0
 11
2566.155093
 21
2185.474965
 31
0.0
  0
LINE
  5
C7
  8
1
 10
2524.455093
 20
2194.174965
 30
0.0
 11
2524.455093
 21
2185.474965
 31
0.0
  0
LINE
  5
C8
  8
1
 10
2521.155093
 20
2194.174965
 30
0.0
 11
2521.155093
 21
2182.174965
 31
0.0
  0
LINE
  5
C9
  8
1
  6
DASHDOT
 10
2544.455093
 20
2198.666482
 30
0.0
 11
2544.455093
 21
2170.502596
 31
0.0
  0
LINE
  5
CA
  8
1
 10
2569.455093
 20
2182.174965
 30
0.0
 11
2521.155093
 21
2182.174965
 31
0.0
  0
LINE
  5
CB
  8
1
 10
2566.155093
 20
2185.474965
 30
0.0
 11
2524.455093
 21
2185.474965
 31
0.0
  0
LINE
  5
CC
  8
1
 10
2524.455093
 20
2194.174965
 30
0.0
 11
2521.155093
 21
2194.174965
 31
0.0
  0
LINE
  5
CD
  8
1
 10
2569.455093
 20
2237.174965
 30
0.0
 11
2566.155093
 21
2237.174965
 31
0.0
  0
ENDBLK
  5
CE
  8
0
  0
BLOCK
  5
D0
  8
1
  2
*U14
 70
    65
 10
0.0
 20
0.0
 30
0.0
  3
*U14
  1

  0
LINE
  5
D1
  8
1
 10
3268.089374
 20
723.286571
 30
0.0
 11
3192.089374
 21
723.286571
 31
0.0
  0
LINE
  5
D2
  8
1
 10
3268.089374
 20
719.986571
 30
0.0
 11
3253.089374
 21
719.986571
 31
0.0
  0
LINE
  5
D3
  8
1
 10
3192.089374
 20
719.986571
 30
0.0
 11
3192.089374
 21
723.286571
 31
0.0
  0
LINE
  5
D4
  8
1
 10
3268.089374
 20
719.986571
 30
0.0
 11
3268.089374
 21
723.286571
 31
0.0
  0
LINE
  5
D5
  8
1
 10
3253.089374
 20
714.286571
 30
0.0
 11
3253.089374
 21
723.286571
 31
0.0
  0
LINE
  5
D6
  8
1
 10
3236.089374
 20
714.286571
 30
0.0
 11
3236.089374
 21
723.286571
 31
0.0
  0
LINE
  5
D7
  8
1
 10
3224.089374
 20
714.286571
 30
0.0
 11
3224.089374
 21
723.286571
 31
0.0
  0
LINE
  5
D8
  8
1
 10
3207.089374
 20
679.020415
 30
0.0
 11
3207.089374
 21
723.286571
 31
0.0
  0
LINE
  5
D9
  8
1
 10
3250.089374
 20
711.286571
 30
0.0
 11
3239.089374
 21
711.286571
 31
0.0
  0
ARC
  5
DA
  8
1
 10
3210.089374
 20
714.286571
 30
0.0
 40
3.0
 50
180.0
 51
270.0
  0
ARC
  5
DB
  8
1
 10
3221.089374
 20
714.286571
 30
0.0
 40
3.0
 50
270.0
 51
0.0
  0
ARC
  5
DC
  8
1
 10
3239.089374
 20
714.286571
 30
0.0
 40
3.0
 50
180.0
 51
270.0
  0
ARC
  5
DD
  8
1
 10
3250.089374
 20
714.286571
 30
0.0
 40
3.0
 50
270.0
 51
0.0
  0
LINE
  5
DE
  8
1
 10
3246.369221
 20
668.286571
 30
0.0
 11
3213.809527
 21
668.286571
 31
0.0
  0
CIRCLE
  5
DF
  8
1
 10
3230.089374
 20
708.286571
 30
0.0
 40
3.5
  0
CIRCLE
  5
E0
  8
1
 10
3230.089374
 20
678.286571
 30
0.0
 40
3.5
  0
LINE
  5
E1
  8
1
 10
3209.020396
 20
671.849832
 30
0.0
 11
3207.300243
 21
677.583676
 31
0.0
  0
LINE
  5
E2
  8
1
 10
3251.158352
 20
671.849832
 30
0.0
 11
3252.878506
 21
677.583676
 31
0.0
  0
ARC
  5
E3
  8
1
 10
3213.809527
 20
673.286571
 30
0.0
 40
5.0
 50
196.699244
 51
270.0
  0
ARC
  5
E4
  8
1
 10
3212.089374
 20
679.020415
 30
0.0
 40
5.0
 50
180.0
 51
196.699244
  0
ARC
  5
E5
  8
1
 10
3246.369221
 20
673.286571
 30
0.0
 40
5.0
 50
270.0
 51
343.300756
  0
ARC
  5
E6
  8
1
 10
3248.089374
 20
679.020415
 30
0.0
 40
5.0
 50
343.300756
 51
0.0
  0
LINE
  5
E7
  8
1
 10
3221.089374
 20
711.286571
 30
0.0
 11
3210.089374
 21
711.286571
 31
0.0
  0
LINE
  5
E8
  8
1
 10
3253.089374
 20
714.286571
 30
0.0
 11
3253.089374
 21
679.020415
 31
0.0
  0
LINE
  5
E9
  8
1
 10
3207.089374
 20
719.986571
 30
0.0
 11
3192.089374
 21
719.986571
 31
0.0
  0
LINE
  5
EA
  8
1
 10
3236.089374
 20
719.986571
 30
0.0
 11
3224.089374
 21
719.986571
 31
0.0
  0
ENDBLK
  5
EB
  8
0
  0
BLOCK
  5
ED
  8
1
  2
*U15
 70
    65
 10
0.0
 20
0.0
 30
0.0
  3
*U15
  1

  0
LINE
  5
EE
  8
1
  6
DASHDOT
 10
607.533308
 20
1898.099778
 30
0.0
 11
692.12174
 21
1898.099778
 31
0.0
  0
LINE
  5
EF
  8
1
 10
644.603827
 20
1860.099778
 30
0.0
 11
657.532759
 21
1860.099778
 31
0.0
  0
LINE
  5
F0
  8
1
 10
644.603827
 20
1936.099778
 30
0.0
 11
657.532759
 21
1936.099778
 31
0.0
  0
LINE
  5
F1
  8
1
  6
DASHED
 10
670.232759
 20
1921.099778
 30
0.0
 11
670.232759
 21
1875.099778
 31
0.0
  0
LINE
  5
F2
  8
1
  6
DASHED
 10
627.532759
 20
1921.099778
 30
0.0
 11
627.532759
 21
1904.099778
 31
0.0
  0
LINE
  5
F3
  8
1
 10
625.232759
 20
1921.099778
 30
0.0
 11
625.232759
 21
1904.099778
 31
0.0
  0
LINE
  5
F4
  8
1
 10
625.232759
 20
1892.099778
 30
0.0
 11
638.532759
 21
1892.099778
 31
0.0
  0
LINE
  5
F5
  8
1
 10
625.232759
 20
1904.099778
 30
0.0
 11
638.532759
 21
1904.099778
 31
0.0
  0
LINE
  5
F6
  8
1
 10
625.232759
 20
1921.099778
 30
0.0
 11
627.532759
 21
1921.099778
 31
0.0
  0
LINE
  5
F7
  8
1
 10
625.232759
 20
1875.099778
 30
0.0
 11
627.532759
 21
1875.099778
 31
0.0
  0
LINE
  5
F8
  8
1
  6
DASHDOT
 10
647.532759
 20
1938.099778
 30
0.0
 11
647.532759
 21
1857.624621
 31
0.0
  0
LINE
  5
F9
  8
1
 10
653.532759
 20
1915.099778
 30
0.0
 11
653.532759
 21
1881.099778
 31
0.0
  0
LINE
  5
FA
  8
1
 10
641.532759
 20
1915.099778
 30
0.0
 11
641.532759
 21
1907.099778
 31
0.0
  0
LINE
  5
FB
  8
1
 10
627.532759
 20
1921.099778
 30
0.0
 11
641.068293
 21
1934.635312
 31
0.0
  0
LINE
  5
FC
  8
1
 10
627.532759
 20
1875.099778
 30
0.0
 11
641.068293
 21
1861.564244
 31
0.0
  0
LINE
  5
FD
  8
1
 10
662.532759
 20
1931.099778
 30
0.0
 11
662.532759
 21
1926.099778
 31
0.0
  0
ARC
  5
FE
  8
1
 10
667.532759
 20
1926.099778
 30
0.0
 40
5.0
 50
180.0
 51
270.0
  0
ARC
  5
FF
  8
1
 10
657.532759
 20
1931.099778
 30
0.0
 40
5.0
 50
0.0
 51
90.0
  0
ARC
  5
100
  8
1
 10
667.532759
 20
1870.099778
 30
0.0
 40
5.0
 50
90.0
 51
180.0
  0
ARC
  5
101
  8
1
 10
657.532759
 20
1865.099778
 30
0.0
 40
5.0
 50
270.0
 51
0.0
  0
ARC
  5
102
  8
1
 10
644.603827
 20
1865.099778
 30
0.0
 40
5.0
 50
225.0
 51
270.0
  0
ARC
  5
103
  8
1
 10
644.603827
 20
1931.099778
 30
0.0
 40
5.0
 50
90.0
 51
135.0
  0
ARC
  5
104
  8
1
 10
638.532759
 20
1907.099778
 30
0.0
 40
3.0
 50
270.0
 51
0.0
  0
ARC
  5
105
  8
1
 10
638.532759
 20
1889.099778
 30
0.0
 40
3.0
 50
0.0
 51
90.0
  0
ARC
  5
106
  8
1
 10
647.532759
 20
1881.099778
 30
0.0
 40
6.0
 50
180.0
 51
270.0
  0
ARC
  5
107
  8
1
 10
647.532759
 20
1881.099778
 30
0.0
 40
6.0
 50
270.0
 51
0.0
  0
ARC
  5
108
  8
1
 10
647.532759
 20
1915.099778
 30
0.0
 40
6.0
 50
0.0
 51
90.0
  0
ARC
  5
109
  8
1
 10
647.532759
 20
1915.099778
 30
0.0
 40
6.0
 50
90.0
 51
180.0
  0
LINE
  5
10A
  8
1
 10
625.232759
 20
1892.099778
 30
0.0
 11
625.232759
 21
1875.099778
 31
0.0
  0
LINE
  5
10B
  8
1
  6
DASHED
 10
627.532759
 20
1892.099778
 30
0.0
 11
627.532759
 21
1875.099778
 31
0.0
  0
LINE
  5
10C
  8
1
 10
667.532759
 20
1921.099778
 30
0.0
 11
672.532759
 21
1921.099778
 31
0.0
  0
LINE
  5
10D
  8
1
 10
667.532759
 20
1875.099778
 30
0.0
 11
672.532759
 21
1875.099778
 31
0.0
  0
LINE
  5
10E
  8
1
 10
662.532759
 20
1870.099778
 30
0.0
 11
662.532759
 21
1865.099778
 31
0.0
  0
LINE
  5
10F
  8
1
 10
641.532759
 20
1889.099778
 30
0.0
 11
641.532759
 21
1881.099778
 31
0.0
  0
ENDBLK
  5
110
  8
0
  0
BLOCK
  5
112
  8
1
  2
*U16
 70
    65
 10
0.0
 20
0.0
 30
0.0
  3
*U16
  1

  0
INSERT
  5
113
  8
1
  2
*U15
 10
0.0
 20
0.0
 30
0.0
  0
LINE
  5
114
  8
1
 10
672.532759
 20
1875.099778
 30
0.0
 11
672.532759
 21
1921.099778
 31
0.0
  0
ENDBLK
  5
115
  8
0
  0
BLOCK
  5
117
  8
1
  2
*U17
 70
    65
 10
0.0
 20
0.0
 30
0.0
  3
*U17
  1

  0
LINE
  5
118
  8
1
  6
DASHDOT
 10
1906.931426
 20
1898.099778
 30
0.0
 11
1824.242579
 21
1898.099778
 31
0.0
  0
LINE
  5
119
  8
1
 10
1869.661691
 20
1860.099778
 30
0.0
 11
1856.732759
 21
1860.099778
 31
0.0
  0
LINE
  5
11A
  8
1
 10
1869.661691
 20
1936.099778
 30
0.0
 11
1856.732759
 21
1936.099778
 31
0.0
  0
LINE
  5
11B
  8
1
  6
DASHED
 10
1844.032759
 20
1921.099778
 30
0.0
 11
1844.032759
 21
1875.099778
 31
0.0
  0
LINE
  5
11C
  8
1
  6
DASHED
 10
1886.732759
 20
1921.099778
 30
0.0
 11
1886.732759
 21
1904.099778
 31
0.0
  0
LINE
  5
11D
  8
1
 10
1889.032759
 20
1921.099778
 30
0.0
 11
1889.032759
 21
1904.099778
 31
0.0
  0
LINE
  5
11E
  8
1
 10
1889.032759
 20
1892.099778
 30
0.0
 11
1875.732759
 21
1892.099778
 31
0.0
  0
LINE
  5
11F
  8
1
 10
1889.032759
 20
1904.099778
 30
0.0
 11
1875.732759
 21
1904.099778
 31
0.0
  0
LINE
  5
120
  8
1
 10
1889.032759
 20
1921.099778
 30
0.0
 11
1886.732759
 21
1921.099778
 31
0.0
  0
LINE
  5
121
  8
1
 10
1889.032759
 20
1875.099778
 30
0.0
 11
1886.732759
 21
1875.099778
 31
0.0
  0
LINE
  5
122
  8
1
  6
DASHDOT
 10
1866.732759
 20
1938.099778
 30
0.0
 11
1866.732759
 21
1857.624621
 31
0.0
  0
LINE
  5
123
  8
1
 10
1860.732759
 20
1915.099778
 30
0.0
 11
1860.732759
 21
1881.099778
 31
0.0
  0
LINE
  5
124
  8
1
 10
1872.732759
 20
1915.099778
 30
0.0
 11
1872.732759
 21
1907.099778
 31
0.0
  0
LINE
  5
125
  8
1
 10
1886.732759
 20
1921.099778
 30
0.0
 11
1873.197225
 21
1934.635312
 31
0.0
  0
LINE
  5
126
  8
1
 10
1886.732759
 20
1875.099778
 30
0.0
 11
1873.197225
 21
1861.564244
 31
0.0
  0
LINE
  5
127
  8
1
 10
1851.732759
 20
1931.099778
 30
0.0
 11
1851.732759
 21
1926.099778
 31
0.0
  0
ARC
  5
128
  8
1
 10
1846.732759
 20
1926.099778
 30
0.0
 40
5.0
 50
270.0
 51
0.0
  0
ARC
  5
129
  8
1
 10
1856.732759
 20
1931.099778
 30
0.0
 40
5.0
 50
90.0
 51
180.0
  0
ARC
  5
12A
  8
1
 10
1846.732759
 20
1870.099778
 30
0.0
 40
5.0
 50
0.0
 51
90.0
  0
ARC
  5
12B
  8
1
 10
1856.732759
 20
1865.099778
 30
0.0
 40
5.0
 50
180.0
 51
270.0
  0
ARC
  5
12C
  8
1
 10
1869.661691
 20
1865.099778
 30
0.0
 40
5.0
 50
270.0
 51
315.0
  0
ARC
  5
12D
  8
1
 10
1869.661691
 20
1931.099778
 30
0.0
 40
5.0
 50
45.0
 51
90.0
  0
ARC
  5
12E
  8
1
 10
1875.732759
 20
1907.099778
 30
0.0
 40
3.0
 50
180.0
 51
270.0
  0
ARC
  5
12F
  8
1
 10
1875.732759
 20
1889.099778
 30
0.0
 40
3.0
 50
90.0
 51
180.0
  0
ARC
  5
130
  8
1
 10
1866.732759
 20
1881.099778
 30
0.0
 40
6.0
 50
270.0
 51
0.0
  0
ARC
  5
131
  8
1
 10
1866.732759
 20
1881.099778
 30
0.0
 40
6.0
 50
180.0
 51
270.0
  0
ARC
  5
132
  8
1
 10
1866.732759
 20
1915.099778
 30
0.0
 40
6.0
 50
90.0
 51
180.0
  0
ARC
  5
133
  8
1
 10
1866.732759
 20
1915.099778
 30
0.0
 40
6.0
 50
0.0
 51
90.0
  0
LINE
  5
134
  8
1
 10
1889.032759
 20
1892.099778
 30
0.0
 11
1889.032759
 21
1875.099778
 31
0.0
  0
LINE
  5
135
  8
1
  6
DASHED
 10
1886.732759
 20
1892.099778
 30
0.0
 11
1886.732759
 21
1875.099778
 31
0.0
  0
LINE
  5
136
  8
1
 10
1846.732759
 20
1921.099778
 30
0.0
 11
1841.732759
 21
1921.099778
 31
0.0
  0
LINE
  5
137
  8
1
 10
1846.732759
 20
1875.099778
 30
0.0
 11
1841.732759
 21
1875.099778
 31
0.0
  0
LINE
  5
138
  8
1
 10
1851.732759
 20
1870.099778
 30
0.0
 11
1851.732759
 21
1865.099778
 31
0.0
  0
LINE
  5
139
  8
1
 10
1872.732759
 20
1889.099778
 30
0.0
 11
1872.732759
 21
1881.099778
 31
0.0
  0
ENDBLK
  5
13A
  8
0
  0
BLOCK
  5
13C
  8
1
  2
*U18
 70
    65
 10
0.0
 20
0.0
 30
0.0
  3
*U18
  1

  0
LINE
  5
13D
  8
1
  6
DASHDOT
 10
1906.312215
 20
2212.299778
 30
0.0
 11
1821.354163
 21
2212.299778
 31
0.0
  0
LINE
  5
13E
  8
1
 10
1877.332759
 20
2198.449778
 30
0.0
 11
1871.332759
 21
2198.449778
 31
0.0
  0
LINE
  5
13F
  8
1
 10
1877.332759
 20
2226.149778
 30
0.0
 11
1871.332759
 21
2226.149778
 31
0.0
  0
LINE
  5
140
  8
1
 10
1902.332759
 20
2205.549778
 30
0.0
 11
1902.332759
 21
2219.049778
 31
0.0
  0
LINE
  5
141
  8
1
 10
1899.582759
 20
2202.799778
 30
0.0
 11
1899.582759
 21
2221.799778
 31
0.0
  0
LINE
  5
142
  8
1
 10
1882.832759
 20
2202.799778
 30
0.0
 11
1879.832759
 21
2202.799778
 31
0.0
  0
LINE
  5
143
  8
1
 10
1882.832759
 20
2221.799778
 30
0.0
 11
1879.832759
 21
2221.799778
 31
0.0
  0
LINE
  5
144
  8
1
 10
1895.332759
 20
2201.799778
 30
0.0
 11
1882.832759
 21
2201.799778
 31
0.0
  0
LINE
  5
145
  8
1
 10
1895.332759
 20
2222.799778
 30
0.0
 11
1882.832759
 21
2222.799778
 31
0.0
  0
LINE
  5
146
  8
1
 10
1902.332759
 20
2205.549778
 30
0.0
 11
1899.582759
 21
2202.799778
 31
0.0
  0
LINE
  5
147
  8
1
 10
1902.332759
 20
2219.049778
 30
0.0
 11
1899.582759
 21
2221.799778
 31
0.0
  0
LINE
  5
148
  8
1
 10
1895.332759
 20
2201.799778
 30
0.0
 11
1895.332759
 21
2222.799778
 31
0.0
  0
LINE
  5
149
  8
1
 10
1882.832759
 20
2201.799778
 30
0.0
 11
1882.832759
 21
2222.799778
 31
0.0
  0
LINE
  5
14A
  8
1
 10
1879.832759
 20
2200.949778
 30
0.0
 11
1879.832759
 21
2223.649778
 31
0.0
  0
LINE
  5
14B
  8
1
 10
1865.832759
 20
2201.199778
 30
0.0
 11
1865.832759
 21
2223.399778
 31
0.0
  0
LINE
  5
14C
  8
1
 10
1868.832759
 20
2200.949778
 30
0.0
 11
1868.832759
 21
2223.649778
 31
0.0
  0
LINE
  5
14D
  8
1
 10
1868.832759
 20
2201.199778
 30
0.0
 11
1865.832759
 21
2201.199778
 31
0.0
  0
LINE
  5
14E
  8
1
 10
1868.832759
 20
2223.399778
 30
0.0
 11
1865.832759
 21
2223.399778
 31
0.0
  0
LINE
  5
14F
  8
1
 10
1899.582759
 20
2202.799778
 30
0.0
 11
1895.332759
 21
2202.799778
 31
0.0
  0
LINE
  5
150
  8
1
 10
1899.582759
 20
2221.799778
 30
0.0
 11
1895.332759
 21
2221.799778
 31
0.0
  0
LINE
  5
151
  8
1
 10
1877.332759
 20
2205.371575
 30
0.0
 11
1871.332759
 21
2205.371575
 31
0.0
  0
LINE
  5
152
  8
1
 10
1877.332759
 20
2219.227981
 30
0.0
 11
1871.332759
 21
2219.227981
 31
0.0
  0
ARC
  5
153
  8
1
 10
1877.332759
 20
2202.871575
 30
0.0
 40
2.5
 50
0.0
 51
90.0
  0
ARC
  5
154
  8
1
 10
1877.332759
 20
2221.727981
 30
0.0
 40
2.5
 50
270.0
 51
0.0
  0
ARC
  5
155
  8
1
 10
1877.332759
 20
2216.727981
 30
0.0
 40
2.5
 50
0.0
 51
90.0
  0
ARC
  5
156
  8
1
 10
1877.332759
 20
2207.871575
 30
0.0
 40
2.5
 50
270.0
 51
0.0
  0
ARC
  5
157
  8
1
 10
1871.332759
 20
2202.871575
 30
0.0
 40
2.5
 50
90.0
 51
180.0
  0
ARC
  5
158
  8
1
 10
1871.332759
 20
2207.871575
 30
0.0
 40
2.5
 50
180.0
 51
270.0
  0
ARC
  5
159
  8
1
 10
1871.332759
 20
2216.727981
 30
0.0
 40
2.5
 50
90.0
 51
180.0
  0
ARC
  5
15A
  8
1
 10
1871.332759
 20
2221.727981
 30
0.0
 40
2.5
 50
180.0
 51
270.0
  0
LINE
  5
15B
  8
1
 10
1879.832759
 20
2200.949778
 30
0.0
 11
1877.332759
 21
2198.449778
 31
0.0
  0
LINE
  5
15C
  8
1
 10
1879.832759
 20
2223.649778
 30
0.0
 11
1877.332759
 21
2226.149778
 31
0.0
  0
LINE
  5
15D
  8
1
 10
1871.332759
 20
2226.149778
 30
0.0
 11
1868.832759
 21
2223.649778
 31
0.0
  0
LINE
  5
15E
  8
1
 10
1871.332759
 20
2198.449778
 30
0.0
 11
1868.832759
 21
2200.949778
 31
0.0
  0
ENDBLK
  5
15F
  8
0
  0
BLOCK
  5
161
  8
1
  2
*U19
 70
    65
 10
0.0
 20
0.0
 30
0.0
  3
*U19
  1

  0
LINE
  5
162
  8
1
  6
DASHDOT
 10
1907.055397
 20
2112.299778
 30
0.0
 11
1821.354163
 21
2112.299778
 31
0.0
  0
LINE
  5
163
  8
1
 10
1902.332759
 20
2108.299778
 30
0.0
 11
1902.332759
 21
2116.299778
 31
0.0
  0
LINE
  5
164
  8
1
 10
1876.332759
 20
2104.349778
 30
0.0
 11
1876.332759
 21
2120.249778
 31
0.0
  0
LINE
  5
165
  8
1
 10
1899.582759
 20
2119.049778
 30
0.0
 11
1886.332759
 21
2119.049778
 31
0.0
  0
LINE
  5
166
  8
1
 10
1899.582759
 20
2105.549778
 30
0.0
 11
1886.332759
 21
2105.549778
 31
0.0
  0
LINE
  5
167
  8
1
 10
1899.582759
 20
2105.549778
 30
0.0
 11
1899.582759
 21
2119.049778
 31
0.0
  0
LINE
  5
168
  8
1
 10
1902.332759
 20
2108.299778
 30
0.0
 11
1899.582759
 21
2105.549778
 31
0.0
  0
LINE
  5
169
  8
1
 10
1902.332759
 20
2116.299778
 30
0.0
 11
1899.582759
 21
2119.049778
 31
0.0
  0
LINE
  5
16A
  8
1
 10
1896.832759
 20
2104.549778
 30
0.0
 11
1896.832759
 21
2120.049778
 31
0.0
  0
LINE
  5
16B
  8
1
 10
1888.332759
 20
2104.549778
 30
0.0
 11
1888.332759
 21
2120.049778
 31
0.0
  0
LINE
  5
16C
  8
1
 10
1886.332759
 20
2104.499778
 30
0.0
 11
1886.332759
 21
2120.099778
 31
0.0
  0
LINE
  5
16D
  8
1
 10
1884.332759
 20
2122.099778
 30
0.0
 11
1880.332759
 21
2122.099778
 31
0.0
  0
LINE
  5
16E
  8
1
 10
1884.332759
 20
2102.499778
 30
0.0
 11
1880.332759
 21
2102.499778
 31
0.0
  0
LINE
  5
16F
  8
1
 10
1896.832759
 20
2104.549778
 30
0.0
 11
1888.332759
 21
2104.549778
 31
0.0
  0
LINE
  5
170
  8
1
 10
1896.832759
 20
2120.049778
 30
0.0
 11
1888.332759
 21
2120.049778
 31
0.0
  0
LINE
  5
171
  8
1
 10
1878.332759
 20
2104.499778
 30
0.0
 11
1878.332759
 21
2120.099778
 31
0.0
  0
LINE
  5
172
  8
1
 10
1878.332759
 20
2104.349778
 30
0.0
 11
1876.332759
 21
2104.349778
 31
0.0
  0
LINE
  5
173
  8
1
 10
1878.332759
 20
2120.249778
 30
0.0
 11
1876.332759
 21
2120.249778
 31
0.0
  0
LINE
  5
174
  8
1
 10
1886.332759
 20
2104.499778
 30
0.0
 11
1884.332759
 21
2102.499778
 31
0.0
  0
LINE
  5
175
  8
1
 10
1880.332759
 20
2102.499778
 30
0.0
 11
1878.332759
 21
2104.499778
 31
0.0
  0
LINE
  5
176
  8
1
 10
1886.332759
 20
2120.099778
 30
0.0
 11
1884.332759
 21
2122.099778
 31
0.0
  0
LINE
  5
177
  8
1
 10
1880.332759
 20
2122.099778
 30
0.0
 11
1878.332759
 21
2120.099778
 31
0.0
  0
LINE
  5
178
  8
1
 10
1884.332759
 20
2107.392301
 30
0.0
 11
1880.332759
 21
2107.392301
 31
0.0
  0
LINE
  5
179
  8
1
 10
1884.332759
 20
2117.207255
 30
0.0
 11
1880.332759
 21
2117.207255
 31
0.0
  0
ARC
  5
17A
  8
1
 10
1884.332759
 20
2119.207255
 30
0.0
 40
2.0
 50
270.0
 51
0.0
  0
ARC
  5
17B
  8
1
 10
1884.332759
 20
2115.207255
 30
0.0
 40
2.0
 50
0.0
 51
90.0
  0
ARC
  5
17C
  8
1
 10
1884.332759
 20
2109.392301
 30
0.0
 40
2.0
 50
270.0
 51
0.0
  0
ARC
  5
17D
  8
1
 10
1884.332759
 20
2105.392301
 30
0.0
 40
2.0
 50
0.0
 51
90.0
  0
ARC
  5
17E
  8
1
 10
1880.332759
 20
2105.392301
 30
0.0
 40
2.0
 50
90.0
 51
180.0
  0
ARC
  5
17F
  8
1
 10
1880.332759
 20
2119.207255
 30
0.0
 40
2.0
 50
180.0
 51
270.0
  0
ARC
  5
180
  8
1
 10
1880.332759
 20
2115.207255
 30
0.0
 40
2.0
 50
90.0
 51
180.0
  0
ARC
  5
181
  8
1
 10
1880.332759
 20
2109.392301
 30
0.0
 40
2.0
 50
180.0
 51
270.0
  0
ENDBLK
  5
182
  8
0
  0
BLOCK
  5
184
  8
1
  2
*U20
 70
    65
 10
0.0
 20
0.0
 30
0.0
  3
*U20
  1

  0
LINE
  5
185
  8
1
 10
-1162.708564
 20
723.286571
 30
0.0
 11
-1238.708564
 21
723.286571
 31
0.0
  0
LINE
  5
186
  8
1
 10
-1162.708564
 20
720.986571
 30
0.0
 11
-1177.708564
 21
720.986571
 31
0.0
  0
LINE
  5
187
  8
1
 10
-1238.708564
 20
720.986571
 30
0.0
 11
-1238.708564
 21
723.286571
 31
0.0
  0
LINE
  5
188
  8
1
 10
-1162.708564
 20
720.986571
 30
0.0
 11
-1162.708564
 21
723.286571
 31
0.0
  0
LINE
  5
189
  8
1
 10
-1177.708564
 20
714.286571
 30
0.0
 11
-1177.708564
 21
723.286571
 31
0.0
  0
LINE
  5
18A
  8
1
 10
-1194.708564
 20
714.286571
 30
0.0
 11
-1194.708564
 21
723.286571
 31
0.0
  0
LINE
  5
18B
  8
1
 10
-1206.708564
 20
714.286571
 30
0.0
 11
-1206.708564
 21
723.286571
 31
0.0
  0
LINE
  5
18C
  8
1
 10
-1223.708564
 20
679.020415
 30
0.0
 11
-1223.708564
 21
723.286571
 31
0.0
  0
LINE
  5
18D
  8
1
 10
-1180.708564
 20
711.286571
 30
0.0
 11
-1191.708564
 21
711.286571
 31
0.0
  0
ARC
  5
18E
  8
1
 10
-1220.708564
 20
714.286571
 30
0.0
 40
3.0
 50
180.0
 51
270.0
  0
ARC
  5
18F
  8
1
 10
-1209.708564
 20
714.286571
 30
0.0
 40
3.0
 50
270.0
 51
0.0
  0
ARC
  5
190
  8
1
 10
-1191.708564
 20
714.286571
 30
0.0
 40
3.0
 50
180.0
 51
270.0
  0
ARC
  5
191
  8
1
 10
-1180.708564
 20
714.286571
 30
0.0
 40
3.0
 50
270.0
 51
0.0
  0
LINE
  5
192
  8
1
 10
-1184.428717
 20
668.286571
 30
0.0
 11
-1216.988411
 21
668.286571
 31
0.0
  0
CIRCLE
  5
193
  8
1
 10
-1200.708564
 20
708.286571
 30
0.0
 40
3.5
  0
CIRCLE
  5
194
  8
1
 10
-1200.708564
 20
678.286571
 30
0.0
 40
3.5
  0
LINE
  5
195
  8
1
 10
-1221.777542
 20
671.849832
 30
0.0
 11
-1223.497696
 21
677.583676
 31
0.0
  0
LINE
  5
196
  8
1
 10
-1179.639586
 20
671.849832
 30
0.0
 11
-1177.919433
 21
677.583676
 31
0.0
  0
ARC
  5
197
  8
1
 10
-1216.988411
 20
673.286571
 30
0.0
 40
5.0
 50
196.699244
 51
270.0
  0
ARC
  5
198
  8
1
 10
-1218.708564
 20
679.020415
 30
0.0
 40
5.0
 50
180.0
 51
196.699244
  0
ARC
  5
199
  8
1
 10
-1184.428717
 20
673.286571
 30
0.0
 40
5.0
 50
270.0
 51
343.300756
  0
ARC
  5
19A
  8
1
 10
-1182.708564
 20
679.020415
 30
0.0
 40
5.0
 50
343.300756
 51
0.0
  0
LINE
  5
19B
  8
1
 10
-1209.708564
 20
711.286571
 30
0.0
 11
-1220.708564
 21
711.286571
 31
0.0
  0
LINE
  5
19C
  8
1
 10
-1177.708564
 20
714.286571
 30
0.0
 11
-1177.708564
 21
679.020415
 31
0.0
  0
LINE
  5
19D
  8
1
 10
-1223.708564
 20
720.986571
 30
0.0
 11
-1238.708564
 21
720.986571
 31
0.0
  0
LINE
  5
19E
  8
1
 10
-1194.708564
 20
720.986571
 30
0.0
 11
-1206.708564
 21
720.986571
 31
0.0
  0
ENDBLK
  5
19F
  8
0
  0
BLOCK
  5
1A1
  8
1
  2
*U21
 70
    65
 10
0.0
 20
0.0
 30
0.0
  3
*U21
  1

  0
LINE
  5
1A2
  8
1
  6
DASHDOT
 10
1257.13269
 20
-138.430128
 30
0.0
 11
1257.13269
 21
-918.430128
 31
0.0
  0
ENDBLK
  5
1A3
  8
0
  0
BLOCK
  5
1A5
  8
1
  2
*U22
 70
    65
 10
0.0
 20
0.0
 30
0.0
  3
*U22
  1

  0
LINE
  5
1A6
  8
1
 10
1895.43269
 20
-283.130128
 30
0.0
 11
1895.43269
 21
-247.230128
 31
0.0
  0
ARC
  5
1A7
  8
1
 10
1893.33269
 20
-283.130128
 30
0.0
 40
2.1
 50
270.0
 51
0.0
  0
LINE
  5
1A8
  8
1
 10
1893.33269
 20
-285.230128
 30
0.0
 11
1786.93269
 21
-285.230128
 31
0.0
  0
ARC
  5
1A9
  8
1
 10
1786.93269
 20
-283.130128
 30
0.0
 40
2.1
 50
180.0
 51
270.0
  0
LINE
  5
1AA
  8
1
 10
1784.83269
 20
-283.130128
 30
0.0
 11
1784.83269
 21
-247.230128
 31
0.0
  0
ARC
  5
1AB
  8
1
 10
1786.93269
 20
-247.230128
 30
0.0
 40
2.1
 50
90.0
 51
180.0
  0
LINE
  5
1AC
  8
1
 10
1893.33269
 20
-245.130128
 30
0.0
 11
1786.93269
 21
-245.130128
 31
0.0
  0
ARC
  5
1AD
  8
1
 10
1893.33269
 20
-247.230128
 30
0.0
 40
2.1
 50
0.0
 51
90.0
  0
LINE
  5
1AE
  8
1
 10
1891.63269
 20
-284.230128
 30
0.0
 11
1786.93269
 21
-284.230128
 31
0.0
  0
LINE
  5
1AF
  8
1
 10
1894.43269
 20
-281.430128
 30
0.0
 11
1894.43269
 21
-247.230128
 31
0.0
  0
ARC
  5
1B0
  8
1
 10
1893.33269
 20
-247.230128
 30
0.0
 40
1.1
 50
0.0
 51
90.0
  0
LINE
  5
1B1
  8
1
 10
1893.33269
 20
-246.130128
 30
0.0
 11
1786.93269
 21
-246.130128
 31
0.0
  0
ARC
  5
1B2
  8
1
 10
1786.93269
 20
-247.230128
 30
0.0
 40
1.1
 50
90.0
 51
180.0
  0
LINE
  5
1B3
  8
1
 10
1785.83269
 20
-283.130128
 30
0.0
 11
1785.83269
 21
-247.230128
 31
0.0
  0
ARC
  5
1B4
  8
1
 10
1786.93269
 20
-283.130128
 30
0.0
 40
1.1
 50
180.0
 51
270.0
  0
LINE
  5
1B5
  8
1
 10
1891.63269
 20
-284.230128
 30
0.0
 11
1894.43269
 21
-281.430128
 31
0.0
  0
ENDBLK
  5
1B6
  8
0
  0
BLOCK
  5
1B8
  8
1
  2
*U23
 70
    65
 10
0.0
 20
0.0
 30
0.0
  3
*U23
  1

  0
LINE
  5
1B9
  8
1
 10
1884.561623
 20
-284.230128
 30
0.0
 11
1894.43269
 21
-274.35906
 31
0.0
  0
LINE
  5
1BA
  8
1
 10
1870.419487
 20
-284.230128
 30
0.0
 11
1894.43269
 21
-260.216924
 31
0.0
  0
LINE
  5
1BB
  8
1
 10
1855.216692
 20
-284.230128
 30
0.0
 11
1893.31669
 21
-246.130128
 31
0.0
  0
LINE
  5
1BC
  8
1
 10
1841.074557
 20
-284.230128
 30
0.0
 11
1879.174555
 21
-246.130128
 31
0.0
  0
LINE
  5
1BD
  8
1
 10
1826.932421
 20
-284.230128
 30
0.0
 11
1865.03242
 21
-246.130128
 31
0.0
  0
LINE
  5
1BE
  8
1
 10
1812.790286
 20
-284.230128
 30
0.0
 11
1850.890284
 21
-246.130128
 31
0.0
  0
LINE
  5
1BF
  8
1
 10
1798.648151
 20
-284.230128
 30
0.0
 11
1836.748149
 21
-246.130128
 31
0.0
  0
LINE
  5
1C0
  8
1
 10
1785.83269
 20
-282.903453
 30
0.0
 11
1822.606014
 21
-246.130128
 31
0.0
  0
LINE
  5
1C1
  8
1
 10
1785.83269
 20
-268.761317
 30
0.0
 11
1808.463878
 21
-246.130128
 31
0.0
  0
LINE
  5
1C2
  8
1
 10
1785.83269
 20
-254.619181
 30
0.0
 11
1794.321743
 21
-246.130128
 31
0.0
  0
ENDBLK
  5
1C3
  8
0
  0
BLOCK
  5
1C5
  8
1
  2
*U24
 70
    65
 10
0.0
 20
0.0
 30
0.0
  3
*U24
  1

  0
CIRCLE
  5
1C6
  8
1
 10
629.770467
 20
-284.31035
 30
0.0
 40
0.888911
  0
CIRCLE
  5
1C7
  8
1
 10
629.770467
 20
-254.768263
 30
0.0
 40
0.888911
  0
CIRCLE
  5
1C8
  8
1
 10
642.562565
 20
-276.924828
 30
0.0
 40
0.888911
  0
CIRCLE
  5
1C9
  8
1
 10
642.562565
 20
-262.153785
 30
0.0
 40
0.888911
  0
CIRCLE
  5
1CA
  8
1
 10
642.562565
 20
-247.382742
 30
0.0
 40
0.888911
  0
CIRCLE
  5
1CB
  8
1
 10
629.770467
 20
-269.539307
 30
0.0
 40
0.888911
  0
ENDBLK
  5
1CC
  8
0
  0
BLOCK
  5
1CE
  8
1
  2
*U25
 70
    65
 10
0.0
 20
0.0
 30
0.0
  3
*U25
  1

  0
CIRCLE
  5
1CF
  8
1
 10
655.354664
 20
-284.31035
 30
0.0
 40
0.888911
  0
CIRCLE
  5
1D0
  8
1
 10
655.354664
 20
-254.768263
 30
0.0
 40
0.888911
  0
CIRCLE
  5
1D1
  8
1
 10
668.146763
 20
-276.924828
 30
0.0
 40
0.888911
  0
CIRCLE
  5
1D2
  8
1
 10
668.146763
 20
-262.153785
 30
0.0
 40
0.888911
  0
CIRCLE
  5
1D3
  8
1
 10
668.146763
 20
-247.382742
 30
0.0
 40
0.888911
  0
CIRCLE
  5
1D4
  8
1
 10
655.354664
 20
-269.539307
 30
0.0
 40
0.888911
  0
ENDBLK
  5
1D5
  8
0
  0
BLOCK
  5
1D7
  8
1
  2
*U26
 70
    65
 10
0.0
 20
0.0
 30
0.0
  3
*U26
  1

  0
CIRCLE
  5
1D8
  8
1
 10
680.938862
 20
-284.31035
 30
0.0
 40
0.888911
  0
CIRCLE
  5
1D9
  8
1
 10
680.938862
 20
-254.768263
 30
0.0
 40
0.888911
  0
CIRCLE
  5
1DA
  8
1
 10
693.73096
 20
-276.924828
 30
0.0
 40
0.888911
  0
CIRCLE
  5
1DB
  8
1
 10
693.73096
 20
-262.153785
 30
0.0
 40
0.888911
  0
CIRCLE
  5
1DC
  8
1
 10
693.73096
 20
-247.382742
 30
0.0
 40
0.888911
  0
CIRCLE
  5
1DD
  8
1
 10
680.938862
 20
-269.539307
 30
0.0
 40
0.888911
  0
ENDBLK
  5
1DE
  8
0
  0
BLOCK
  5
1E0
  8
1
  2
*U27
 70
    65
 10
0.0
 20
0.0
 30
0.0
  3
*U27
  1

  0
CIRCLE
  5
1E1
  8
1
 10
706.523059
 20
-284.31035
 30
0.0
 40
0.888911
  0
CIRCLE
  5
1E2
  8
1
 10
706.523059
 20
-254.768263
 30
0.0
 40
0.888911
  0
CIRCLE
  5
1E3
  8
1
 10
719.315158
 20
-276.924828
 30
0.0
 40
0.888911
  0
CIRCLE
  5
1E4
  8
1
 10
719.315158
 20
-262.153785
 30
0.0
 40
0.888911
  0
CIRCLE
  5
1E5
  8
1
 10
719.315158
 20
-247.382742
 30
0.0
 40
0.888911
  0
CIRCLE
  5
1E6
  8
1
 10
706.523059
 20
-269.539307
 30
0.0
 40
0.888911
  0
ENDBLK
  5
1E7
  8
0
  0
BLOCK
  5
1E9
  8
1
  2
*U28
 70
    65
 10
0.0
 20
0.0
 30
0.0
  3
*U28
  1

  0
CIRCLE
  5
1EA
  8
1
 10
732.107256
 20
-284.31035
 30
0.0
 40
0.888911
  0
CIRCLE
  5
1EB
  8
1
 10
732.107256
 20
-254.768263
 30
0.0
 40
0.888911
  0
CIRCLE
  5
1EC
  8
1
 10
744.899355
 20
-276.924828
 30
0.0
 40
0.888911
  0
CIRCLE
  5
1ED
  8
1
 10
744.899355
 20
-262.153785
 30
0.0
 40
0.888911
  0
CIRCLE
  5
1EE
  8
1
 10
744.899355
 20
-247.382742
 30
0.0
 40
0.888911
  0
CIRCLE
  5
1EF
  8
1
 10
732.107256
 20
-269.539307
 30
0.0
 40
0.888911
  0
ENDBLK
  5
1F0
  8
0
  0
BLOCK
  5
1F2
  8
1
  2
*U29
 70
    65
 10
0.0
 20
0.0
 30
0.0
  3
*U29
  1

  0
CIRCLE
  5
1F3
  8
1
 10
757.691454
 20
-284.31035
 30
0.0
 40
0.888911
  0
CIRCLE
  5
1F4
  8
1
 10
757.691454
 20
-254.768263
 30
0.0
 40
0.888911
  0
CIRCLE
  5
1F5
  8
1
 10
770.483552
 20
-276.924828
 30
0.0
 40
0.888911
  0
CIRCLE
  5
1F6
  8
1
 10
770.483552
 20
-262.153785
 30
0.0
 40
0.888911
  0
CIRCLE
  5
1F7
  8
1
 10
770.483552
 20
-247.382742
 30
0.0
 40
0.888911
  0
CIRCLE
  5
1F8
  8
1
 10
757.691454
 20
-269.539307
 30
0.0
 40
0.888911
  0
ENDBLK
  5
1F9
  8
0
  0
BLOCK
  5
1FB
  8
1
  2
*U30
 70
    65
 10
0.0
 20
0.0
 30
0.0
  3
*U30
  1

  0
CIRCLE
  5
1FC
  8
1
 10
783.275651
 20
-284.31035
 30
0.0
 40
0.888911
  0
CIRCLE
  5
1FD
  8
1
 10
783.275651
 20
-254.768263
 30
0.0
 40
0.888911
  0
CIRCLE
  5
1FE
  8
1
 10
796.06775
 20
-276.924828
 30
0.0
 40
0.888911
  0
CIRCLE
  5
1FF
  8
1
 10
796.06775
 20
-262.153785
 30
0.0
 40
0.888911
  0
CIRCLE
  5
200
  8
1
 10
796.06775
 20
-247.382742
 30
0.0
 40
0.888911
  0
CIRCLE
  5
201
  8
1
 10
783.275651
 20
-269.539307
 30
0.0
 40
0.888911
  0
ENDBLK
  5
202
  8
0
  0
BLOCK
  5
204
  8
1
  2
*U31
 70
    65
 10
0.0
 20
0.0
 30
0.0
  3
*U31
  1

  0
CIRCLE
  5
205
  8
1
 10
808.859849
 20
-284.31035
 30
0.0
 40
0.888911
  0
CIRCLE
  5
206
  8
1
 10
808.859849
 20
-254.768263
 30
0.0
 40
0.888911
  0
CIRCLE
  5
207
  8
1
 10
821.651947
 20
-276.924828
 30
0.0
 40
0.888911
  0
CIRCLE
  5
208
  8
1
 10
821.651947
 20
-262.153785
 30
0.0
 40
0.888911
  0
CIRCLE
  5
209
  8
1
 10
821.651947
 20
-247.382742
 30
0.0
 40
0.888911
  0
CIRCLE
  5
20A
  8
1
 10
808.859849
 20
-269.539307
 30
0.0
 40
0.888911
  0
ENDBLK
  5
20B
  8
0
  0
BLOCK
  5
20D
  8
1
  2
*U32
 70
    65
 10
0.0
 20
0.0
 30
0.0
  3
*U32
  1

  0
CIRCLE
  5
20E
  8
1
 10
834.444046
 20
-284.31035
 30
0.0
 40
0.888911
  0
CIRCLE
  5
20F
  8
1
 10
834.444046
 20
-254.768263
 30
0.0
 40
0.888911
  0
CIRCLE
  5
210
  8
1
 10
847.236145
 20
-276.924828
 30
0.0
 40
0.888911
  0
CIRCLE
  5
211
  8
1
 10
847.236145
 20
-262.153785
 30
0.0
 40
0.888911
  0
CIRCLE
  5
212
  8
1
 10
847.236145
 20
-247.382742
 30
0.0
 40
0.888911
  0
CIRCLE
  5
213
  8
1
 10
834.444046
 20
-269.539307
 30
0.0
 40
0.888911
  0
ENDBLK
  5
214
  8
0
  0
BLOCK
  5
216
  8
1
  2
*U33
 70
    65
 10
0.0
 20
0.0
 30
0.0
  3
*U33
  1

  0
CIRCLE
  5
217
  8
1
 10
860.028243
 20
-284.31035
 30
0.0
 40
0.888911
  0
CIRCLE
  5
218
  8
1
 10
860.028243
 20
-254.768263
 30
0.0
 40
0.888911
  0
CIRCLE
  5
219
  8
1
 10
872.820342
 20
-276.924828
 30
0.0
 40
0.888911
  0
CIRCLE
  5
21A
  8
1
 10
872.820342
 20
-262.153785
 30
0.0
 40
0.888911
  0
CIRCLE
  5
21B
  8
1
 10
872.820342
 20
-247.382742
 30
0.0
 40
0.888911
  0
CIRCLE
  5
21C
  8
1
 10
860.028243
 20
-269.539307
 30
0.0
 40
0.888911
  0
ENDBLK
  5
21D
  8
0
  0
BLOCK
  5
21F
  8
1
  2
*U34
 70
    65
 10
0.0
 20
0.0
 30
0.0
  3
*U34
  1

  0
CIRCLE
  5
220
  8
1
 10
885.612441
 20
-284.31035
 30
0.0
 40
0.888911
  0
CIRCLE
  5
221
  8
1
 10
885.612441
 20
-254.768263
 30
0.0
 40
0.888911
  0
CIRCLE
  5
222
  8
1
 10
898.40454
 20
-276.924828
 30
0.0
 40
0.888911
  0
CIRCLE
  5
223
  8
1
 10
898.40454
 20
-262.153785
 30
0.0
 40
0.888911
  0
CIRCLE
  5
224
  8
1
 10
898.40454
 20
-247.382742
 30
0.0
 40
0.888911
  0
CIRCLE
  5
225
  8
1
 10
885.612441
 20
-269.539307
 30
0.0
 40
0.888911
  0
ENDBLK
  5
226
  8
0
  0
BLOCK
  5
228
  8
1
  2
*U35
 70
    65
 10
0.0
 20
0.0
 30
0.0
  3
*U35
  1

  0
CIRCLE
  5
229
  8
1
 10
911.196638
 20
-284.31035
 30
0.0
 40
0.888911
  0
CIRCLE
  5
22A
  8
1
 10
911.196638
 20
-254.768263
 30
0.0
 40
0.888911
  0
CIRCLE
  5
22B
  8
1
 10
923.988737
 20
-276.924828
 30
0.0
 40
0.888911
  0
CIRCLE
  5
22C
  8
1
 10
923.988737
 20
-262.153785
 30
0.0
 40
0.888911
  0
CIRCLE
  5
22D
  8
1
 10
923.988737
 20
-247.382742
 30
0.0
 40
0.888911
  0
CIRCLE
  5
22E
  8
1
 10
911.196638
 20
-269.539307
 30
0.0
 40
0.888911
  0
ENDBLK
  5
22F
  8
0
  0
BLOCK
  5
231
  8
1
  2
*U36
 70
    65
 10
0.0
 20
0.0
 30
0.0
  3
*U36
  1

  0
CIRCLE
  5
232
  8
1
 10
936.780836
 20
-284.31035
 30
0.0
 40
0.888911
  0
CIRCLE
  5
233
  8
1
 10
936.780836
 20
-254.768263
 30
0.0
 40
0.888911
  0
CIRCLE
  5
234
  8
1
 10
949.572934
 20
-276.924828
 30
0.0
 40
0.888911
  0
CIRCLE
  5
235
  8
1
 10
949.572934
 20
-262.153785
 30
0.0
 40
0.888911
  0
CIRCLE
  5
236
  8
1
 10
949.572934
 20
-247.382742
 30
0.0
 40
0.888911
  0
CIRCLE
  5
237
  8
1
 10
936.780836
 20
-269.539307
 30
0.0
 40
0.888911
  0
ENDBLK
  5
238
  8
0
  0
BLOCK
  5
23A
  8
1
  2
*U37
 70
    65
 10
0.0
 20
0.0
 30
0.0
  3
*U37
  1

  0
CIRCLE
  5
23B
  8
1
 10
962.365033
 20
-284.31035
 30
0.0
 40
0.888911
  0
CIRCLE
  5
23C
  8
1
 10
962.365033
 20
-254.768263
 30
0.0
 40
0.888911
  0
CIRCLE
  5
23D
  8
1
 10
975.157132
 20
-276.924828
 30
0.0
 40
0.888911
  0
CIRCLE
  5
23E
  8
1
 10
975.157132
 20
-262.153785
 30
0.0
 40
0.888911
  0
CIRCLE
  5
23F
  8
1
 10
975.157132
 20
-247.382742
 30
0.0
 40
0.888911
  0
CIRCLE
  5
240
  8
1
 10
962.365033
 20
-269.539307
 30
0.0
 40
0.888911
  0
ENDBLK
  5
241
  8
0
  0
BLOCK
  5
243
  8
1
  2
*U38
 70
    65
 10
0.0
 20
0.0
 30
0.0
  3
*U38
  1

  0
CIRCLE
  5
244
  8
1
 10
987.94923
 20
-284.31035
 30
0.0
 40
0.888911
  0
CIRCLE
  5
245
  8
1
 10
987.94923
 20
-254.768263
 30
0.0
 40
0.888911
  0
CIRCLE
  5
246
  8
1
 10
1000.741329
 20
-276.924828
 30
0.0
 40
0.888911
  0
CIRCLE
  5
247
  8
1
 10
1000.741329
 20
-262.153785
 30
0.0
 40
0.888911
  0
CIRCLE
  5
248
  8
1
 10
1000.741329
 20
-247.382742
 30
0.0
 40
0.888911
  0
CIRCLE
  5
249
  8
1
 10
987.94923
 20
-269.539307
 30
0.0
 40
0.888911
  0
ENDBLK
  5
24A
  8
0
  0
BLOCK
  5
24C
  8
1
  2
*U39
 70
    65
 10
0.0
 20
0.0
 30
0.0
  3
*U39
  1

  0
CIRCLE
  5
24D
  8
1
 10
1013.533428
 20
-284.31035
 30
0.0
 40
0.888911
  0
CIRCLE
  5
24E
  8
1
 10
1013.533428
 20
-254.768263
 30
0.0
 40
0.888911
  0
CIRCLE
  5
24F
  8
1
 10
1026.325527
 20
-276.924828
 30
0.0
 40
0.888911
  0
CIRCLE
  5
250
  8
1
 10
1026.325527
 20
-262.153785
 30
0.0
 40
0.888911
  0
CIRCLE
  5
251
  8
1
 10
1026.325527
 20
-247.382742
 30
0.0
 40
0.888911
  0
CIRCLE
  5
252
  8
1
 10
1013.533428
 20
-269.539307
 30
0.0
 40
0.888911
  0
ENDBLK
  5
253
  8
0
  0
BLOCK
  5
255
  8
1
  2
*U40
 70
    65
 10
0.0
 20
0.0
 30
0.0
  3
*U40
  1

  0
CIRCLE
  5
256
  8
1
 10
1039.117625
 20
-284.31035
 30
0.0
 40
0.888911
  0
CIRCLE
  5
257
  8
1
 10
1039.117625
 20
-254.768263
 30
0.0
 40
0.888911
  0
CIRCLE
  5
258
  8
1
 10
1051.909724
 20
-276.924828
 30
0.0
 40
0.888911
  0
CIRCLE
  5
259
  8
1
 10
1051.909724
 20
-262.153785
 30
0.0
 40
0.888911
  0
CIRCLE
  5
25A
  8
1
 10
1051.909724
 20
-247.382742
 30
0.0
 40
0.888911
  0
CIRCLE
  5
25B
  8
1
 10
1039.117625
 20
-269.539307
 30
0.0
 40
0.888911
  0
ENDBLK
  5
25C
  8
0
  0
BLOCK
  5
25E
  8
1
  2
*U41
 70
    65
 10
0.0
 20
0.0
 30
0.0
  3
*U41
  1

  0
CIRCLE
  5
25F
  8
1
 10
1064.701823
 20
-284.31035
 30
0.0
 40
0.888911
  0
CIRCLE
  5
260
  8
1
 10
1064.701823
 20
-254.768263
 30
0.0
 40
0.888911
  0
CIRCLE
  5
261
  8
1
 10
1077.493921
 20
-276.924828
 30
0.0
 40
0.888911
  0
CIRCLE
  5
262
  8
1
 10
1077.493921
 20
-262.153785
 30
0.0
 40
0.888911
  0
CIRCLE
  5
263
  8
1
 10
1077.493921
 20
-247.382742
 30
0.0
 40
0.888911
  0
CIRCLE
  5
264
  8
1
 10
1064.701823
 20
-269.539307
 30
0.0
 40
0.888911
  0
ENDBLK
  5
265
  8
0
  0
BLOCK
  5
267
  8
1
  2
*U42
 70
    65
 10
0.0
 20
0.0
 30
0.0
  3
*U42
  1

  0
CIRCLE
  5
268
  8
1
 10
1090.28602
 20
-284.31035
 30
0.0
 40
0.888911
  0
CIRCLE
  5
269
  8
1
 10
1090.28602
 20
-254.768263
 30
0.0
 40
0.888911
  0
CIRCLE
  5
26A
  8
1
 10
1103.078119
 20
-276.924828
 30
0.0
 40
0.888911
  0
CIRCLE
  5
26B
  8
1
 10
1103.078119
 20
-262.153785
 30
0.0
 40
0.888911
  0
CIRCLE
  5
26C
  8
1
 10
1103.078119
 20
-247.382742
 30
0.0
 40
0.888911
  0
CIRCLE
  5
26D
  8
1
 10
1090.28602
 20
-269.539307
 30
0.0
 40
0.888911
  0
ENDBLK
  5
26E
  8
0
  0
BLOCK
  5
270
  8
1
  2
*U43
 70
    65
 10
0.0
 20
0.0
 30
0.0
  3
*U43
  1

  0
CIRCLE
  5
271
  8
1
 10
1115.870218
 20
-284.31035
 30
0.0
 40
0.888911
  0
CIRCLE
  5
272
  8
1
 10
1115.870218
 20
-254.768263
 30
0.0
 40
0.888911
  0
CIRCLE
  5
273
  8
1
 10
1128.662316
 20
-276.924828
 30
0.0
 40
0.888911
  0
CIRCLE
  5
274
  8
1
 10
1128.662316
 20
-262.153785
 30
0.0
 40
0.888911
  0
CIRCLE
  5
275
  8
1
 10
1128.662316
 20
-247.382742
 30
0.0
 40
0.888911
  0
CIRCLE
  5
276
  8
1
 10
1115.870218
 20
-269.539307
 30
0.0
 40
0.888911
  0
ENDBLK
  5
277
  8
0
  0
BLOCK
  5
279
  8
1
  2
*U44
 70
    65
 10
0.0
 20
0.0
 30
0.0
  3
*U44
  1

  0
CIRCLE
  5
27A
  8
1
 10
1141.454415
 20
-284.31035
 30
0.0
 40
0.888911
  0
CIRCLE
  5
27B
  8
1
 10
1141.454415
 20
-254.768263
 30
0.0
 40
0.888911
  0
CIRCLE
  5
27C
  8
1
 10
1154.246514
 20
-276.924828
 30
0.0
 40
0.888911
  0
CIRCLE
  5
27D
  8
1
 10
1154.246514
 20
-262.153785
 30
0.0
 40
0.888911
  0
CIRCLE
  5
27E
  8
1
 10
1154.246514
 20
-247.382742
 30
0.0
 40
0.888911
  0
CIRCLE
  5
27F
  8
1
 10
1141.454415
 20
-269.539307
 30
0.0
 40
0.888911
  0
ENDBLK
  5
280
  8
0
  0
BLOCK
  5
282
  8
1
  2
*U45
 70
    65
 10
0.0
 20
0.0
 30
0.0
  3
*U45
  1

  0
CIRCLE
  5
283
  8
1
 10
1167.038612
 20
-284.31035
 30
0.0
 40
0.888911
  0
CIRCLE
  5
284
  8
1
 10
1167.038612
 20
-254.768263
 30
0.0
 40
0.888911
  0
CIRCLE
  5
285
  8
1
 10
1179.830711
 20
-276.924828
 30
0.0
 40
0.888911
  0
CIRCLE
  5
286
  8
1
 10
1179.830711
 20
-262.153785
 30
0.0
 40
0.888911
  0
CIRCLE
  5
287
  8
1
 10
1179.830711
 20
-247.382742
 30
0.0
 40
0.888911
  0
CIRCLE
  5
288
  8
1
 10
1167.038612
 20
-269.539307
 30
0.0
 40
0.888911
  0
ENDBLK
  5
289
  8
0
  0
BLOCK
  5
28B
  8
1
  2
*U46
 70
    65
 10
0.0
 20
0.0
 30
0.0
  3
*U46
  1

  0
CIRCLE
  5
28C
  8
1
 10
1192.62281
 20
-284.31035
 30
0.0
 40
0.888911
  0
CIRCLE
  5
28D
  8
1
 10
1192.62281
 20
-254.768263
 30
0.0
 40
0.888911
  0
CIRCLE
  5
28E
  8
1
 10
1205.414908
 20
-276.924828
 30
0.0
 40
0.888911
  0
CIRCLE
  5
28F
  8
1
 10
1205.414908
 20
-262.153785
 30
0.0
 40
0.888911
  0
CIRCLE
  5
290
  8
1
 10
1205.414908
 20
-247.382742
 30
0.0
 40
0.888911
  0
CIRCLE
  5
291
  8
1
 10
1192.62281
 20
-269.539307
 30
0.0
 40
0.888911
  0
ENDBLK
  5
292
  8
0
  0
BLOCK
  5
294
  8
1
  2
*U47
 70
    65
 10
0.0
 20
0.0
 30
0.0
  3
*U47
  1

  0
CIRCLE
  5
295
  8
1
 10
1218.207007
 20
-284.31035
 30
0.0
 40
0.888911
  0
CIRCLE
  5
296
  8
1
 10
1218.207007
 20
-254.768263
 30
0.0
 40
0.888911
  0
CIRCLE
  5
297
  8
1
 10
1230.999106
 20
-276.924828
 30
0.0
 40
0.888911
  0
CIRCLE
  5
298
  8
1
 10
1230.999106
 20
-262.153785
 30
0.0
 40
0.888911
  0
CIRCLE
  5
299
  8
1
 10
1230.999106
 20
-247.382742
 30
0.0
 40
0.888911
  0
CIRCLE
  5
29A
  8
1
 10
1218.207007
 20
-269.539307
 30
0.0
 40
0.888911
  0
ENDBLK
  5
29B
  8
0
  0
BLOCK
  5
29D
  8
1
  2
*U48
 70
    65
 10
0.0
 20
0.0
 30
0.0
  3
*U48
  1

  0
CIRCLE
  5
29E
  8
1
 10
1243.791205
 20
-284.31035
 30
0.0
 40
0.888911
  0
CIRCLE
  5
29F
  8
1
 10
1243.791205
 20
-254.768263
 30
0.0
 40
0.888911
  0
CIRCLE
  5
2A0
  8
1
 10
1256.583303
 20
-276.924828
 30
0.0
 40
0.888911
  0
CIRCLE
  5
2A1
  8
1
 10
1256.583303
 20
-262.153785
 30
0.0
 40
0.888911
  0
CIRCLE
  5
2A2
  8
1
 10
1256.583303
 20
-247.382742
 30
0.0
 40
0.888911
  0
CIRCLE
  5
2A3
  8
1
 10
1243.791205
 20
-269.539307
 30
0.0
 40
0.888911
  0
ENDBLK
  5
2A4
  8
0
  0
BLOCK
  5
2A6
  8
1
  2
*U49
 70
    65
 10
0.0
 20
0.0
 30
0.0
  3
*U49
  1

  0
CIRCLE
  5
2A7
  8
1
 10
1269.375402
 20
-284.31035
 30
0.0
 40
0.888911
  0
CIRCLE
  5
2A8
  8
1
 10
1269.375402
 20
-254.768263
 30
0.0
 40
0.888911
  0
CIRCLE
  5
2A9
  8
1
 10
1282.167501
 20
-276.924828
 30
0.0
 40
0.888911
  0
CIRCLE
  5
2AA
  8
1
 10
1282.167501
 20
-262.153785
 30
0.0
 40
0.888911
  0
CIRCLE
  5
2AB
  8
1
 10
1282.167501
 20
-247.382742
 30
0.0
 40
0.888911
  0
CIRCLE
  5
2AC
  8
1
 10
1269.375402
 20
-269.539307
 30
0.0
 40
0.888911
  0
ENDBLK
  5
2AD
  8
0
  0
BLOCK
  5
2AF
  8
1
  2
*U50
 70
    65
 10
0.0
 20
0.0
 30
0.0
  3
*U50
  1

  0
CIRCLE
  5
2B0
  8
1
 10
1294.959599
 20
-284.31035
 30
0.0
 40
0.888911
  0
CIRCLE
  5
2B1
  8
1
 10
1294.959599
 20
-254.768263
 30
0.0
 40
0.888911
  0
CIRCLE
  5
2B2
  8
1
 10
1307.751698
 20
-276.924828
 30
0.0
 40
0.888911
  0
CIRCLE
  5
2B3
  8
1
 10
1307.751698
 20
-262.153785
 30
0.0
 40
0.888911
  0
CIRCLE
  5
2B4
  8
1
 10
1307.751698
 20
-247.382742
 30
0.0
 40
0.888911
  0
CIRCLE
  5
2B5
  8
1
 10
1294.959599
 20
-269.539307
 30
0.0
 40
0.888911
  0
ENDBLK
  5
2B6
  8
0
  0
BLOCK
  5
2B8
  8
1
  2
*U51
 70
    65
 10
0.0
 20
0.0
 30
0.0
  3
*U51
  1

  0
CIRCLE
  5
2B9
  8
1
 10
1320.543797
 20
-284.31035
 30
0.0
 40
0.888911
  0
CIRCLE
  5
2BA
  8
1
 10
1320.543797
 20
-254.768263
 30
0.0
 40
0.888911
  0
CIRCLE
  5
2BB
  8
1
 10
1333.335896
 20
-276.924828
 30
0.0
 40
0.888911
  0
CIRCLE
  5
2BC
  8
1
 10
1333.335896
 20
-262.153785
 30
0.0
 40
0.888911
  0
CIRCLE
  5
2BD
  8
1
 10
1333.335896
 20
-247.382742
 30
0.0
 40
0.888911
  0
CIRCLE
  5
2BE
  8
1
 10
1320.543797
 20
-269.539307
 30
0.0
 40
0.888911
  0
ENDBLK
  5
2BF
  8
0
  0
BLOCK
  5
2C1
  8
1
  2
*U52
 70
    65
 10
0.0
 20
0.0
 30
0.0
  3
*U52
  1

  0
CIRCLE
  5
2C2
  8
1
 10
1346.127994
 20
-284.31035
 30
0.0
 40
0.888911
  0
CIRCLE
  5
2C3
  8
1
 10
1346.127994
 20
-254.768263
 30
0.0
 40
0.888911
  0
CIRCLE
  5
2C4
  8
1
 10
1358.920093
 20
-276.924828
 30
0.0
 40
0.888911
  0
CIRCLE
  5
2C5
  8
1
 10
1358.920093
 20
-262.153785
 30
0.0
 40
0.888911
  0
CIRCLE
  5
2C6
  8
1
 10
1358.920093
 20
-247.382742
 30
0.0
 40
0.888911
  0
CIRCLE
  5
2C7
  8
1
 10
1346.127994
 20
-269.539307
 30
0.0
 40
0.888911
  0
ENDBLK
  5
2C8
  8
0
  0
BLOCK
  5
2CA
  8
1
  2
*U53
 70
    65
 10
0.0
 20
0.0
 30
0.0
  3
*U53
  1

  0
CIRCLE
  5
2CB
  8
1
 10
1371.712192
 20
-284.31035
 30
0.0
 40
0.888911
  0
CIRCLE
  5
2CC
  8
1
 10
1371.712192
 20
-254.768263
 30
0.0
 40
0.888911
  0
CIRCLE
  5
2CD
  8
1
 10
1384.50429
 20
-276.924828
 30
0.0
 40
0.888911
  0
CIRCLE
  5
2CE
  8
1
 10
1384.50429
 20
-262.153785
 30
0.0
 40
0.888911
  0
CIRCLE
  5
2CF
  8
1
 10
1384.50429
 20
-247.382742
 30
0.0
 40
0.888911
  0
CIRCLE
  5
2D0
  8
1
 10
1371.712192
 20
-269.539307
 30
0.0
 40
0.888911
  0
ENDBLK
  5
2D1
  8
0
  0
BLOCK
  5
2D3
  8
1
  2
*U54
 70
    65
 10
0.0
 20
0.0
 30
0.0
  3
*U54
  1

  0
CIRCLE
  5
2D4
  8
1
 10
1397.296389
 20
-284.31035
 30
0.0
 40
0.888911
  0
CIRCLE
  5
2D5
  8
1
 10
1397.296389
 20
-254.768263
 30
0.0
 40
0.888911
  0
CIRCLE
  5
2D6
  8
1
 10
1410.088488
 20
-276.924828
 30
0.0
 40
0.888911
  0
CIRCLE
  5
2D7
  8
1
 10
1410.088488
 20
-262.153785
 30
0.0
 40
0.888911
  0
CIRCLE
  5
2D8
  8
1
 10
1410.088488
 20
-247.382742
 30
0.0
 40
0.888911
  0
CIRCLE
  5
2D9
  8
1
 10
1397.296389
 20
-269.539307
 30
0.0
 40
0.888911
  0
ENDBLK
  5
2DA
  8
0
  0
BLOCK
  5
2DC
  8
1
  2
*U55
 70
    65
 10
0.0
 20
0.0
 30
0.0
  3
*U55
  1

  0
CIRCLE
  5
2DD
  8
1
 10
1422.880586
 20
-284.31035
 30
0.0
 40
0.888911
  0
CIRCLE
  5
2DE
  8
1
 10
1422.880586
 20
-254.768263
 30
0.0
 40
0.888911
  0
CIRCLE
  5
2DF
  8
1
 10
1435.672685
 20
-276.924828
 30
0.0
 40
0.888911
  0
CIRCLE
  5
2E0
  8
1
 10
1435.672685
 20
-262.153785
 30
0.0
 40
0.888911
  0
CIRCLE
  5
2E1
  8
1
 10
1435.672685
 20
-247.382742
 30
0.0
 40
0.888911
  0
CIRCLE
  5
2E2
  8
1
 10
1422.880586
 20
-269.539307
 30
0.0
 40
0.888911
  0
ENDBLK
  5
2E3
  8
0
  0
BLOCK
  5
2E5
  8
1
  2
*U56
 70
    65
 10
0.0
 20
0.0
 30
0.0
  3
*U56
  1

  0
CIRCLE
  5
2E6
  8
1
 10
1448.464784
 20
-284.31035
 30
0.0
 40
0.888911
  0
CIRCLE
  5
2E7
  8
1
 10
1448.464784
 20
-254.768263
 30
0.0
 40
0.888911
  0
CIRCLE
  5
2E8
  8
1
 10
1461.256883
 20
-276.924828
 30
0.0
 40
0.888911
  0
CIRCLE
  5
2E9
  8
1
 10
1461.256883
 20
-262.153785
 30
0.0
 40
0.888911
  0
CIRCLE
  5
2EA
  8
1
 10
1461.256883
 20
-247.382742
 30
0.0
 40
0.888911
  0
CIRCLE
  5
2EB
  8
1
 10
1448.464784
 20
-269.539307
 30
0.0
 40
0.888911
  0
ENDBLK
  5
2EC
  8
0
  0
BLOCK
  5
2EE
  8
1
  2
*U57
 70
    65
 10
0.0
 20
0.0
 30
0.0
  3
*U57
  1

  0
CIRCLE
  5
2EF
  8
1
 10
1474.048981
 20
-284.31035
 30
0.0
 40
0.888911
  0
CIRCLE
  5
2F0
  8
1
 10
1474.048981
 20
-254.768263
 30
0.0
 40
0.888911
  0
CIRCLE
  5
2F1
  8
1
 10
1486.84108
 20
-276.924828
 30
0.0
 40
0.888911
  0
CIRCLE
  5
2F2
  8
1
 10
1486.84108
 20
-262.153785
 30
0.0
 40
0.888911
  0
CIRCLE
  5
2F3
  8
1
 10
1486.84108
 20
-247.382742
 30
0.0
 40
0.888911
  0
CIRCLE
  5
2F4
  8
1
 10
1474.048981
 20
-269.539307
 30
0.0
 40
0.888911
  0
ENDBLK
  5
2F5
  8
0
  0
BLOCK
  5
2F7
  8
1
  2
*U58
 70
    65
 10
0.0
 20
0.0
 30
0.0
  3
*U58
  1

  0
CIRCLE
  5
2F8
  8
1
 10
1499.633179
 20
-284.31035
 30
0.0
 40
0.888911
  0
CIRCLE
  5
2F9
  8
1
 10
1499.633179
 20
-254.768263
 30
0.0
 40
0.888911
  0
CIRCLE
  5
2FA
  8
1
 10
1512.425277
 20
-276.924828
 30
0.0
 40
0.888911
  0
CIRCLE
  5
2FB
  8
1
 10
1512.425277
 20
-262.153785
 30
0.0
 40
0.888911
  0
CIRCLE
  5
2FC
  8
1
 10
1512.425277
 20
-247.382742
 30
0.0
 40
0.888911
  0
CIRCLE
  5
2FD
  8
1
 10
1499.633179
 20
-269.539307
 30
0.0
 40
0.888911
  0
ENDBLK
  5
2FE
  8
0
  0
BLOCK
  5
300
  8
1
  2
*U59
 70
    65
 10
0.0
 20
0.0
 30
0.0
  3
*U59
  1

  0
CIRCLE
  5
301
  8
1
 10
1525.217376
 20
-284.31035
 30
0.0
 40
0.888911
  0
CIRCLE
  5
302
  8
1
 10
1525.217376
 20
-254.768263
 30
0.0
 40
0.888911
  0
CIRCLE
  5
303
  8
1
 10
1538.009475
 20
-276.924828
 30
0.0
 40
0.888911
  0
CIRCLE
  5
304
  8
1
 10
1538.009475
 20
-262.153785
 30
0.0
 40
0.888911
  0
CIRCLE
  5
305
  8
1
 10
1538.009475
 20
-247.382742
 30
0.0
 40
0.888911
  0
CIRCLE
  5
306
  8
1
 10
1525.217376
 20
-269.539307
 30
0.0
 40
0.888911
  0
ENDBLK
  5
307
  8
0
  0
BLOCK
  5
309
  8
1
  2
*U60
 70
    65
 10
0.0
 20
0.0
 30
0.0
  3
*U60
  1

  0
CIRCLE
  5
30A
  8
1
 10
1550.801574
 20
-284.31035
 30
0.0
 40
0.888911
  0
CIRCLE
  5
30B
  8
1
 10
1550.801574
 20
-254.768263
 30
0.0
 40
0.888911
  0
CIRCLE
  5
30C
  8
1
 10
1563.593672
 20
-276.924828
 30
0.0
 40
0.888911
  0
CIRCLE
  5
30D
  8
1
 10
1563.593672
 20
-262.153785
 30
0.0
 40
0.888911
  0
CIRCLE
  5
30E
  8
1
 10
1563.593672
 20
-247.382742
 30
0.0
 40
0.888911
  0
CIRCLE
  5
30F
  8
1
 10
1550.801574
 20
-269.539307
 30
0.0
 40
0.888911
  0
ENDBLK
  5
310
  8
0
  0
BLOCK
  5
312
  8
1
  2
*U61
 70
    65
 10
0.0
 20
0.0
 30
0.0
  3
*U61
  1

  0
CIRCLE
  5
313
  8
1
 10
1576.385771
 20
-284.31035
 30
0.0
 40
0.888911
  0
CIRCLE
  5
314
  8
1
 10
1576.385771
 20
-254.768263
 30
0.0
 40
0.888911
  0
CIRCLE
  5
315
  8
1
 10
1589.17787
 20
-276.924828
 30
0.0
 40
0.888911
  0
CIRCLE
  5
316
  8
1
 10
1589.17787
 20
-262.153785
 30
0.0
 40
0.888911
  0
CIRCLE
  5
317
  8
1
 10
1589.17787
 20
-247.382742
 30
0.0
 40
0.888911
  0
CIRCLE
  5
318
  8
1
 10
1576.385771
 20
-269.539307
 30
0.0
 40
0.888911
  0
ENDBLK
  5
319
  8
0
  0
BLOCK
  5
31B
  8
1
  2
*U62
 70
    65
 10
0.0
 20
0.0
 30
0.0
  3
*U62
  1

  0
CIRCLE
  5
31C
  8
1
 10
1601.969968
 20
-284.31035
 30
0.0
 40
0.888911
  0
CIRCLE
  5
31D
  8
1
 10
1601.969968
 20
-254.768263
 30
0.0
 40
0.888911
  0
CIRCLE
  5
31E
  8
1
 10
1614.762067
 20
-276.924828
 30
0.0
 40
0.888911
  0
CIRCLE
  5
31F
  8
1
 10
1614.762067
 20
-262.153785
 30
0.0
 40
0.888911
  0
CIRCLE
  5
320
  8
1
 10
1614.762067
 20
-247.382742
 30
0.0
 40
0.888911
  0
CIRCLE
  5
321
  8
1
 10
1601.969968
 20
-269.539307
 30
0.0
 40
0.888911
  0
ENDBLK
  5
322
  8
0
  0
BLOCK
  5
324
  8
1
  2
*U63
 70
    65
 10
0.0
 20
0.0
 30
0.0
  3
*U63
  1

  0
CIRCLE
  5
325
  8
1
 10
1627.554166
 20
-284.31035
 30
0.0
 40
0.888911
  0
CIRCLE
  5
326
  8
1
 10
1627.554166
 20
-254.768263
 30
0.0
 40
0.888911
  0
CIRCLE
  5
327
  8
1
 10
1640.346264
 20
-276.924828
 30
0.0
 40
0.888911
  0
CIRCLE
  5
328
  8
1
 10
1640.346264
 20
-262.153785
 30
0.0
 40
0.888911
  0
CIRCLE
  5
329
  8
1
 10
1640.346264
 20
-247.382742
 30
0.0
 40
0.888911
  0
CIRCLE
  5
32A
  8
1
 10
1627.554166
 20
-269.539307
 30
0.0
 40
0.888911
  0
ENDBLK
  5
32B
  8
0
  0
BLOCK
  5
32D
  8
1
  2
*U64
 70
    65
 10
0.0
 20
0.0
 30
0.0
  3
*U64
  1

  0
CIRCLE
  5
32E
  8
1
 10
1653.138363
 20
-284.31035
 30
0.0
 40
0.888911
  0
CIRCLE
  5
32F
  8
1
 10
1653.138363
 20
-254.768263
 30
0.0
 40
0.888911
  0
CIRCLE
  5
330
  8
1
 10
1665.930462
 20
-276.924828
 30
0.0
 40
0.888911
  0
CIRCLE
  5
331
  8
1
 10
1665.930462
 20
-262.153785
 30
0.0
 40
0.888911
  0
CIRCLE
  5
332
  8
1
 10
1665.930462
 20
-247.382742
 30
0.0
 40
0.888911
  0
CIRCLE
  5
333
  8
1
 10
1653.138363
 20
-269.539307
 30
0.0
 40
0.888911
  0
ENDBLK
  5
334
  8
0
  0
BLOCK
  5
336
  8
1
  2
*U65
 70
    65
 10
0.0
 20
0.0
 30
0.0
  3
*U65
  1

  0
CIRCLE
  5
337
  8
1
 10
1678.722561
 20
-284.31035
 30
0.0
 40
0.888911
  0
CIRCLE
  5
338
  8
1
 10
1678.722561
 20
-254.768263
 30
0.0
 40
0.888911
  0
CIRCLE
  5
339
  8
1
 10
1691.514659
 20
-276.924828
 30
0.0
 40
0.888911
  0
CIRCLE
  5
33A
  8
1
 10
1691.514659
 20
-262.153785
 30
0.0
 40
0.888911
  0
CIRCLE
  5
33B
  8
1
 10
1691.514659
 20
-247.382742
 30
0.0
 40
0.888911
  0
CIRCLE
  5
33C
  8
1
 10
1678.722561
 20
-269.539307
 30
0.0
 40
0.888911
  0
ENDBLK
  5
33D
  8
0
  0
BLOCK
  5
33F
  8
1
  2
*U66
 70
    65
 10
0.0
 20
0.0
 30
0.0
  3
*U66
  1

  0
CIRCLE
  5
340
  8
1
 10
1704.306758
 20
-284.31035
 30
0.0
 40
0.888911
  0
CIRCLE
  5
341
  8
1
 10
1704.306758
 20
-254.768263
 30
0.0
 40
0.888911
  0
CIRCLE
  5
342
  8
1
 10
1717.098857
 20
-276.924828
 30
0.0
 40
0.888911
  0
CIRCLE
  5
343
  8
1
 10
1717.098857
 20
-262.153785
 30
0.0
 40
0.888911
  0
CIRCLE
  5
344
  8
1
 10
1717.098857
 20
-247.382742
 30
0.0
 40
0.888911
  0
CIRCLE
  5
345
  8
1
 10
1704.306758
 20
-269.539307
 30
0.0
 40
0.888911
  0
ENDBLK
  5
346
  8
0
  0
BLOCK
  5
348
  8
1
  2
*U67
 70
    65
 10
0.0
 20
0.0
 30
0.0
  3
*U67
  1

  0
CIRCLE
  5
349
  8
1
 10
1729.890955
 20
-284.31035
 30
0.0
 40
0.888911
  0
CIRCLE
  5
34A
  8
1
 10
1729.890955
 20
-254.768263
 30
0.0
 40
0.888911
  0
CIRCLE
  5
34B
  8
1
 10
1742.683054
 20
-276.924828
 30
0.0
 40
0.888911
  0
CIRCLE
  5
34C
  8
1
 10
1742.683054
 20
-262.153785
 30
0.0
 40
0.888911
  0
CIRCLE
  5
34D
  8
1
 10
1742.683054
 20
-247.382742
 30
0.0
 40
0.888911
  0
CIRCLE
  5
34E
  8
1
 10
1729.890955
 20
-269.539307
 30
0.0
 40
0.888911
  0
ENDBLK
  5
34F
  8
0
  0
BLOCK
  5
351
  8
1
  2
*U68
 70
    65
 10
0.0
 20
0.0
 30
0.0
  3
*U68
  1

  0
CIRCLE
  5
352
  8
1
 10
629.770467
 20
-772.549906
 30
0.0
 40
0.888911
  0
CIRCLE
  5
353
  8
1
 10
629.770467
 20
-802.091992
 30
0.0
 40
0.888911
  0
CIRCLE
  5
354
  8
1
 10
642.562565
 20
-779.935427
 30
0.0
 40
0.888911
  0
CIRCLE
  5
355
  8
1
 10
642.562565
 20
-794.70647
 30
0.0
 40
0.888911
  0
CIRCLE
  5
356
  8
1
 10
642.562565
 20
-809.477514
 30
0.0
 40
0.888911
  0
CIRCLE
  5
357
  8
1
 10
629.770467
 20
-787.320949
 30
0.0
 40
0.888911
  0
ENDBLK
  5
358
  8
0
  0
BLOCK
  5
35A
  8
1
  2
*U69
 70
    65
 10
0.0
 20
0.0
 30
0.0
  3
*U69
  1

  0
CIRCLE
  5
35B
  8
1
 10
655.354664
 20
-772.549906
 30
0.0
 40
0.888911
  0
CIRCLE
  5
35C
  8
1
 10
655.354664
 20
-802.091992
 30
0.0
 40
0.888911
  0
CIRCLE
  5
35D
  8
1
 10
668.146763
 20
-779.935427
 30
0.0
 40
0.888911
  0
CIRCLE
  5
35E
  8
1
 10
668.146763
 20
-794.70647
 30
0.0
 40
0.888911
  0
CIRCLE
  5
35F
  8
1
 10
668.146763
 20
-809.477514
 30
0.0
 40
0.888911
  0
CIRCLE
  5
360
  8
1
 10
655.354664
 20
-787.320949
 30
0.0
 40
0.888911
  0
ENDBLK
  5
361
  8
0
  0
BLOCK
  5
363
  8
1
  2
*U70
 70
    65
 10
0.0
 20
0.0
 30
0.0
  3
*U70
  1

  0
CIRCLE
  5
364
  8
1
 10
680.938862
 20
-772.549906
 30
0.0
 40
0.888911
  0
CIRCLE
  5
365
  8
1
 10
680.938862
 20
-802.091992
 30
0.0
 40
0.888911
  0
CIRCLE
  5
366
  8
1
 10
693.73096
 20
-779.935427
 30
0.0
 40
0.888911
  0
CIRCLE
  5
367
  8
1
 10
693.73096
 20
-794.70647
 30
0.0
 40
0.888911
  0
CIRCLE
  5
368
  8
1
 10
693.73096
 20
-809.477514
 30
0.0
 40
0.888911
  0
CIRCLE
  5
369
  8
1
 10
680.938862
 20
-787.320949
 30
0.0
 40
0.888911
  0
ENDBLK
  5
36A
  8
0
  0
BLOCK
  5
36C
  8
1
  2
*U71
 70
    65
 10
0.0
 20
0.0
 30
0.0
  3
*U71
  1

  0
CIRCLE
  5
36D
  8
1
 10
706.523059
 20
-772.549906
 30
0.0
 40
0.888911
  0
CIRCLE
  5
36E
  8
1
 10
706.523059
 20
-802.091992
 30
0.0
 40
0.888911
  0
CIRCLE
  5
36F
  8
1
 10
719.315158
 20
-779.935427
 30
0.0
 40
0.888911
  0
CIRCLE
  5
370
  8
1
 10
719.315158
 20
-794.70647
 30
0.0
 40
0.888911
  0
CIRCLE
  5
371
  8
1
 10
719.315158
 20
-809.477514
 30
0.0
 40
0.888911
  0
CIRCLE
  5
372
  8
1
 10
706.523059
 20
-787.320949
 30
0.0
 40
0.888911
  0
ENDBLK
  5
373
  8
0
  0
BLOCK
  5
375
  8
1
  2
*U72
 70
    65
 10
0.0
 20
0.0
 30
0.0
  3
*U72
  1

  0
CIRCLE
  5
376
  8
1
 10
732.107256
 20
-772.549906
 30
0.0
 40
0.888911
  0
CIRCLE
  5
377
  8
1
 10
732.107256
 20
-802.091992
 30
0.0
 40
0.888911
  0
CIRCLE
  5
378
  8
1
 10
744.899355
 20
-779.935427
 30
0.0
 40
0.888911
  0
CIRCLE
  5
379
  8
1
 10
744.899355
 20
-794.70647
 30
0.0
 40
0.888911
  0
CIRCLE
  5
37A
  8
1
 10
744.899355
 20
-809.477514
 30
0.0
 40
0.888911
  0
CIRCLE
  5
37B
  8
1
 10
732.107256
 20
-787.320949
 30
0.0
 40
0.888911
  0
ENDBLK
  5
37C
  8
0
  0
BLOCK
  5
37E
  8
1
  2
*U73
 70
    65
 10
0.0
 20
0.0
 30
0.0
  3
*U73
  1

  0
CIRCLE
  5
37F
  8
1
 10
757.691454
 20
-772.549906
 30
0.0
 40
0.888911
  0
CIRCLE
  5
380
  8
1
 10
757.691454
 20
-802.091992
 30
0.0
 40
0.888911
  0
CIRCLE
  5
381
  8
1
 10
770.483552
 20
-779.935427
 30
0.0
 40
0.888911
  0
CIRCLE
  5
382
  8
1
 10
770.483552
 20
-794.70647
 30
0.0
 40
0.888911
  0
CIRCLE
  5
383
  8
1
 10
770.483552
 20
-809.477514
 30
0.0
 40
0.888911
  0
CIRCLE
  5
384
  8
1
 10
757.691454
 20
-787.320949
 30
0.0
 40
0.888911
  0
ENDBLK
  5
385
  8
0
  0
BLOCK
  5
387
  8
1
  2
*U74
 70
    65
 10
0.0
 20
0.0
 30
0.0
  3
*U74
  1

  0
CIRCLE
  5
388
  8
1
 10
783.275651
 20
-772.549906
 30
0.0
 40
0.888911
  0
CIRCLE
  5
389
  8
1
 10
783.275651
 20
-802.091992
 30
0.0
 40
0.888911
  0
CIRCLE
  5
38A
  8
1
 10
796.06775
 20
-779.935427
 30
0.0
 40
0.888911
  0
CIRCLE
  5
38B
  8
1
 10
796.06775
 20
-794.70647
 30
0.0
 40
0.888911
  0
CIRCLE
  5
38C
  8
1
 10
796.06775
 20
-809.477514
 30
0.0
 40
0.888911
  0
CIRCLE
  5
38D
  8
1
 10
783.275651
 20
-787.320949
 30
0.0
 40
0.888911
  0
ENDBLK
  5
38E
  8
0
  0
BLOCK
  5
390
  8
1
  2
*U75
 70
    65
 10
0.0
 20
0.0
 30
0.0
  3
*U75
  1

  0
CIRCLE
  5
391
  8
1
 10
808.859849
 20
-772.549906
 30
0.0
 40
0.888911
  0
CIRCLE
  5
392
  8
1
 10
808.859849
 20
-802.091992
 30
0.0
 40
0.888911
  0
CIRCLE
  5
393
  8
1
 10
821.651947
 20
-779.935427
 30
0.0
 40
0.888911
  0
CIRCLE
  5
394
  8
1
 10
821.651947
 20
-794.70647
 30
0.0
 40
0.888911
  0
CIRCLE
  5
395
  8
1
 10
821.651947
 20
-809.477514
 30
0.0
 40
0.888911
  0
CIRCLE
  5
396
  8
1
 10
808.859849
 20
-787.320949
 30
0.0
 40
0.888911
  0
ENDBLK
  5
397
  8
0
  0
BLOCK
  5
399
  8
1
  2
*U76
 70
    65
 10
0.0
 20
0.0
 30
0.0
  3
*U76
  1

  0
CIRCLE
  5
39A
  8
1
 10
834.444046
 20
-772.549906
 30
0.0
 40
0.888911
  0
CIRCLE
  5
39B
  8
1
 10
834.444046
 20
-802.091992
 30
0.0
 40
0.888911
  0
CIRCLE
  5
39C
  8
1
 10
847.236145
 20
-779.935427
 30
0.0
 40
0.888911
  0
CIRCLE
  5
39D
  8
1
 10
847.236145
 20
-794.70647
 30
0.0
 40
0.888911
  0
CIRCLE
  5
39E
  8
1
 10
847.236145
 20
-809.477514
 30
0.0
 40
0.888911
  0
CIRCLE
  5
39F
  8
1
 10
834.444046
 20
-787.320949
 30
0.0
 40
0.888911
  0
ENDBLK
  5
3A0
  8
0
  0
BLOCK
  5
3A2
  8
1
  2
*U77
 70
    65
 10
0.0
 20
0.0
 30
0.0
  3
*U77
  1

  0
CIRCLE
  5
3A3
  8
1
 10
860.028243
 20
-772.549906
 30
0.0
 40
0.888911
  0
CIRCLE
  5
3A4
  8
1
 10
860.028243
 20
-802.091992
 30
0.0
 40
0.888911
  0
CIRCLE
  5
3A5
  8
1
 10
872.820342
 20
-779.935427
 30
0.0
 40
0.888911
  0
CIRCLE
  5
3A6
  8
1
 10
872.820342
 20
-794.70647
 30
0.0
 40
0.888911
  0
CIRCLE
  5
3A7
  8
1
 10
872.820342
 20
-809.477514
 30
0.0
 40
0.888911
  0
CIRCLE
  5
3A8
  8
1
 10
860.028243
 20
-787.320949
 30
0.0
 40
0.888911
  0
ENDBLK
  5
3A9
  8
0
  0
BLOCK
  5
3AB
  8
1
  2
*U78
 70
    65
 10
0.0
 20
0.0
 30
0.0
  3
*U78
  1

  0
CIRCLE
  5
3AC
  8
1
 10
885.612441
 20
-772.549906
 30
0.0
 40
0.888911
  0
CIRCLE
  5
3AD
  8
1
 10
885.612441
 20
-802.091992
 30
0.0
 40
0.888911
  0
CIRCLE
  5
3AE
  8
1
 10
898.40454
 20
-779.935427
 30
0.0
 40
0.888911
  0
CIRCLE
  5
3AF
  8
1
 10
898.40454
 20
-794.70647
 30
0.0
 40
0.888911
  0
CIRCLE
  5
3B0
  8
1
 10
898.40454
 20
-809.477514
 30
0.0
 40
0.888911
  0
CIRCLE
  5
3B1
  8
1
 10
885.612441
 20
-787.320949
 30
0.0
 40
0.888911
  0
ENDBLK
  5
3B2
  8
0
  0
BLOCK
  5
3B4
  8
1
  2
*U79
 70
    65
 10
0.0
 20
0.0
 30
0.0
  3
*U79
  1

  0
CIRCLE
  5
3B5
  8
1
 10
911.196638
 20
-772.549906
 30
0.0
 40
0.888911
  0
CIRCLE
  5
3B6
  8
1
 10
911.196638
 20
-802.091992
 30
0.0
 40
0.888911
  0
CIRCLE
  5
3B7
  8
1
 10
923.988737
 20
-779.935427
 30
0.0
 40
0.888911
  0
CIRCLE
  5
3B8
  8
1
 10
923.988737
 20
-794.70647
 30
0.0
 40
0.888911
  0
CIRCLE
  5
3B9
  8
1
 10
923.988737
 20
-809.477514
 30
0.0
 40
0.888911
  0
CIRCLE
  5
3BA
  8
1
 10
911.196638
 20
-787.320949
 30
0.0
 40
0.888911
  0
ENDBLK
  5
3BB
  8
0
  0
BLOCK
  5
3BD
  8
1
  2
*U80
 70
    65
 10
0.0
 20
0.0
 30
0.0
  3
*U80
  1

  0
CIRCLE
  5
3BE
  8
1
 10
936.780836
 20
-772.549906
 30
0.0
 40
0.888911
  0
CIRCLE
  5
3BF
  8
1
 10
936.780836
 20
-802.091992
 30
0.0
 40
0.888911
  0
CIRCLE
  5
3C0
  8
1
 10
949.572934
 20
-779.935427
 30
0.0
 40
0.888911
  0
CIRCLE
  5
3C1
  8
1
 10
949.572934
 20
-794.70647
 30
0.0
 40
0.888911
  0
CIRCLE
  5
3C2
  8
1
 10
949.572934
 20
-809.477514
 30
0.0
 40
0.888911
  0
CIRCLE
  5
3C3
  8
1
 10
936.780836
 20
-787.320949
 30
0.0
 40
0.888911
  0
ENDBLK
  5
3C4
  8
0
  0
BLOCK
  5
3C6
  8
1
  2
*U81
 70
    65
 10
0.0
 20
0.0
 30
0.0
  3
*U81
  1

  0
CIRCLE
  5
3C7
  8
1
 10
962.365033
 20
-772.549906
 30
0.0
 40
0.888911
  0
CIRCLE
  5
3C8
  8
1
 10
962.365033
 20
-802.091992
 30
0.0
 40
0.888911
  0
CIRCLE
  5
3C9
  8
1
 10
975.157132
 20
-779.935427
 30
0.0
 40
0.888911
  0
CIRCLE
  5
3CA
  8
1
 10
975.157132
 20
-794.70647
 30
0.0
 40
0.888911
  0
CIRCLE
  5
3CB
  8
1
 10
975.157132
 20
-809.477514
 30
0.0
 40
0.888911
  0
CIRCLE
  5
3CC
  8
1
 10
962.365033
 20
-787.320949
 30
0.0
 40
0.888911
  0
ENDBLK
  5
3CD
  8
0
  0
BLOCK
  5
3CF
  8
1
  2
*U82
 70
    65
 10
0.0
 20
0.0
 30
0.0
  3
*U82
  1

  0
CIRCLE
  5
3D0
  8
1
 10
987.94923
 20
-772.549906
 30
0.0
 40
0.888911
  0
CIRCLE
  5
3D1
  8
1
 10
987.94923
 20
-802.091992
 30
0.0
 40
0.888911
  0
CIRCLE
  5
3D2
  8
1
 10
1000.741329
 20
-779.935427
 30
0.0
 40
0.888911
  0
CIRCLE
  5
3D3
  8
1
 10
1000.741329
 20
-794.70647
 30
0.0
 40
0.888911
  0
CIRCLE
  5
3D4
  8
1
 10
1000.741329
 20
-809.477514
 30
0.0
 40
0.888911
  0
CIRCLE
  5
3D5
  8
1
 10
987.94923
 20
-787.320949
 30
0.0
 40
0.888911
  0
ENDBLK
  5
3D6
  8
0
  0
BLOCK
  5
3D8
  8
1
  2
*U83
 70
    65
 10
0.0
 20
0.0
 30
0.0
  3
*U83
  1

  0
CIRCLE
  5
3D9
  8
1
 10
1013.533428
 20
-772.549906
 30
0.0
 40
0.888911
  0
CIRCLE
  5
3DA
  8
1
 10
1013.533428
 20
-802.091992
 30
0.0
 40
0.888911
  0
CIRCLE
  5
3DB
  8
1
 10
1026.325527
 20
-779.935427
 30
0.0
 40
0.888911
  0
CIRCLE
  5
3DC
  8
1
 10
1026.325527
 20
-794.70647
 30
0.0
 40
0.888911
  0
CIRCLE
  5
3DD
  8
1
 10
1026.325527
 20
-809.477514
 30
0.0
 40
0.888911
  0
CIRCLE
  5
3DE
  8
1
 10
1013.533428
 20
-787.320949
 30
0.0
 40
0.888911
  0
ENDBLK
  5
3DF
  8
0
  0
BLOCK
  5
3E1
  8
1
  2
*U84
 70
    65
 10
0.0
 20
0.0
 30
0.0
  3
*U84
  1

  0
CIRCLE
  5
3E2
  8
1
 10
1039.117625
 20
-772.549906
 30
0.0
 40
0.888911
  0
CIRCLE
  5
3E3
  8
1
 10
1039.117625
 20
-802.091992
 30
0.0
 40
0.888911
  0
CIRCLE
  5
3E4
  8
1
 10
1051.909724
 20
-779.935427
 30
0.0
 40
0.888911
  0
CIRCLE
  5
3E5
  8
1
 10
1051.909724
 20
-794.70647
 30
0.0
 40
0.888911
  0
CIRCLE
  5
3E6
  8
1
 10
1051.909724
 20
-809.477514
 30
0.0
 40
0.888911
  0
CIRCLE
  5
3E7
  8
1
 10
1039.117625
 20
-787.320949
 30
0.0
 40
0.888911
  0
ENDBLK
  5
3E8
  8
0
  0
BLOCK
  5
3EA
  8
1
  2
*U85
 70
    65
 10
0.0
 20
0.0
 30
0.0
  3
*U85
  1

  0
CIRCLE
  5
3EB
  8
1
 10
1064.701823
 20
-772.549906
 30
0.0
 40
0.888911
  0
CIRCLE
  5
3EC
  8
1
 10
1064.701823
 20
-802.091992
 30
0.0
 40
0.888911
  0
CIRCLE
  5
3ED
  8
1
 10
1077.493921
 20
-779.935427
 30
0.0
 40
0.888911
  0
CIRCLE
  5
3EE
  8
1
 10
1077.493921
 20
-794.70647
 30
0.0
 40
0.888911
  0
CIRCLE
  5
3EF
  8
1
 10
1077.493921
 20
-809.477514
 30
0.0
 40
0.888911
  0
CIRCLE
  5
3F0
  8
1
 10
1064.701823
 20
-787.320949
 30
0.0
 40
0.888911
  0
ENDBLK
  5
3F1
  8
0
  0
BLOCK
  5
3F3
  8
1
  2
*U86
 70
    65
 10
0.0
 20
0.0
 30
0.0
  3
*U86
  1

  0
CIRCLE
  5
3F4
  8
1
 10
1090.28602
 20
-772.549906
 30
0.0
 40
0.888911
  0
CIRCLE
  5
3F5
  8
1
 10
1090.28602
 20
-802.091992
 30
0.0
 40
0.888911
  0
CIRCLE
  5
3F6
  8
1
 10
1103.078119
 20
-779.935427
 30
0.0
 40
0.888911
  0
CIRCLE
  5
3F7
  8
1
 10
1103.078119
 20
-794.70647
 30
0.0
 40
0.888911
  0
CIRCLE
  5
3F8
  8
1
 10
1103.078119
 20
-809.477514
 30
0.0
 40
0.888911
  0
CIRCLE
  5
3F9
  8
1
 10
1090.28602
 20
-787.320949
 30
0.0
 40
0.888911
  0
ENDBLK
  5
3FA
  8
0
  0
BLOCK
  5
3FC
  8
1
  2
*U87
 70
    65
 10
0.0
 20
0.0
 30
0.0
  3
*U87
  1

  0
CIRCLE
  5
3FD
  8
1
 10
1115.870218
 20
-772.549906
 30
0.0
 40
0.888911
  0
CIRCLE
  5
3FE
  8
1
 10
1115.870218
 20
-802.091992
 30
0.0
 40
0.888911
  0
CIRCLE
  5
3FF
  8
1
 10
1128.662316
 20
-779.935427
 30
0.0
 40
0.888911
  0
CIRCLE
  5
400
  8
1
 10
1128.662316
 20
-794.70647
 30
0.0
 40
0.888911
  0
CIRCLE
  5
401
  8
1
 10
1128.662316
 20
-809.477514
 30
0.0
 40
0.888911
  0
CIRCLE
  5
402
  8
1
 10
1115.870218
 20
-787.320949
 30
0.0
 40
0.888911
  0
ENDBLK
  5
403
  8
0
  0
BLOCK
  5
405
  8
1
  2
*U88
 70
    65
 10
0.0
 20
0.0
 30
0.0
  3
*U88
  1

  0
CIRCLE
  5
406
  8
1
 10
1141.454415
 20
-772.549906
 30
0.0
 40
0.888911
  0
CIRCLE
  5
407
  8
1
 10
1141.454415
 20
-802.091992
 30
0.0
 40
0.888911
  0
CIRCLE
  5
408
  8
1
 10
1154.246514
 20
-779.935427
 30
0.0
 40
0.888911
  0
CIRCLE
  5
409
  8
1
 10
1154.246514
 20
-794.70647
 30
0.0
 40
0.888911
  0
CIRCLE
  5
40A
  8
1
 10
1154.246514
 20
-809.477514
 30
0.0
 40
0.888911
  0
CIRCLE
  5
40B
  8
1
 10
1141.454415
 20
-787.320949
 30
0.0
 40
0.888911
  0
ENDBLK
  5
40C
  8
0
  0
BLOCK
  5
40E
  8
1
  2
*U89
 70
    65
 10
0.0
 20
0.0
 30
0.0
  3
*U89
  1

  0
CIRCLE
  5
40F
  8
1
 10
1167.038612
 20
-772.549906
 30
0.0
 40
0.888911
  0
CIRCLE
  5
410
  8
1
 10
1167.038612
 20
-802.091992
 30
0.0
 40
0.888911
  0
CIRCLE
  5
411
  8
1
 10
1179.830711
 20
-779.935427
 30
0.0
 40
0.888911
  0
CIRCLE
  5
412
  8
1
 10
1179.830711
 20
-794.70647
 30
0.0
 40
0.888911
  0
CIRCLE
  5
413
  8
1
 10
1179.830711
 20
-809.477514
 30
0.0
 40
0.888911
  0
CIRCLE
  5
414
  8
1
 10
1167.038612
 20
-787.320949
 30
0.0
 40
0.888911
  0
ENDBLK
  5
415
  8
0
  0
BLOCK
  5
417
  8
1
  2
*U90
 70
    65
 10
0.0
 20
0.0
 30
0.0
  3
*U90
  1

  0
CIRCLE
  5
418
  8
1
 10
1192.62281
 20
-772.549906
 30
0.0
 40
0.888911
  0
CIRCLE
  5
419
  8
1
 10
1192.62281
 20
-802.091992
 30
0.0
 40
0.888911
  0
CIRCLE
  5
41A
  8
1
 10
1205.414908
 20
-779.935427
 30
0.0
 40
0.888911
  0
CIRCLE
  5
41B
  8
1
 10
1205.414908
 20
-794.70647
 30
0.0
 40
0.888911
  0
CIRCLE
  5
41C
  8
1
 10
1205.414908
 20
-809.477514
 30
0.0
 40
0.888911
  0
CIRCLE
  5
41D
  8
1
 10
1192.62281
 20
-787.320949
 30
0.0
 40
0.888911
  0
ENDBLK
  5
41E
  8
0
  0
BLOCK
  5
420
  8
1
  2
*U91
 70
    65
 10
0.0
 20
0.0
 30
0.0
  3
*U91
  1

  0
CIRCLE
  5
421
  8
1
 10
1218.207007
 20
-772.549906
 30
0.0
 40
0.888911
  0
CIRCLE
  5
422
  8
1
 10
1218.207007
 20
-802.091992
 30
0.0
 40
0.888911
  0
CIRCLE
  5
423
  8
1
 10
1230.999106
 20
-779.935427
 30
0.0
 40
0.888911
  0
CIRCLE
  5
424
  8
1
 10
1230.999106
 20
-794.70647
 30
0.0
 40
0.888911
  0
CIRCLE
  5
425
  8
1
 10
1230.999106
 20
-809.477514
 30
0.0
 40
0.888911
  0
CIRCLE
  5
426
  8
1
 10
1218.207007
 20
-787.320949
 30
0.0
 40
0.888911
  0
ENDBLK
  5
427
  8
0
  0
BLOCK
  5
429
  8
1
  2
*U92
 70
    65
 10
0.0
 20
0.0
 30
0.0
  3
*U92
  1

  0
CIRCLE
  5
42A
  8
1
 10
1243.791205
 20
-772.549906
 30
0.0
 40
0.888911
  0
CIRCLE
  5
42B
  8
1
 10
1243.791205
 20
-802.091992
 30
0.0
 40
0.888911
  0
CIRCLE
  5
42C
  8
1
 10
1256.583303
 20
-779.935427
 30
0.0
 40
0.888911
  0
CIRCLE
  5
42D
  8
1
 10
1256.583303
 20
-794.70647
 30
0.0
 40
0.888911
  0
CIRCLE
  5
42E
  8
1
 10
1256.583303
 20
-809.477514
 30
0.0
 40
0.888911
  0
CIRCLE
  5
42F
  8
1
 10
1243.791205
 20
-787.320949
 30
0.0
 40
0.888911
  0
ENDBLK
  5
430
  8
0
  0
BLOCK
  5
432
  8
1
  2
*U93
 70
    65
 10
0.0
 20
0.0
 30
0.0
  3
*U93
  1

  0
CIRCLE
  5
433
  8
1
 10
1269.375402
 20
-772.549906
 30
0.0
 40
0.888911
  0
CIRCLE
  5
434
  8
1
 10
1269.375402
 20
-802.091992
 30
0.0
 40
0.888911
  0
CIRCLE
  5
435
  8
1
 10
1282.167501
 20
-779.935427
 30
0.0
 40
0.888911
  0
CIRCLE
  5
436
  8
1
 10
1282.167501
 20
-794.70647
 30
0.0
 40
0.888911
  0
CIRCLE
  5
437
  8
1
 10
1282.167501
 20
-809.477514
 30
0.0
 40
0.888911
  0
CIRCLE
  5
438
  8
1
 10
1269.375402
 20
-787.320949
 30
0.0
 40
0.888911
  0
ENDBLK
  5
439
  8
0
  0
BLOCK
  5
43B
  8
1
  2
*U94
 70
    65
 10
0.0
 20
0.0
 30
0.0
  3
*U94
  1

  0
CIRCLE
  5
43C
  8
1
 10
1294.959599
 20
-772.549906
 30
0.0
 40
0.888911
  0
CIRCLE
  5
43D
  8
1
 10
1294.959599
 20
-802.091992
 30
0.0
 40
0.888911
  0
CIRCLE
  5
43E
  8
1
 10
1307.751698
 20
-779.935427
 30
0.0
 40
0.888911
  0
CIRCLE
  5
43F
  8
1
 10
1307.751698
 20
-794.70647
 30
0.0
 40
0.888911
  0
CIRCLE
  5
440
  8
1
 10
1307.751698
 20
-809.477514
 30
0.0
 40
0.888911
  0
CIRCLE
  5
441
  8
1
 10
1294.959599
 20
-787.320949
 30
0.0
 40
0.888911
  0
ENDBLK
  5
442
  8
0
  0
BLOCK
  5
444
  8
1
  2
*U95
 70
    65
 10
0.0
 20
0.0
 30
0.0
  3
*U95
  1

  0
CIRCLE
  5
445
  8
1
 10
1320.543797
 20
-772.549906
 30
0.0
 40
0.888911
  0
CIRCLE
  5
446
  8
1
 10
1320.543797
 20
-802.091992
 30
0.0
 40
0.888911
  0
CIRCLE
  5
447
  8
1
 10
1333.335896
 20
-779.935427
 30
0.0
 40
0.888911
  0
CIRCLE
  5
448
  8
1
 10
1333.335896
 20
-794.70647
 30
0.0
 40
0.888911
  0
CIRCLE
  5
449
  8
1
 10
1333.335896
 20
-809.477514
 30
0.0
 40
0.888911
  0
CIRCLE
  5
44A
  8
1
 10
1320.543797
 20
-787.320949
 30
0.0
 40
0.888911
  0
ENDBLK
  5
44B
  8
0
  0
BLOCK
  5
44D
  8
1
  2
*U96
 70
    65
 10
0.0
 20
0.0
 30
0.0
  3
*U96
  1

  0
CIRCLE
  5
44E
  8
1
 10
1346.127994
 20
-772.549906
 30
0.0
 40
0.888911
  0
CIRCLE
  5
44F
  8
1
 10
1346.127994
 20
-802.091992
 30
0.0
 40
0.888911
  0
CIRCLE
  5
450
  8
1
 10
1358.920093
 20
-779.935427
 30
0.0
 40
0.888911
  0
CIRCLE
  5
451
  8
1
 10
1358.920093
 20
-794.70647
 30
0.0
 40
0.888911
  0
CIRCLE
  5
452
  8
1
 10
1358.920093
 20
-809.477514
 30
0.0
 40
0.888911
  0
CIRCLE
  5
453
  8
1
 10
1346.127994
 20
-787.320949
 30
0.0
 40
0.888911
  0
ENDBLK
  5
454
  8
0
  0
BLOCK
  5
456
  8
1
  2
*U97
 70
    65
 10
0.0
 20
0.0
 30
0.0
  3
*U97
  1

  0
CIRCLE
  5
457
  8
1
 10
1371.712192
 20
-772.549906
 30
0.0
 40
0.888911
  0
CIRCLE
  5
458
  8
1
 10
1371.712192
 20
-802.091992
 30
0.0
 40
0.888911
  0
CIRCLE
  5
459
  8
1
 10
1384.50429
 20
-779.935427
 30
0.0
 40
0.888911
  0
CIRCLE
  5
45A
  8
1
 10
1384.50429
 20
-794.70647
 30
0.0
 40
0.888911
  0
CIRCLE
  5
45B
  8
1
 10
1384.50429
 20
-809.477514
 30
0.0
 40
0.888911
  0
CIRCLE
  5
45C
  8
1
 10
1371.712192
 20
-787.320949
 30
0.0
 40
0.888911
  0
ENDBLK
  5
45D
  8
0
  0
BLOCK
  5
45F
  8
1
  2
*U98
 70
    65
 10
0.0
 20
0.0
 30
0.0
  3
*U98
  1

  0
CIRCLE
  5
460
  8
1
 10
1397.296389
 20
-772.549906
 30
0.0
 40
0.888911
  0
CIRCLE
  5
461
  8
1
 10
1397.296389
 20
-802.091992
 30
0.0
 40
0.888911
  0
CIRCLE
  5
462
  8
1
 10
1410.088488
 20
-779.935427
 30
0.0
 40
0.888911
  0
CIRCLE
  5
463
  8
1
 10
1410.088488
 20
-794.70647
 30
0.0
 40
0.888911
  0
CIRCLE
  5
464
  8
1
 10
1410.088488
 20
-809.477514
 30
0.0
 40
0.888911
  0
CIRCLE
  5
465
  8
1
 10
1397.296389
 20
-787.320949
 30
0.0
 40
0.888911
  0
ENDBLK
  5
466
  8
0
  0
BLOCK
  5
468
  8
1
  2
*U99
 70
    65
 10
0.0
 20
0.0
 30
0.0
  3
*U99
  1

  0
CIRCLE
  5
469
  8
1
 10
1422.880586
 20
-772.549906
 30
0.0
 40
0.888911
  0
CIRCLE
  5
46A
  8
1
 10
1422.880586
 20
-802.091992
 30
0.0
 40
0.888911
  0
CIRCLE
  5
46B
  8
1
 10
1435.672685
 20
-779.935427
 30
0.0
 40
0.888911
  0
CIRCLE
  5
46C
  8
1
 10
1435.672685
 20
-794.70647
 30
0.0
 40
0.888911
  0
CIRCLE
  5
46D
  8
1
 10
1435.672685
 20
-809.477514
 30
0.0
 40
0.888911
  0
CIRCLE
  5
46E
  8
1
 10
1422.880586
 20
-787.320949
 30
0.0
 40
0.888911
  0
ENDBLK
  5
46F
  8
0
  0
BLOCK
  5
471
  8
1
  2
*U100
 70
    65
 10
0.0
 20
0.0
 30
0.0
  3
*U100
  1

  0
CIRCLE
  5
472
  8
1
 10
1448.464784
 20
-772.549906
 30
0.0
 40
0.888911
  0
CIRCLE
  5
473
  8
1
 10
1448.464784
 20
-802.091992
 30
0.0
 40
0.888911
  0
CIRCLE
  5
474
  8
1
 10
1461.256883
 20
-779.935427
 30
0.0
 40
0.888911
  0
CIRCLE
  5
475
  8
1
 10
1461.256883
 20
-794.70647
 30
0.0
 40
0.888911
  0
CIRCLE
  5
476
  8
1
 10
1461.256883
 20
-809.477514
 30
0.0
 40
0.888911
  0
CIRCLE
  5
477
  8
1
 10
1448.464784
 20
-787.320949
 30
0.0
 40
0.888911
  0
ENDBLK
  5
478
  8
0
  0
BLOCK
  5
47A
  8
1
  2
*U101
 70
    65
 10
0.0
 20
0.0
 30
0.0
  3
*U101
  1

  0
CIRCLE
  5
47B
  8
1
 10
1474.048981
 20
-772.549906
 30
0.0
 40
0.888911
  0
CIRCLE
  5
47C
  8
1
 10
1474.048981
 20
-802.091992
 30
0.0
 40
0.888911
  0
CIRCLE
  5
47D
  8
1
 10
1486.84108
 20
-779.935427
 30
0.0
 40
0.888911
  0
CIRCLE
  5
47E
  8
1
 10
1486.84108
 20
-794.70647
 30
0.0
 40
0.888911
  0
CIRCLE
  5
47F
  8
1
 10
1486.84108
 20
-809.477514
 30
0.0
 40
0.888911
  0
CIRCLE
  5
480
  8
1
 10
1474.048981
 20
-787.320949
 30
0.0
 40
0.888911
  0
ENDBLK
  5
481
  8
0
  0
BLOCK
  5
483
  8
1
  2
*U102
 70
    65
 10
0.0
 20
0.0
 30
0.0
  3
*U102
  1

  0
CIRCLE
  5
484
  8
1
 10
1499.633179
 20
-772.549906
 30
0.0
 40
0.888911
  0
CIRCLE
  5
485
  8
1
 10
1499.633179
 20
-802.091992
 30
0.0
 40
0.888911
  0
CIRCLE
  5
486
  8
1
 10
1512.425277
 20
-779.935427
 30
0.0
 40
0.888911
  0
CIRCLE
  5
487
  8
1
 10
1512.425277
 20
-794.70647
 30
0.0
 40
0.888911
  0
CIRCLE
  5
488
  8
1
 10
1512.425277
 20
-809.477514
 30
0.0
 40
0.888911
  0
CIRCLE
  5
489
  8
1
 10
1499.633179
 20
-787.320949
 30
0.0
 40
0.888911
  0
ENDBLK
  5
48A
  8
0
  0
BLOCK
  5
48C
  8
1
  2
*U103
 70
    65
 10
0.0
 20
0.0
 30
0.0
  3
*U103
  1

  0
CIRCLE
  5
48D
  8
1
 10
1525.217376
 20
-772.549906
 30
0.0
 40
0.888911
  0
CIRCLE
  5
48E
  8
1
 10
1525.217376
 20
-802.091992
 30
0.0
 40
0.888911
  0
CIRCLE
  5
48F
  8
1
 10
1538.009475
 20
-779.935427
 30
0.0
 40
0.888911
  0
CIRCLE
  5
490
  8
1
 10
1538.009475
 20
-794.70647
 30
0.0
 40
0.888911
  0
CIRCLE
  5
491
  8
1
 10
1538.009475
 20
-809.477514
 30
0.0
 40
0.888911
  0
CIRCLE
  5
492
  8
1
 10
1525.217376
 20
-787.320949
 30
0.0
 40
0.888911
  0
ENDBLK
  5
493
  8
0
  0
BLOCK
  5
495
  8
1
  2
*U104
 70
    65
 10
0.0
 20
0.0
 30
0.0
  3
*U104
  1

  0
CIRCLE
  5
496
  8
1
 10
1550.801574
 20
-772.549906
 30
0.0
 40
0.888911
  0
CIRCLE
  5
497
  8
1
 10
1550.801574
 20
-802.091992
 30
0.0
 40
0.888911
  0
CIRCLE
  5
498
  8
1
 10
1563.593672
 20
-779.935427
 30
0.0
 40
0.888911
  0
CIRCLE
  5
499
  8
1
 10
1563.593672
 20
-794.70647
 30
0.0
 40
0.888911
  0
CIRCLE
  5
49A
  8
1
 10
1563.593672
 20
-809.477514
 30
0.0
 40
0.888911
  0
CIRCLE
  5
49B
  8
1
 10
1550.801574
 20
-787.320949
 30
0.0
 40
0.888911
  0
ENDBLK
  5
49C
  8
0
  0
BLOCK
  5
49E
  8
1
  2
*U105
 70
    65
 10
0.0
 20
0.0
 30
0.0
  3
*U105
  1

  0
CIRCLE
  5
49F
  8
1
 10
1576.385771
 20
-772.549906
 30
0.0
 40
0.888911
  0
CIRCLE
  5
4A0
  8
1
 10
1576.385771
 20
-802.091992
 30
0.0
 40
0.888911
  0
CIRCLE
  5
4A1
  8
1
 10
1589.17787
 20
-779.935427
 30
0.0
 40
0.888911
  0
CIRCLE
  5
4A2
  8
1
 10
1589.17787
 20
-794.70647
 30
0.0
 40
0.888911
  0
CIRCLE
  5
4A3
  8
1
 10
1589.17787
 20
-809.477514
 30
0.0
 40
0.888911
  0
CIRCLE
  5
4A4
  8
1
 10
1576.385771
 20
-787.320949
 30
0.0
 40
0.888911
  0
ENDBLK
  5
4A5
  8
0
  0
BLOCK
  5
4A7
  8
1
  2
*U106
 70
    65
 10
0.0
 20
0.0
 30
0.0
  3
*U106
  1

  0
CIRCLE
  5
4A8
  8
1
 10
1601.969968
 20
-772.549906
 30
0.0
 40
0.888911
  0
CIRCLE
  5
4A9
  8
1
 10
1601.969968
 20
-802.091992
 30
0.0
 40
0.888911
  0
CIRCLE
  5
4AA
  8
1
 10
1614.762067
 20
-779.935427
 30
0.0
 40
0.888911
  0
CIRCLE
  5
4AB
  8
1
 10
1614.762067
 20
-794.70647
 30
0.0
 40
0.888911
  0
CIRCLE
  5
4AC
  8
1
 10
1614.762067
 20
-809.477514
 30
0.0
 40
0.888911
  0
CIRCLE
  5
4AD
  8
1
 10
1601.969968
 20
-787.320949
 30
0.0
 40
0.888911
  0
ENDBLK
  5
4AE
  8
0
  0
BLOCK
  5
4B0
  8
1
  2
*U107
 70
    65
 10
0.0
 20
0.0
 30
0.0
  3
*U107
  1

  0
CIRCLE
  5
4B1
  8
1
 10
1627.554166
 20
-772.549906
 30
0.0
 40
0.888911
  0
CIRCLE
  5
4B2
  8
1
 10
1627.554166
 20
-802.091992
 30
0.0
 40
0.888911
  0
CIRCLE
  5
4B3
  8
1
 10
1640.346264
 20
-779.935427
 30
0.0
 40
0.888911
  0
CIRCLE
  5
4B4
  8
1
 10
1640.346264
 20
-794.70647
 30
0.0
 40
0.888911
  0
CIRCLE
  5
4B5
  8
1
 10
1640.346264
 20
-809.477514
 30
0.0
 40
0.888911
  0
CIRCLE
  5
4B6
  8
1
 10
1627.554166
 20
-787.320949
 30
0.0
 40
0.888911
  0
ENDBLK
  5
4B7
  8
0
  0
BLOCK
  5
4B9
  8
1
  2
*U108
 70
    65
 10
0.0
 20
0.0
 30
0.0
  3
*U108
  1

  0
CIRCLE
  5
4BA
  8
1
 10
1653.138363
 20
-772.549906
 30
0.0
 40
0.888911
  0
CIRCLE
  5
4BB
  8
1
 10
1653.138363
 20
-802.091992
 30
0.0
 40
0.888911
  0
CIRCLE
  5
4BC
  8
1
 10
1665.930462
 20
-779.935427
 30
0.0
 40
0.888911
  0
CIRCLE
  5
4BD
  8
1
 10
1665.930462
 20
-794.70647
 30
0.0
 40
0.888911
  0
CIRCLE
  5
4BE
  8
1
 10
1665.930462
 20
-809.477514
 30
0.0
 40
0.888911
  0
CIRCLE
  5
4BF
  8
1
 10
1653.138363
 20
-787.320949
 30
0.0
 40
0.888911
  0
ENDBLK
  5
4C0
  8
0
  0
BLOCK
  5
4C2
  8
1
  2
*U109
 70
    65
 10
0.0
 20
0.0
 30
0.0
  3
*U109
  1

  0
CIRCLE
  5
4C3
  8
1
 10
1678.722561
 20
-772.549906
 30
0.0
 40
0.888911
  0
CIRCLE
  5
4C4
  8
1
 10
1678.722561
 20
-802.091992
 30
0.0
 40
0.888911
  0
CIRCLE
  5
4C5
  8
1
 10
1691.514659
 20
-779.935427
 30
0.0
 40
0.888911
  0
CIRCLE
  5
4C6
  8
1
 10
1691.514659
 20
-794.70647
 30
0.0
 40
0.888911
  0
CIRCLE
  5
4C7
  8
1
 10
1691.514659
 20
-809.477514
 30
0.0
 40
0.888911
  0
CIRCLE
  5
4C8
  8
1
 10
1678.722561
 20
-787.320949
 30
0.0
 40
0.888911
  0
ENDBLK
  5
4C9
  8
0
  0
BLOCK
  5
4CB
  8
1
  2
*U110
 70
    65
 10
0.0
 20
0.0
 30
0.0
  3
*U110
  1

  0
CIRCLE
  5
4CC
  8
1
 10
1704.306758
 20
-772.549906
 30
0.0
 40
0.888911
  0
CIRCLE
  5
4CD
  8
1
 10
1704.306758
 20
-802.091992
 30
0.0
 40
0.888911
  0
CIRCLE
  5
4CE
  8
1
 10
1717.098857
 20
-779.935427
 30
0.0
 40
0.888911
  0
CIRCLE
  5
4CF
  8
1
 10
1717.098857
 20
-794.70647
 30
0.0
 40
0.888911
  0
CIRCLE
  5
4D0
  8
1
 10
1717.098857
 20
-809.477514
 30
0.0
 40
0.888911
  0
CIRCLE
  5
4D1
  8
1
 10
1704.306758
 20
-787.320949
 30
0.0
 40
0.888911
  0
ENDBLK
  5
4D2
  8
0
  0
BLOCK
  5
4D4
  8
1
  2
*U111
 70
    65
 10
0.0
 20
0.0
 30
0.0
  3
*U111
  1

  0
CIRCLE
  5
4D5
  8
1
 10
1729.890955
 20
-772.549906
 30
0.0
 40
0.888911
  0
CIRCLE
  5
4D6
  8
1
 10
1729.890955
 20
-802.091992
 30
0.0
 40
0.888911
  0
CIRCLE
  5
4D7
  8
1
 10
1742.683054
 20
-779.935427
 30
0.0
 40
0.888911
  0
CIRCLE
  5
4D8
  8
1
 10
1742.683054
 20
-794.70647
 30
0.0
 40
0.888911
  0
CIRCLE
  5
4D9
  8
1
 10
1742.683054
 20
-809.477514
 30
0.0
 40
0.888911
  0
CIRCLE
  5
4DA
  8
1
 10
1729.890955
 20
-787.320949
 30
0.0
 40
0.888911
  0
ENDBLK
  5
4DB
  8
0
  0
BLOCK
  5
4DD
  8
1
  2
*U112
 70
    65
 10
0.0
 20
0.0
 30
0.0
  3
*U112
  1

  0
CIRCLE
  5
4DE
  8
1
 10
1755.475153
 20
-772.549906
 30
0.0
 40
0.888911
  0
CIRCLE
  5
4DF
  8
1
 10
1755.475153
 20
-802.091992
 30
0.0
 40
0.888911
  0
CIRCLE
  5
4E0
  8
1
 10
1768.267252
 20
-779.935427
 30
0.0
 40
0.888911
  0
CIRCLE
  5
4E1
  8
1
 10
1768.267252
 20
-794.70647
 30
0.0
 40
0.888911
  0
CIRCLE
  5
4E2
  8
1
 10
1768.267252
 20
-809.477514
 30
0.0
 40
0.888911
  0
CIRCLE
  5
4E3
  8
1
 10
1755.475153
 20
-787.320949
 30
0.0
 40
0.888911
  0
ENDBLK
  5
4E4
  8
0
  0
BLOCK
  5
4E6
  8
1
  2
*U113
 70
    65
 10
0.0
 20
0.0
 30
0.0
  3
*U113
  1

  0
CIRCLE
  5
4E7
  8
1
 10
1781.05935
 20
-772.549906
 30
0.0
 40
0.888911
  0
CIRCLE
  5
4E8
  8
1
 10
1781.05935
 20
-802.091992
 30
0.0
 40
0.888911
  0
CIRCLE
  5
4E9
  8
1
 10
1793.851449
 20
-779.935427
 30
0.0
 40
0.888911
  0
CIRCLE
  5
4EA
  8
1
 10
1793.851449
 20
-794.70647
 30
0.0
 40
0.888911
  0
CIRCLE
  5
4EB
  8
1
 10
1793.851449
 20
-809.477514
 30
0.0
 40
0.888911
  0
CIRCLE
  5
4EC
  8
1
 10
1781.05935
 20
-787.320949
 30
0.0
 40
0.888911
  0
ENDBLK
  5
4ED
  8
0
  0
BLOCK
  5
4EF
  8
1
  2
*U114
 70
    65
 10
0.0
 20
0.0
 30
0.0
  3
*U114
  1

  0
CIRCLE
  5
4F0
  8
1
 10
1806.643548
 20
-772.549906
 30
0.0
 40
0.888911
  0
CIRCLE
  5
4F1
  8
1
 10
1806.643548
 20
-802.091992
 30
0.0
 40
0.888911
  0
CIRCLE
  5
4F2
  8
1
 10
1819.435646
 20
-779.935427
 30
0.0
 40
0.888911
  0
CIRCLE
  5
4F3
  8
1
 10
1819.435646
 20
-794.70647
 30
0.0
 40
0.888911
  0
CIRCLE
  5
4F4
  8
1
 10
1819.435646
 20
-809.477514
 30
0.0
 40
0.888911
  0
CIRCLE
  5
4F5
  8
1
 10
1806.643548
 20
-787.320949
 30
0.0
 40
0.888911
  0
ENDBLK
  5
4F6
  8
0
  0
BLOCK
  5
4F8
  8
1
  2
*U115
 70
    65
 10
0.0
 20
0.0
 30
0.0
  3
*U115
  1

  0
CIRCLE
  5
4F9
  8
1
 10
1832.227745
 20
-772.549906
 30
0.0
 40
0.888911
  0
CIRCLE
  5
4FA
  8
1
 10
1832.227745
 20
-802.091992
 30
0.0
 40
0.888911
  0
CIRCLE
  5
4FB
  8
1
 10
1845.019844
 20
-779.935427
 30
0.0
 40
0.888911
  0
CIRCLE
  5
4FC
  8
1
 10
1845.019844
 20
-794.70647
 30
0.0
 40
0.888911
  0
CIRCLE
  5
4FD
  8
1
 10
1845.019844
 20
-809.477514
 30
0.0
 40
0.888911
  0
CIRCLE
  5
4FE
  8
1
 10
1832.227745
 20
-787.320949
 30
0.0
 40
0.888911
  0
ENDBLK
  5
4FF
  8
0
  0
BLOCK
  5
501
  8
1
  2
*U116
 70
    65
 10
0.0
 20
0.0
 30
0.0
  3
*U116
  1

  0
CIRCLE
  5
502
  8
1
 10
1857.811943
 20
-772.549906
 30
0.0
 40
0.888911
  0
CIRCLE
  5
503
  8
1
 10
1857.811943
 20
-802.091992
 30
0.0
 40
0.888911
  0
CIRCLE
  5
504
  8
1
 10
1870.604041
 20
-779.935427
 30
0.0
 40
0.888911
  0
CIRCLE
  5
505
  8
1
 10
1870.604041
 20
-794.70647
 30
0.0
 40
0.888911
  0
CIRCLE
  5
506
  8
1
 10
1870.604041
 20
-809.477514
 30
0.0
 40
0.888911
  0
CIRCLE
  5
507
  8
1
 10
1857.811943
 20
-787.320949
 30
0.0
 40
0.888911
  0
ENDBLK
  5
508
  8
0
  0
BLOCK
  5
50A
  8
1
  2
*U117
 70
    65
 10
0.0
 20
0.0
 30
0.0
  3
*U117
  1

  0
CIRCLE
  5
50B
  8
1
 10
1883.39614
 20
-772.549906
 30
0.0
 40
0.888911
  0
CIRCLE
  5
50C
  8
1
 10
1883.39614
 20
-802.091992
 30
0.0
 40
0.888911
  0
CIRCLE
  5
50D
  8
1
 10
1883.39614
 20
-787.320949
 30
0.0
 40
0.888911
  0
ENDBLK
  5
50E
  8
0
  0
BLOCK
  5
510
  8
1
  2
*U118
 70
    65
 10
0.0
 20
0.0
 30
0.0
  3
*U118
  1

  0
CIRCLE
  5
511
  8
1
 10
613.644455
 20
-691.919848
 30
0.0
 40
0.888911
  0
CIRCLE
  5
512
  8
1
 10
613.644455
 20
-721.461934
 30
0.0
 40
0.888911
  0
CIRCLE
  5
513
  8
1
 10
626.436554
 20
-699.305369
 30
0.0
 40
0.888911
  0
CIRCLE
  5
514
  8
1
 10
626.436554
 20
-714.076412
 30
0.0
 40
0.888911
  0
CIRCLE
  5
515
  8
1
 10
613.644455
 20
-706.690891
 30
0.0
 40
0.888911
  0
ENDBLK
  5
516
  8
0
  0
BLOCK
  5
518
  8
1
  2
*U119
 70
    65
 10
0.0
 20
0.0
 30
0.0
  3
*U119
  1

  0
CIRCLE
  5
519
  8
1
 10
639.228652
 20
-691.919848
 30
0.0
 40
0.888911
  0
CIRCLE
  5
51A
  8
1
 10
639.228652
 20
-721.461934
 30
0.0
 40
0.888911
  0
CIRCLE
  5
51B
  8
1
 10
652.020751
 20
-699.305369
 30
0.0
 40
0.888911
  0
CIRCLE
  5
51C
  8
1
 10
652.020751
 20
-714.076412
 30
0.0
 40
0.888911
  0
CIRCLE
  5
51D
  8
1
 10
639.228652
 20
-706.690891
 30
0.0
 40
0.888911
  0
ENDBLK
  5
51E
  8
0
  0
BLOCK
  5
520
  8
1
  2
*U120
 70
    65
 10
0.0
 20
0.0
 30
0.0
  3
*U120
  1

  0
CIRCLE
  5
521
  8
1
 10
664.81285
 20
-691.919848
 30
0.0
 40
0.888911
  0
CIRCLE
  5
522
  8
1
 10
664.81285
 20
-721.461934
 30
0.0
 40
0.888911
  0
CIRCLE
  5
523
  8
1
 10
677.604949
 20
-699.305369
 30
0.0
 40
0.888911
  0
CIRCLE
  5
524
  8
1
 10
677.604949
 20
-714.076412
 30
0.0
 40
0.888911
  0
CIRCLE
  5
525
  8
1
 10
664.81285
 20
-706.690891
 30
0.0
 40
0.888911
  0
ENDBLK
  5
526
  8
0
  0
BLOCK
  5
528
  8
1
  2
*U121
 70
    65
 10
0.0
 20
0.0
 30
0.0
  3
*U121
  1

  0
CIRCLE
  5
529
  8
1
 10
690.397047
 20
-691.919848
 30
0.0
 40
0.888911
  0
CIRCLE
  5
52A
  8
1
 10
690.397047
 20
-721.461934
 30
0.0
 40
0.888911
  0
CIRCLE
  5
52B
  8
1
 10
703.189146
 20
-699.305369
 30
0.0
 40
0.888911
  0
CIRCLE
  5
52C
  8
1
 10
703.189146
 20
-714.076412
 30
0.0
 40
0.888911
  0
CIRCLE
  5
52D
  8
1
 10
690.397047
 20
-706.690891
 30
0.0
 40
0.888911
  0
ENDBLK
  5
52E
  8
0
  0
BLOCK
  5
530
  8
1
  2
*U122
 70
    65
 10
0.0
 20
0.0
 30
0.0
  3
*U122
  1

  0
CIRCLE
  5
531
  8
1
 10
715.981245
 20
-691.919848
 30
0.0
 40
0.888911
  0
CIRCLE
  5
532
  8
1
 10
715.981245
 20
-721.461934
 30
0.0
 40
0.888911
  0
CIRCLE
  5
533
  8
1
 10
728.773343
 20
-699.305369
 30
0.0
 40
0.888911
  0
CIRCLE
  5
534
  8
1
 10
728.773343
 20
-714.076412
 30
0.0
 40
0.888911
  0
CIRCLE
  5
535
  8
1
 10
715.981245
 20
-706.690891
 30
0.0
 40
0.888911
  0
ENDBLK
  5
536
  8
0
  0
BLOCK
  5
538
  8
1
  2
*U123
 70
    65
 10
0.0
 20
0.0
 30
0.0
  3
*U123
  1

  0
CIRCLE
  5
539
  8
1
 10
741.565442
 20
-691.919848
 30
0.0
 40
0.888911
  0
CIRCLE
  5
53A
  8
1
 10
741.565442
 20
-721.461934
 30
0.0
 40
0.888911
  0
CIRCLE
  5
53B
  8
1
 10
754.357541
 20
-699.305369
 30
0.0
 40
0.888911
  0
CIRCLE
  5
53C
  8
1
 10
754.357541
 20
-714.076412
 30
0.0
 40
0.888911
  0
CIRCLE
  5
53D
  8
1
 10
741.565442
 20
-706.690891
 30
0.0
 40
0.888911
  0
ENDBLK
  5
53E
  8
0
  0
BLOCK
  5
540
  8
1
  2
*U124
 70
    65
 10
0.0
 20
0.0
 30
0.0
  3
*U124
  1

  0
CIRCLE
  5
541
  8
1
 10
767.14964
 20
-691.919848
 30
0.0
 40
0.888911
  0
CIRCLE
  5
542
  8
1
 10
767.14964
 20
-721.461934
 30
0.0
 40
0.888911
  0
CIRCLE
  5
543
  8
1
 10
779.941738
 20
-699.305369
 30
0.0
 40
0.888911
  0
CIRCLE
  5
544
  8
1
 10
779.941738
 20
-714.076412
 30
0.0
 40
0.888911
  0
CIRCLE
  5
545
  8
1
 10
767.14964
 20
-706.690891
 30
0.0
 40
0.888911
  0
ENDBLK
  5
546
  8
0
  0
BLOCK
  5
548
  8
1
  2
*U125
 70
    65
 10
0.0
 20
0.0
 30
0.0
  3
*U125
  1

  0
CIRCLE
  5
549
  8
1
 10
792.733837
 20
-691.919848
 30
0.0
 40
0.888911
  0
CIRCLE
  5
54A
  8
1
 10
792.733837
 20
-721.461934
 30
0.0
 40
0.888911
  0
CIRCLE
  5
54B
  8
1
 10
805.525936
 20
-699.305369
 30
0.0
 40
0.888911
  0
CIRCLE
  5
54C
  8
1
 10
805.525936
 20
-714.076412
 30
0.0
 40
0.888911
  0
CIRCLE
  5
54D
  8
1
 10
792.733837
 20
-706.690891
 30
0.0
 40
0.888911
  0
ENDBLK
  5
54E
  8
0
  0
BLOCK
  5
550
  8
1
  2
*U126
 70
    65
 10
0.0
 20
0.0
 30
0.0
  3
*U126
  1

  0
CIRCLE
  5
551
  8
1
 10
818.318034
 20
-691.919848
 30
0.0
 40
0.888911
  0
CIRCLE
  5
552
  8
1
 10
818.318034
 20
-721.461934
 30
0.0
 40
0.888911
  0
CIRCLE
  5
553
  8
1
 10
831.110133
 20
-699.305369
 30
0.0
 40
0.888911
  0
CIRCLE
  5
554
  8
1
 10
831.110133
 20
-714.076412
 30
0.0
 40
0.888911
  0
CIRCLE
  5
555
  8
1
 10
818.318034
 20
-706.690891
 30
0.0
 40
0.888911
  0
ENDBLK
  5
556
  8
0
  0
BLOCK
  5
558
  8
1
  2
*U127
 70
    65
 10
0.0
 20
0.0
 30
0.0
  3
*U127
  1

  0
CIRCLE
  5
559
  8
1
 10
843.902232
 20
-691.919848
 30
0.0
 40
0.888911
  0
CIRCLE
  5
55A
  8
1
 10
843.902232
 20
-721.461934
 30
0.0
 40
0.888911
  0
CIRCLE
  5
55B
  8
1
 10
856.69433
 20
-699.305369
 30
0.0
 40
0.888911
  0
CIRCLE
  5
55C
  8
1
 10
856.69433
 20
-714.076412
 30
0.0
 40
0.888911
  0
CIRCLE
  5
55D
  8
1
 10
843.902232
 20
-706.690891
 30
0.0
 40
0.888911
  0
ENDBLK
  5
55E
  8
0
  0
BLOCK
  5
560
  8
1
  2
*U128
 70
    65
 10
0.0
 20
0.0
 30
0.0
  3
*U128
  1

  0
CIRCLE
  5
561
  8
1
 10
869.486429
 20
-691.919848
 30
0.0
 40
0.888911
  0
CIRCLE
  5
562
  8
1
 10
869.486429
 20
-721.461934
 30
0.0
 40
0.888911
  0
CIRCLE
  5
563
  8
1
 10
882.278528
 20
-699.305369
 30
0.0
 40
0.888911
  0
CIRCLE
  5
564
  8
1
 10
882.278528
 20
-714.076412
 30
0.0
 40
0.888911
  0
CIRCLE
  5
565
  8
1
 10
869.486429
 20
-706.690891
 30
0.0
 40
0.888911
  0
ENDBLK
  5
566
  8
0
  0
BLOCK
  5
568
  8
1
  2
*U129
 70
    65
 10
0.0
 20
0.0
 30
0.0
  3
*U129
  1

  0
CIRCLE
  5
569
  8
1
 10
895.070627
 20
-691.919848
 30
0.0
 40
0.888911
  0
CIRCLE
  5
56A
  8
1
 10
895.070627
 20
-721.461934
 30
0.0
 40
0.888911
  0
CIRCLE
  5
56B
  8
1
 10
907.862725
 20
-699.305369
 30
0.0
 40
0.888911
  0
CIRCLE
  5
56C
  8
1
 10
907.862725
 20
-714.076412
 30
0.0
 40
0.888911
  0
CIRCLE
  5
56D
  8
1
 10
895.070627
 20
-706.690891
 30
0.0
 40
0.888911
  0
ENDBLK
  5
56E
  8
0
  0
BLOCK
  5
570
  8
1
  2
*U130
 70
    65
 10
0.0
 20
0.0
 30
0.0
  3
*U130
  1

  0
CIRCLE
  5
571
  8
1
 10
920.654824
 20
-691.919848
 30
0.0
 40
0.888911
  0
CIRCLE
  5
572
  8
1
 10
920.654824
 20
-721.461934
 30
0.0
 40
0.888911
  0
CIRCLE
  5
573
  8
1
 10
933.446923
 20
-699.305369
 30
0.0
 40
0.888911
  0
CIRCLE
  5
574
  8
1
 10
933.446923
 20
-714.076412
 30
0.0
 40
0.888911
  0
CIRCLE
  5
575
  8
1
 10
920.654824
 20
-706.690891
 30
0.0
 40
0.888911
  0
ENDBLK
  5
576
  8
0
  0
BLOCK
  5
578
  8
1
  2
*U131
 70
    65
 10
0.0
 20
0.0
 30
0.0
  3
*U131
  1

  0
CIRCLE
  5
579
  8
1
 10
946.239021
 20
-691.919848
 30
0.0
 40
0.888911
  0
CIRCLE
  5
57A
  8
1
 10
946.239021
 20
-721.461934
 30
0.0
 40
0.888911
  0
CIRCLE
  5
57B
  8
1
 10
959.03112
 20
-699.305369
 30
0.0
 40
0.888911
  0
CIRCLE
  5
57C
  8
1
 10
959.03112
 20
-714.076412
 30
0.0
 40
0.888911
  0
CIRCLE
  5
57D
  8
1
 10
946.239021
 20
-706.690891
 30
0.0
 40
0.888911
  0
ENDBLK
  5
57E
  8
0
  0
BLOCK
  5
580
  8
1
  2
*U132
 70
    65
 10
0.0
 20
0.0
 30
0.0
  3
*U132
  1

  0
CIRCLE
  5
581
  8
1
 10
971.823219
 20
-691.919848
 30
0.0
 40
0.888911
  0
CIRCLE
  5
582
  8
1
 10
971.823219
 20
-721.461934
 30
0.0
 40
0.888911
  0
CIRCLE
  5
583
  8
1
 10
984.615318
 20
-699.305369
 30
0.0
 40
0.888911
  0
CIRCLE
  5
584
  8
1
 10
984.615318
 20
-714.076412
 30
0.0
 40
0.888911
  0
CIRCLE
  5
585
  8
1
 10
971.823219
 20
-706.690891
 30
0.0
 40
0.888911
  0
ENDBLK
  5
586
  8
0
  0
BLOCK
  5
588
  8
1
  2
*U133
 70
    65
 10
0.0
 20
0.0
 30
0.0
  3
*U133
  1

  0
CIRCLE
  5
589
  8
1
 10
997.407416
 20
-691.919848
 30
0.0
 40
0.888911
  0
CIRCLE
  5
58A
  8
1
 10
997.407416
 20
-721.461934
 30
0.0
 40
0.888911
  0
CIRCLE
  5
58B
  8
1
 10
1010.199515
 20
-699.305369
 30
0.0
 40
0.888911
  0
CIRCLE
  5
58C
  8
1
 10
1010.199515
 20
-714.076412
 30
0.0
 40
0.888911
  0
CIRCLE
  5
58D
  8
1
 10
997.407416
 20
-706.690891
 30
0.0
 40
0.888911
  0
ENDBLK
  5
58E
  8
0
  0
BLOCK
  5
590
  8
1
  2
*U134
 70
    65
 10
0.0
 20
0.0
 30
0.0
  3
*U134
  1

  0
CIRCLE
  5
591
  8
1
 10
1022.991614
 20
-691.919848
 30
0.0
 40
0.888911
  0
CIRCLE
  5
592
  8
1
 10
1022.991614
 20
-721.461934
 30
0.0
 40
0.888911
  0
CIRCLE
  5
593
  8
1
 10
1035.783712
 20
-699.305369
 30
0.0
 40
0.888911
  0
CIRCLE
  5
594
  8
1
 10
1035.783712
 20
-714.076412
 30
0.0
 40
0.888911
  0
CIRCLE
  5
595
  8
1
 10
1022.991614
 20
-706.690891
 30
0.0
 40
0.888911
  0
ENDBLK
  5
596
  8
0
  0
BLOCK
  5
598
  8
1
  2
*U135
 70
    65
 10
0.0
 20
0.0
 30
0.0
  3
*U135
  1

  0
CIRCLE
  5
599
  8
1
 10
1048.575811
 20
-691.919848
 30
0.0
 40
0.888911
  0
CIRCLE
  5
59A
  8
1
 10
1048.575811
 20
-721.461934
 30
0.0
 40
0.888911
  0
CIRCLE
  5
59B
  8
1
 10
1061.36791
 20
-699.305369
 30
0.0
 40
0.888911
  0
CIRCLE
  5
59C
  8
1
 10
1061.36791
 20
-714.076412
 30
0.0
 40
0.888911
  0
CIRCLE
  5
59D
  8
1
 10
1048.575811
 20
-706.690891
 30
0.0
 40
0.888911
  0
ENDBLK
  5
59E
  8
0
  0
BLOCK
  5
5A0
  8
1
  2
*U136
 70
    65
 10
0.0
 20
0.0
 30
0.0
  3
*U136
  1

  0
CIRCLE
  5
5A1
  8
1
 10
1074.160009
 20
-691.919848
 30
0.0
 40
0.888911
  0
CIRCLE
  5
5A2
  8
1
 10
1074.160009
 20
-721.461934
 30
0.0
 40
0.888911
  0
CIRCLE
  5
5A3
  8
1
 10
1086.952107
 20
-699.305369
 30
0.0
 40
0.888911
  0
CIRCLE
  5
5A4
  8
1
 10
1086.952107
 20
-714.076412
 30
0.0
 40
0.888911
  0
CIRCLE
  5
5A5
  8
1
 10
1074.160009
 20
-706.690891
 30
0.0
 40
0.888911
  0
ENDBLK
  5
5A6
  8
0
  0
BLOCK
  5
5A8
  8
1
  2
*U137
 70
    65
 10
0.0
 20
0.0
 30
0.0
  3
*U137
  1

  0
CIRCLE
  5
5A9
  8
1
 10
1099.744206
 20
-691.919848
 30
0.0
 40
0.888911
  0
CIRCLE
  5
5AA
  8
1
 10
1099.744206
 20
-721.461934
 30
0.0
 40
0.888911
  0
CIRCLE
  5
5AB
  8
1
 10
1112.536305
 20
-699.305369
 30
0.0
 40
0.888911
  0
CIRCLE
  5
5AC
  8
1
 10
1112.536305
 20
-714.076412
 30
0.0
 40
0.888911
  0
CIRCLE
  5
5AD
  8
1
 10
1099.744206
 20
-706.690891
 30
0.0
 40
0.888911
  0
ENDBLK
  5
5AE
  8
0
  0
BLOCK
  5
5B0
  8
1
  2
*U138
 70
    65
 10
0.0
 20
0.0
 30
0.0
  3
*U138
  1

  0
CIRCLE
  5
5B1
  8
1
 10
1125.328403
 20
-691.919848
 30
0.0
 40
0.888911
  0
CIRCLE
  5
5B2
  8
1
 10
1125.328403
 20
-721.461934
 30
0.0
 40
0.888911
  0
CIRCLE
  5
5B3
  8
1
 10
1138.120502
 20
-699.305369
 30
0.0
 40
0.888911
  0
CIRCLE
  5
5B4
  8
1
 10
1138.120502
 20
-714.076412
 30
0.0
 40
0.888911
  0
CIRCLE
  5
5B5
  8
1
 10
1125.328403
 20
-706.690891
 30
0.0
 40
0.888911
  0
ENDBLK
  5
5B6
  8
0
  0
BLOCK
  5
5B8
  8
1
  2
*U139
 70
    65
 10
0.0
 20
0.0
 30
0.0
  3
*U139
  1

  0
CIRCLE
  5
5B9
  8
1
 10
1150.912601
 20
-691.919848
 30
0.0
 40
0.888911
  0
CIRCLE
  5
5BA
  8
1
 10
1150.912601
 20
-721.461934
 30
0.0
 40
0.888911
  0
CIRCLE
  5
5BB
  8
1
 10
1163.704699
 20
-699.305369
 30
0.0
 40
0.888911
  0
CIRCLE
  5
5BC
  8
1
 10
1163.704699
 20
-714.076412
 30
0.0
 40
0.888911
  0
CIRCLE
  5
5BD
  8
1
 10
1150.912601
 20
-706.690891
 30
0.0
 40
0.888911
  0
ENDBLK
  5
5BE
  8
0
  0
BLOCK
  5
5C0
  8
1
  2
*U140
 70
    65
 10
0.0
 20
0.0
 30
0.0
  3
*U140
  1

  0
CIRCLE
  5
5C1
  8
1
 10
1176.496798
 20
-691.919848
 30
0.0
 40
0.888911
  0
CIRCLE
  5
5C2
  8
1
 10
1176.496798
 20
-721.461934
 30
0.0
 40
0.888911
  0
CIRCLE
  5
5C3
  8
1
 10
1189.288897
 20
-699.305369
 30
0.0
 40
0.888911
  0
CIRCLE
  5
5C4
  8
1
 10
1189.288897
 20
-714.076412
 30
0.0
 40
0.888911
  0
CIRCLE
  5
5C5
  8
1
 10
1176.496798
 20
-706.690891
 30
0.0
 40
0.888911
  0
ENDBLK
  5
5C6
  8
0
  0
BLOCK
  5
5C8
  8
1
  2
*U141
 70
    65
 10
0.0
 20
0.0
 30
0.0
  3
*U141
  1

  0
CIRCLE
  5
5C9
  8
1
 10
1202.080996
 20
-691.919848
 30
0.0
 40
0.888911
  0
CIRCLE
  5
5CA
  8
1
 10
1202.080996
 20
-721.461934
 30
0.0
 40
0.888911
  0
CIRCLE
  5
5CB
  8
1
 10
1214.873094
 20
-699.305369
 30
0.0
 40
0.888911
  0
CIRCLE
  5
5CC
  8
1
 10
1214.873094
 20
-714.076412
 30
0.0
 40
0.888911
  0
CIRCLE
  5
5CD
  8
1
 10
1202.080996
 20
-706.690891
 30
0.0
 40
0.888911
  0
ENDBLK
  5
5CE
  8
0
  0
BLOCK
  5
5D0
  8
1
  2
*U142
 70
    65
 10
0.0
 20
0.0
 30
0.0
  3
*U142
  1

  0
CIRCLE
  5
5D1
  8
1
 10
1227.665193
 20
-691.919848
 30
0.0
 40
0.888911
  0
CIRCLE
  5
5D2
  8
1
 10
1227.665193
 20
-721.461934
 30
0.0
 40
0.888911
  0
CIRCLE
  5
5D3
  8
1
 10
1240.457292
 20
-699.305369
 30
0.0
 40
0.888911
  0
CIRCLE
  5
5D4
  8
1
 10
1240.457292
 20
-714.076412
 30
0.0
 40
0.888911
  0
CIRCLE
  5
5D5
  8
1
 10
1227.665193
 20
-706.690891
 30
0.0
 40
0.888911
  0
ENDBLK
  5
5D6
  8
0
  0
BLOCK
  5
5D8
  8
1
  2
*U143
 70
    65
 10
0.0
 20
0.0
 30
0.0
  3
*U143
  1

  0
CIRCLE
  5
5D9
  8
1
 10
1253.24939
 20
-691.919848
 30
0.0
 40
0.888911
  0
CIRCLE
  5
5DA
  8
1
 10
1253.24939
 20
-721.461934
 30
0.0
 40
0.888911
  0
CIRCLE
  5
5DB
  8
1
 10
1266.041489
 20
-699.305369
 30
0.0
 40
0.888911
  0
CIRCLE
  5
5DC
  8
1
 10
1266.041489
 20
-714.076412
 30
0.0
 40
0.888911
  0
CIRCLE
  5
5DD
  8
1
 10
1253.24939
 20
-706.690891
 30
0.0
 40
0.888911
  0
ENDBLK
  5
5DE
  8
0
  0
BLOCK
  5
5E0
  8
1
  2
*U144
 70
    65
 10
0.0
 20
0.0
 30
0.0
  3
*U144
  1

  0
CIRCLE
  5
5E1
  8
1
 10
1278.833588
 20
-691.919848
 30
0.0
 40
0.888911
  0
CIRCLE
  5
5E2
  8
1
 10
1278.833588
 20
-721.461934
 30
0.0
 40
0.888911
  0
CIRCLE
  5
5E3
  8
1
 10
1291.625687
 20
-699.305369
 30
0.0
 40
0.888911
  0
CIRCLE
  5
5E4
  8
1
 10
1291.625687
 20
-714.076412
 30
0.0
 40
0.888911
  0
CIRCLE
  5
5E5
  8
1
 10
1278.833588
 20
-706.690891
 30
0.0
 40
0.888911
  0
ENDBLK
  5
5E6
  8
0
  0
BLOCK
  5
5E8
  8
1
  2
*U145
 70
    65
 10
0.0
 20
0.0
 30
0.0
  3
*U145
  1

  0
CIRCLE
  5
5E9
  8
1
 10
1304.417785
 20
-691.919848
 30
0.0
 40
0.888911
  0
CIRCLE
  5
5EA
  8
1
 10
1304.417785
 20
-721.461934
 30
0.0
 40
0.888911
  0
CIRCLE
  5
5EB
  8
1
 10
1317.209884
 20
-699.305369
 30
0.0
 40
0.888911
  0
CIRCLE
  5
5EC
  8
1
 10
1317.209884
 20
-714.076412
 30
0.0
 40
0.888911
  0
CIRCLE
  5
5ED
  8
1
 10
1304.417785
 20
-706.690891
 30
0.0
 40
0.888911
  0
ENDBLK
  5
5EE
  8
0
  0
BLOCK
  5
5F0
  8
1
  2
*U146
 70
    65
 10
0.0
 20
0.0
 30
0.0
  3
*U146
  1

  0
CIRCLE
  5
5F1
  8
1
 10
1330.001983
 20
-691.919848
 30
0.0
 40
0.888911
  0
CIRCLE
  5
5F2
  8
1
 10
1330.001983
 20
-721.461934
 30
0.0
 40
0.888911
  0
CIRCLE
  5
5F3
  8
1
 10
1342.794081
 20
-699.305369
 30
0.0
 40
0.888911
  0
CIRCLE
  5
5F4
  8
1
 10
1342.794081
 20
-714.076412
 30
0.0
 40
0.888911
  0
CIRCLE
  5
5F5
  8
1
 10
1330.001983
 20
-706.690891
 30
0.0
 40
0.888911
  0
ENDBLK
  5
5F6
  8
0
  0
BLOCK
  5
5F8
  8
1
  2
*U147
 70
    65
 10
0.0
 20
0.0
 30
0.0
  3
*U147
  1

  0
CIRCLE
  5
5F9
  8
1
 10
1355.58618
 20
-691.919848
 30
0.0
 40
0.888911
  0
CIRCLE
  5
5FA
  8
1
 10
1355.58618
 20
-721.461934
 30
0.0
 40
0.888911
  0
CIRCLE
  5
5FB
  8
1
 10
1368.378279
 20
-699.305369
 30
0.0
 40
0.888911
  0
CIRCLE
  5
5FC
  8
1
 10
1368.378279
 20
-714.076412
 30
0.0
 40
0.888911
  0
CIRCLE
  5
5FD
  8
1
 10
1355.58618
 20
-706.690891
 30
0.0
 40
0.888911
  0
ENDBLK
  5
5FE
  8
0
  0
BLOCK
  5
600
  8
1
  2
*U148
 70
    65
 10
0.0
 20
0.0
 30
0.0
  3
*U148
  1

  0
CIRCLE
  5
601
  8
1
 10
1381.170377
 20
-691.919848
 30
0.0
 40
0.888911
  0
CIRCLE
  5
602
  8
1
 10
1381.170377
 20
-721.461934
 30
0.0
 40
0.888911
  0
CIRCLE
  5
603
  8
1
 10
1393.962476
 20
-699.305369
 30
0.0
 40
0.888911
  0
CIRCLE
  5
604
  8
1
 10
1393.962476
 20
-714.076412
 30
0.0
 40
0.888911
  0
CIRCLE
  5
605
  8
1
 10
1381.170377
 20
-706.690891
 30
0.0
 40
0.888911
  0
ENDBLK
  5
606
  8
0
  0
BLOCK
  5
608
  8
1
  2
*U149
 70
    65
 10
0.0
 20
0.0
 30
0.0
  3
*U149
  1

  0
CIRCLE
  5
609
  8
1
 10
1406.754575
 20
-691.919848
 30
0.0
 40
0.888911
  0
CIRCLE
  5
60A
  8
1
 10
1406.754575
 20
-721.461934
 30
0.0
 40
0.888911
  0
CIRCLE
  5
60B
  8
1
 10
1419.546674
 20
-699.305369
 30
0.0
 40
0.888911
  0
CIRCLE
  5
60C
  8
1
 10
1419.546674
 20
-714.076412
 30
0.0
 40
0.888911
  0
CIRCLE
  5
60D
  8
1
 10
1406.754575
 20
-706.690891
 30
0.0
 40
0.888911
  0
ENDBLK
  5
60E
  8
0
  0
BLOCK
  5
610
  8
1
  2
*U150
 70
    65
 10
0.0
 20
0.0
 30
0.0
  3
*U150
  1

  0
CIRCLE
  5
611
  8
1
 10
1432.338772
 20
-691.919848
 30
0.0
 40
0.888911
  0
CIRCLE
  5
612
  8
1
 10
1432.338772
 20
-721.461934
 30
0.0
 40
0.888911
  0
CIRCLE
  5
613
  8
1
 10
1445.130871
 20
-699.305369
 30
0.0
 40
0.888911
  0
CIRCLE
  5
614
  8
1
 10
1445.130871
 20
-714.076412
 30
0.0
 40
0.888911
  0
CIRCLE
  5
615
  8
1
 10
1432.338772
 20
-706.690891
 30
0.0
 40
0.888911
  0
ENDBLK
  5
616
  8
0
  0
BLOCK
  5
618
  8
1
  2
*U151
 70
    65
 10
0.0
 20
0.0
 30
0.0
  3
*U151
  1

  0
CIRCLE
  5
619
  8
1
 10
1457.92297
 20
-691.919848
 30
0.0
 40
0.888911
  0
CIRCLE
  5
61A
  8
1
 10
1457.92297
 20
-721.461934
 30
0.0
 40
0.888911
  0
CIRCLE
  5
61B
  8
1
 10
1470.715068
 20
-699.305369
 30
0.0
 40
0.888911
  0
CIRCLE
  5
61C
  8
1
 10
1470.715068
 20
-714.076412
 30
0.0
 40
0.888911
  0
CIRCLE
  5
61D
  8
1
 10
1457.92297
 20
-706.690891
 30
0.0
 40
0.888911
  0
ENDBLK
  5
61E
  8
0
  0
BLOCK
  5
620
  8
1
  2
*U152
 70
    65
 10
0.0
 20
0.0
 30
0.0
  3
*U152
  1

  0
CIRCLE
  5
621
  8
1
 10
1483.507167
 20
-691.919848
 30
0.0
 40
0.888911
  0
CIRCLE
  5
622
  8
1
 10
1483.507167
 20
-721.461934
 30
0.0
 40
0.888911
  0
CIRCLE
  5
623
  8
1
 10
1496.299266
 20
-699.305369
 30
0.0
 40
0.888911
  0
CIRCLE
  5
624
  8
1
 10
1496.299266
 20
-714.076412
 30
0.0
 40
0.888911
  0
CIRCLE
  5
625
  8
1
 10
1483.507167
 20
-706.690891
 30
0.0
 40
0.888911
  0
ENDBLK
  5
626
  8
0
  0
BLOCK
  5
628
  8
1
  2
*U153
 70
    65
 10
0.0
 20
0.0
 30
0.0
  3
*U153
  1

  0
CIRCLE
  5
629
  8
1
 10
1509.091365
 20
-691.919848
 30
0.0
 40
0.888911
  0
CIRCLE
  5
62A
  8
1
 10
1509.091365
 20
-721.461934
 30
0.0
 40
0.888911
  0
CIRCLE
  5
62B
  8
1
 10
1521.883463
 20
-699.305369
 30
0.0
 40
0.888911
  0
CIRCLE
  5
62C
  8
1
 10
1521.883463
 20
-714.076412
 30
0.0
 40
0.888911
  0
CIRCLE
  5
62D
  8
1
 10
1509.091365
 20
-706.690891
 30
0.0
 40
0.888911
  0
ENDBLK
  5
62E
  8
0
  0
BLOCK
  5
630
  8
1
  2
*U154
 70
    65
 10
0.0
 20
0.0
 30
0.0
  3
*U154
  1

  0
CIRCLE
  5
631
  8
1
 10
1534.675562
 20
-691.919848
 30
0.0
 40
0.888911
  0
CIRCLE
  5
632
  8
1
 10
1534.675562
 20
-721.461934
 30
0.0
 40
0.888911
  0
CIRCLE
  5
633
  8
1
 10
1547.467661
 20
-699.305369
 30
0.0
 40
0.888911
  0
CIRCLE
  5
634
  8
1
 10
1547.467661
 20
-714.076412
 30
0.0
 40
0.888911
  0
CIRCLE
  5
635
  8
1
 10
1534.675562
 20
-706.690891
 30
0.0
 40
0.888911
  0
ENDBLK
  5
636
  8
0
  0
BLOCK
  5
638
  8
1
  2
*U155
 70
    65
 10
0.0
 20
0.0
 30
0.0
  3
*U155
  1

  0
CIRCLE
  5
639
  8
1
 10
1560.259759
 20
-691.919848
 30
0.0
 40
0.888911
  0
CIRCLE
  5
63A
  8
1
 10
1560.259759
 20
-721.461934
 30
0.0
 40
0.888911
  0
CIRCLE
  5
63B
  8
1
 10
1573.051858
 20
-699.305369
 30
0.0
 40
0.888911
  0
CIRCLE
  5
63C
  8
1
 10
1573.051858
 20
-714.076412
 30
0.0
 40
0.888911
  0
CIRCLE
  5
63D
  8
1
 10
1560.259759
 20
-706.690891
 30
0.0
 40
0.888911
  0
ENDBLK
  5
63E
  8
0
  0
BLOCK
  5
640
  8
1
  2
*U156
 70
    65
 10
0.0
 20
0.0
 30
0.0
  3
*U156
  1

  0
CIRCLE
  5
641
  8
1
 10
1585.843957
 20
-691.919848
 30
0.0
 40
0.888911
  0
CIRCLE
  5
642
  8
1
 10
1585.843957
 20
-721.461934
 30
0.0
 40
0.888911
  0
CIRCLE
  5
643
  8
1
 10
1598.636055
 20
-699.305369
 30
0.0
 40
0.888911
  0
CIRCLE
  5
644
  8
1
 10
1598.636055
 20
-714.076412
 30
0.0
 40
0.888911
  0
CIRCLE
  5
645
  8
1
 10
1585.843957
 20
-706.690891
 30
0.0
 40
0.888911
  0
ENDBLK
  5
646
  8
0
  0
BLOCK
  5
648
  8
1
  2
*U157
 70
    65
 10
0.0
 20
0.0
 30
0.0
  3
*U157
  1

  0
CIRCLE
  5
649
  8
1
 10
1611.428154
 20
-691.919848
 30
0.0
 40
0.888911
  0
CIRCLE
  5
64A
  8
1
 10
1611.428154
 20
-721.461934
 30
0.0
 40
0.888911
  0
CIRCLE
  5
64B
  8
1
 10
1624.220253
 20
-699.305369
 30
0.0
 40
0.888911
  0
CIRCLE
  5
64C
  8
1
 10
1624.220253
 20
-714.076412
 30
0.0
 40
0.888911
  0
CIRCLE
  5
64D
  8
1
 10
1611.428154
 20
-706.690891
 30
0.0
 40
0.888911
  0
ENDBLK
  5
64E
  8
0
  0
BLOCK
  5
650
  8
1
  2
*U158
 70
    65
 10
0.0
 20
0.0
 30
0.0
  3
*U158
  1

  0
CIRCLE
  5
651
  8
1
 10
1637.012352
 20
-691.919848
 30
0.0
 40
0.888911
  0
CIRCLE
  5
652
  8
1
 10
1637.012352
 20
-721.461934
 30
0.0
 40
0.888911
  0
CIRCLE
  5
653
  8
1
 10
1649.80445
 20
-699.305369
 30
0.0
 40
0.888911
  0
CIRCLE
  5
654
  8
1
 10
1649.80445
 20
-714.076412
 30
0.0
 40
0.888911
  0
CIRCLE
  5
655
  8
1
 10
1637.012352
 20
-706.690891
 30
0.0
 40
0.888911
  0
ENDBLK
  5
656
  8
0
  0
BLOCK
  5
658
  8
1
  2
*U159
 70
    65
 10
0.0
 20
0.0
 30
0.0
  3
*U159
  1

  0
CIRCLE
  5
659
  8
1
 10
1662.596549
 20
-691.919848
 30
0.0
 40
0.888911
  0
CIRCLE
  5
65A
  8
1
 10
1662.596549
 20
-721.461934
 30
0.0
 40
0.888911
  0
CIRCLE
  5
65B
  8
1
 10
1675.388648
 20
-699.305369
 30
0.0
 40
0.888911
  0
CIRCLE
  5
65C
  8
1
 10
1675.388648
 20
-714.076412
 30
0.0
 40
0.888911
  0
CIRCLE
  5
65D
  8
1
 10
1662.596549
 20
-706.690891
 30
0.0
 40
0.888911
  0
ENDBLK
  5
65E
  8
0
  0
BLOCK
  5
660
  8
1
  2
*U160
 70
    65
 10
0.0
 20
0.0
 30
0.0
  3
*U160
  1

  0
CIRCLE
  5
661
  8
1
 10
1688.180746
 20
-691.919848
 30
0.0
 40
0.888911
  0
CIRCLE
  5
662
  8
1
 10
1688.180746
 20
-721.461934
 30
0.0
 40
0.888911
  0
CIRCLE
  5
663
  8
1
 10
1700.972845
 20
-699.305369
 30
0.0
 40
0.888911
  0
CIRCLE
  5
664
  8
1
 10
1700.972845
 20
-714.076412
 30
0.0
 40
0.888911
  0
CIRCLE
  5
665
  8
1
 10
1688.180746
 20
-706.690891
 30
0.0
 40
0.888911
  0
ENDBLK
  5
666
  8
0
  0
BLOCK
  5
668
  8
1
  2
*U161
 70
    65
 10
0.0
 20
0.0
 30
0.0
  3
*U161
  1

  0
CIRCLE
  5
669
  8
1
 10
1713.764944
 20
-691.919848
 30
0.0
 40
0.888911
  0
CIRCLE
  5
66A
  8
1
 10
1713.764944
 20
-721.461934
 30
0.0
 40
0.888911
  0
CIRCLE
  5
66B
  8
1
 10
1726.557043
 20
-699.305369
 30
0.0
 40
0.888911
  0
CIRCLE
  5
66C
  8
1
 10
1726.557043
 20
-714.076412
 30
0.0
 40
0.888911
  0
CIRCLE
  5
66D
  8
1
 10
1713.764944
 20
-706.690891
 30
0.0
 40
0.888911
  0
ENDBLK
  5
66E
  8
0
  0
BLOCK
  5
670
  8
1
  2
*U162
 70
    65
 10
0.0
 20
0.0
 30
0.0
  3
*U162
  1

  0
CIRCLE
  5
671
  8
1
 10
1739.349141
 20
-691.919848
 30
0.0
 40
0.888911
  0
CIRCLE
  5
672
  8
1
 10
1739.349141
 20
-721.461934
 30
0.0
 40
0.888911
  0
CIRCLE
  5
673
  8
1
 10
1752.14124
 20
-699.305369
 30
0.0
 40
0.888911
  0
CIRCLE
  5
674
  8
1
 10
1752.14124
 20
-714.076412
 30
0.0
 40
0.888911
  0
CIRCLE
  5
675
  8
1
 10
1739.349141
 20
-706.690891
 30
0.0
 40
0.888911
  0
ENDBLK
  5
676
  8
0
  0
BLOCK
  5
678
  8
1
  2
*U163
 70
    65
 10
0.0
 20
0.0
 30
0.0
  3
*U163
  1

  0
CIRCLE
  5
679
  8
1
 10
1764.933339
 20
-691.919848
 30
0.0
 40
0.888911
  0
CIRCLE
  5
67A
  8
1
 10
1764.933339
 20
-721.461934
 30
0.0
 40
0.888911
  0
CIRCLE
  5
67B
  8
1
 10
1777.725437
 20
-699.305369
 30
0.0
 40
0.888911
  0
CIRCLE
  5
67C
  8
1
 10
1777.725437
 20
-714.076412
 30
0.0
 40
0.888911
  0
CIRCLE
  5
67D
  8
1
 10
1764.933339
 20
-706.690891
 30
0.0
 40
0.888911
  0
ENDBLK
  5
67E
  8
0
  0
BLOCK
  5
680
  8
1
  2
*U164
 70
    65
 10
0.0
 20
0.0
 30
0.0
  3
*U164
  1

  0
CIRCLE
  5
681
  8
1
 10
1790.517536
 20
-691.919848
 30
0.0
 40
0.888911
  0
CIRCLE
  5
682
  8
1
 10
1790.517536
 20
-721.461934
 30
0.0
 40
0.888911
  0
CIRCLE
  5
683
  8
1
 10
1803.309635
 20
-699.305369
 30
0.0
 40
0.888911
  0
CIRCLE
  5
684
  8
1
 10
1803.309635
 20
-714.076412
 30
0.0
 40
0.888911
  0
CIRCLE
  5
685
  8
1
 10
1790.517536
 20
-706.690891
 30
0.0
 40
0.888911
  0
ENDBLK
  5
686
  8
0
  0
BLOCK
  5
688
  8
1
  2
*U165
 70
    65
 10
0.0
 20
0.0
 30
0.0
  3
*U165
  1

  0
CIRCLE
  5
689
  8
1
 10
1816.101733
 20
-691.919848
 30
0.0
 40
0.888911
  0
CIRCLE
  5
68A
  8
1
 10
1816.101733
 20
-721.461934
 30
0.0
 40
0.888911
  0
CIRCLE
  5
68B
  8
1
 10
1828.893832
 20
-699.305369
 30
0.0
 40
0.888911
  0
CIRCLE
  5
68C
  8
1
 10
1828.893832
 20
-714.076412
 30
0.0
 40
0.888911
  0
CIRCLE
  5
68D
  8
1
 10
1816.101733
 20
-706.690891
 30
0.0
 40
0.888911
  0
ENDBLK
  5
68E
  8
0
  0
BLOCK
  5
690
  8
1
  2
*U166
 70
    65
 10
0.0
 20
0.0
 30
0.0
  3
*U166
  1

  0
CIRCLE
  5
691
  8
1
 10
1841.685931
 20
-691.919848
 30
0.0
 40
0.888911
  0
CIRCLE
  5
692
  8
1
 10
1841.685931
 20
-721.461934
 30
0.0
 40
0.888911
  0
CIRCLE
  5
693
  8
1
 10
1854.47803
 20
-699.305369
 30
0.0
 40
0.888911
  0
CIRCLE
  5
694
  8
1
 10
1854.47803
 20
-714.076412
 30
0.0
 40
0.888911
  0
CIRCLE
  5
695
  8
1
 10
1841.685931
 20
-706.690891
 30
0.0
 40
0.888911
  0
ENDBLK
  5
696
  8
0
  0
BLOCK
  5
698
  8
1
  2
*U167
 70
    65
 10
0.0
 20
0.0
 30
0.0
  3
*U167
  1

  0
CIRCLE
  5
699
  8
1
 10
1867.270128
 20
-691.919848
 30
0.0
 40
0.888911
  0
CIRCLE
  5
69A
  8
1
 10
1867.270128
 20
-721.461934
 30
0.0
 40
0.888911
  0
CIRCLE
  5
69B
  8
1
 10
1867.270128
 20
-706.690891
 30
0.0
 40
0.888911
  0
ENDBLK
  5
69C
  8
0
  0
BLOCK
  5
69E
  8
1
  2
*U168
 70
    65
 10
0.0
 20
0.0
 30
0.0
  3
*U168
  1

  0
CIRCLE
  5
69F
  8
1
 10
613.644455
 20
-364.940408
 30
0.0
 40
0.888911
  0
CIRCLE
  5
6A0
  8
1
 10
613.644455
 20
-335.398321
 30
0.0
 40
0.888911
  0
CIRCLE
  5
6A1
  8
1
 10
626.436554
 20
-357.554886
 30
0.0
 40
0.888911
  0
CIRCLE
  5
6A2
  8
1
 10
626.436554
 20
-342.783843
 30
0.0
 40
0.888911
  0
CIRCLE
  5
6A3
  8
1
 10
613.644455
 20
-350.169365
 30
0.0
 40
0.888911
  0
ENDBLK
  5
6A4
  8
0
  0
BLOCK
  5
6A6
  8
1
  2
*U169
 70
    65
 10
0.0
 20
0.0
 30
0.0
  3
*U169
  1

  0
CIRCLE
  5
6A7
  8
1
 10
639.228652
 20
-364.940408
 30
0.0
 40
0.888911
  0
CIRCLE
  5
6A8
  8
1
 10
639.228652
 20
-335.398321
 30
0.0
 40
0.888911
  0
CIRCLE
  5
6A9
  8
1
 10
652.020751
 20
-357.554886
 30
0.0
 40
0.888911
  0
CIRCLE
  5
6AA
  8
1
 10
652.020751
 20
-342.783843
 30
0.0
 40
0.888911
  0
CIRCLE
  5
6AB
  8
1
 10
639.228652
 20
-350.169365
 30
0.0
 40
0.888911
  0
ENDBLK
  5
6AC
  8
0
  0
BLOCK
  5
6AE
  8
1
  2
*U170
 70
    65
 10
0.0
 20
0.0
 30
0.0
  3
*U170
  1

  0
CIRCLE
  5
6AF
  8
1
 10
664.81285
 20
-364.940408
 30
0.0
 40
0.888911
  0
CIRCLE
  5
6B0
  8
1
 10
664.81285
 20
-335.398321
 30
0.0
 40
0.888911
  0
CIRCLE
  5
6B1
  8
1
 10
677.604949
 20
-357.554886
 30
0.0
 40
0.888911
  0
CIRCLE
  5
6B2
  8
1
 10
677.604949
 20
-342.783843
 30
0.0
 40
0.888911
  0
CIRCLE
  5
6B3
  8
1
 10
664.81285
 20
-350.169365
 30
0.0
 40
0.888911
  0
ENDBLK
  5
6B4
  8
0
  0
BLOCK
  5
6B6
  8
1
  2
*U171
 70
    65
 10
0.0
 20
0.0
 30
0.0
  3
*U171
  1

  0
CIRCLE
  5
6B7
  8
1
 10
690.397047
 20
-364.940408
 30
0.0
 40
0.888911
  0
CIRCLE
  5
6B8
  8
1
 10
690.397047
 20
-335.398321
 30
0.0
 40
0.888911
  0
CIRCLE
  5
6B9
  8
1
 10
703.189146
 20
-357.554886
 30
0.0
 40
0.888911
  0
CIRCLE
  5
6BA
  8
1
 10
703.189146
 20
-342.783843
 30
0.0
 40
0.888911
  0
CIRCLE
  5
6BB
  8
1
 10
690.397047
 20
-350.169365
 30
0.0
 40
0.888911
  0
ENDBLK
  5
6BC
  8
0
  0
BLOCK
  5
6BE
  8
1
  2
*U172
 70
    65
 10
0.0
 20
0.0
 30
0.0
  3
*U172
  1

  0
CIRCLE
  5
6BF
  8
1
 10
715.981245
 20
-364.940408
 30
0.0
 40
0.888911
  0
CIRCLE
  5
6C0
  8
1
 10
715.981245
 20
-335.398321
 30
0.0
 40
0.888911
  0
CIRCLE
  5
6C1
  8
1
 10
728.773343
 20
-357.554886
 30
0.0
 40
0.888911
  0
CIRCLE
  5
6C2
  8
1
 10
728.773343
 20
-342.783843
 30
0.0
 40
0.888911
  0
CIRCLE
  5
6C3
  8
1
 10
715.981245
 20
-350.169365
 30
0.0
 40
0.888911
  0
ENDBLK
  5
6C4
  8
0
  0
BLOCK
  5
6C6
  8
1
  2
*U173
 70
    65
 10
0.0
 20
0.0
 30
0.0
  3
*U173
  1

  0
CIRCLE
  5
6C7
  8
1
 10
741.565442
 20
-364.940408
 30
0.0
 40
0.888911
  0
CIRCLE
  5
6C8
  8
1
 10
741.565442
 20
-335.398321
 30
0.0
 40
0.888911
  0
CIRCLE
  5
6C9
  8
1
 10
754.357541
 20
-357.554886
 30
0.0
 40
0.888911
  0
CIRCLE
  5
6CA
  8
1
 10
754.357541
 20
-342.783843
 30
0.0
 40
0.888911
  0
CIRCLE
  5
6CB
  8
1
 10
741.565442
 20
-350.169365
 30
0.0
 40
0.888911
  0
ENDBLK
  5
6CC
  8
0
  0
BLOCK
  5
6CE
  8
1
  2
*U174
 70
    65
 10
0.0
 20
0.0
 30
0.0
  3
*U174
  1

  0
CIRCLE
  5
6CF
  8
1
 10
767.14964
 20
-364.940408
 30
0.0
 40
0.888911
  0
CIRCLE
  5
6D0
  8
1
 10
767.14964
 20
-335.398321
 30
0.0
 40
0.888911
  0
CIRCLE
  5
6D1
  8
1
 10
779.941738
 20
-357.554886
 30
0.0
 40
0.888911
  0
CIRCLE
  5
6D2
  8
1
 10
779.941738
 20
-342.783843
 30
0.0
 40
0.888911
  0
CIRCLE
  5
6D3
  8
1
 10
767.14964
 20
-350.169365
 30
0.0
 40
0.888911
  0
ENDBLK
  5
6D4
  8
0
  0
BLOCK
  5
6D6
  8
1
  2
*U175
 70
    65
 10
0.0
 20
0.0
 30
0.0
  3
*U175
  1

  0
CIRCLE
  5
6D7
  8
1
 10
792.733837
 20
-364.940408
 30
0.0
 40
0.888911
  0
CIRCLE
  5
6D8
  8
1
 10
792.733837
 20
-335.398321
 30
0.0
 40
0.888911
  0
CIRCLE
  5
6D9
  8
1
 10
805.525936
 20
-357.554886
 30
0.0
 40
0.888911
  0
CIRCLE
  5
6DA
  8
1
 10
805.525936
 20
-342.783843
 30
0.0
 40
0.888911
  0
CIRCLE
  5
6DB
  8
1
 10
792.733837
 20
-350.169365
 30
0.0
 40
0.888911
  0
ENDBLK
  5
6DC
  8
0
  0
BLOCK
  5
6DE
  8
1
  2
*U176
 70
    65
 10
0.0
 20
0.0
 30
0.0
  3
*U176
  1

  0
CIRCLE
  5
6DF
  8
1
 10
818.318034
 20
-364.940408
 30
0.0
 40
0.888911
  0
CIRCLE
  5
6E0
  8
1
 10
818.318034
 20
-335.398321
 30
0.0
 40
0.888911
  0
CIRCLE
  5
6E1
  8
1
 10
831.110133
 20
-357.554886
 30
0.0
 40
0.888911
  0
CIRCLE
  5
6E2
  8
1
 10
831.110133
 20
-342.783843
 30
0.0
 40
0.888911
  0
CIRCLE
  5
6E3
  8
1
 10
818.318034
 20
-350.169365
 30
0.0
 40
0.888911
  0
ENDBLK
  5
6E4
  8
0
  0
BLOCK
  5
6E6
  8
1
  2
*U177
 70
    65
 10
0.0
 20
0.0
 30
0.0
  3
*U177
  1

  0
CIRCLE
  5
6E7
  8
1
 10
843.902232
 20
-364.940408
 30
0.0
 40
0.888911
  0
CIRCLE
  5
6E8
  8
1
 10
843.902232
 20
-335.398321
 30
0.0
 40
0.888911
  0
CIRCLE
  5
6E9
  8
1
 10
856.69433
 20
-357.554886
 30
0.0
 40
0.888911
  0
CIRCLE
  5
6EA
  8
1
 10
856.69433
 20
-342.783843
 30
0.0
 40
0.888911
  0
CIRCLE
  5
6EB
  8
1
 10
843.902232
 20
-350.169365
 30
0.0
 40
0.888911
  0
ENDBLK
  5
6EC
  8
0
  0
BLOCK
  5
6EE
  8
1
  2
*U178
 70
    65
 10
0.0
 20
0.0
 30
0.0
  3
*U178
  1

  0
CIRCLE
  5
6EF
  8
1
 10
869.486429
 20
-364.940408
 30
0.0
 40
0.888911
  0
CIRCLE
  5
6F0
  8
1
 10
869.486429
 20
-335.398321
 30
0.0
 40
0.888911
  0
CIRCLE
  5
6F1
  8
1
 10
882.278528
 20
-357.554886
 30
0.0
 40
0.888911
  0
CIRCLE
  5
6F2
  8
1
 10
882.278528
 20
-342.783843
 30
0.0
 40
0.888911
  0
CIRCLE
  5
6F3
  8
1
 10
869.486429
 20
-350.169365
 30
0.0
 40
0.888911
  0
ENDBLK
  5
6F4
  8
0
  0
BLOCK
  5
6F6
  8
1
  2
*U179
 70
    65
 10
0.0
 20
0.0
 30
0.0
  3
*U179
  1

  0
CIRCLE
  5
6F7
  8
1
 10
895.070627
 20
-364.940408
 30
0.0
 40
0.888911
  0
CIRCLE
  5
6F8
  8
1
 10
895.070627
 20
-335.398321
 30
0.0
 40
0.888911
  0
CIRCLE
  5
6F9
  8
1
 10
907.862725
 20
-357.554886
 30
0.0
 40
0.888911
  0
CIRCLE
  5
6FA
  8
1
 10
907.862725
 20
-342.783843
 30
0.0
 40
0.888911
  0
CIRCLE
  5
6FB
  8
1
 10
895.070627
 20
-350.169365
 30
0.0
 40
0.888911
  0
ENDBLK
  5
6FC
  8
0
  0
BLOCK
  5
6FE
  8
1
  2
*U180
 70
    65
 10
0.0
 20
0.0
 30
0.0
  3
*U180
  1

  0
CIRCLE
  5
6FF
  8
1
 10
920.654824
 20
-364.940408
 30
0.0
 40
0.888911
  0
CIRCLE
  5
700
  8
1
 10
920.654824
 20
-335.398321
 30
0.0
 40
0.888911
  0
CIRCLE
  5
701
  8
1
 10
933.446923
 20
-357.554886
 30
0.0
 40
0.888911
  0
CIRCLE
  5
702
  8
1
 10
933.446923
 20
-342.783843
 30
0.0
 40
0.888911
  0
CIRCLE
  5
703
  8
1
 10
920.654824
 20
-350.169365
 30
0.0
 40
0.888911
  0
ENDBLK
  5
704
  8
0
  0
BLOCK
  5
706
  8
1
  2
*U181
 70
    65
 10
0.0
 20
0.0
 30
0.0
  3
*U181
  1

  0
CIRCLE
  5
707
  8
1
 10
946.239021
 20
-364.940408
 30
0.0
 40
0.888911
  0
CIRCLE
  5
708
  8
1
 10
946.239021
 20
-335.398321
 30
0.0
 40
0.888911
  0
CIRCLE
  5
709
  8
1
 10
959.03112
 20
-357.554886
 30
0.0
 40
0.888911
  0
CIRCLE
  5
70A
  8
1
 10
959.03112
 20
-342.783843
 30
0.0
 40
0.888911
  0
CIRCLE
  5
70B
  8
1
 10
946.239021
 20
-350.169365
 30
0.0
 40
0.888911
  0
ENDBLK
  5
70C
  8
0
  0
BLOCK
  5
70E
  8
1
  2
*U182
 70
    65
 10
0.0
 20
0.0
 30
0.0
  3
*U182
  1

  0
CIRCLE
  5
70F
  8
1
 10
971.823219
 20
-364.940408
 30
0.0
 40
0.888911
  0
CIRCLE
  5
710
  8
1
 10
971.823219
 20
-335.398321
 30
0.0
 40
0.888911
  0
CIRCLE
  5
711
  8
1
 10
984.615318
 20
-357.554886
 30
0.0
 40
0.888911
  0
CIRCLE
  5
712
  8
1
 10
984.615318
 20
-342.783843
 30
0.0
 40
0.888911
  0
CIRCLE
  5
713
  8
1
 10
971.823219
 20
-350.169365
 30
0.0
 40
0.888911
  0
ENDBLK
  5
714
  8
0
  0
BLOCK
  5
716
  8
1
  2
*U183
 70
    65
 10
0.0
 20
0.0
 30
0.0
  3
*U183
  1

  0
CIRCLE
  5
717
  8
1
 10
997.407416
 20
-364.940408
 30
0.0
 40
0.888911
  0
CIRCLE
  5
718
  8
1
 10
997.407416
 20
-335.398321
 30
0.0
 40
0.888911
  0
CIRCLE
  5
719
  8
1
 10
1010.199515
 20
-357.554886
 30
0.0
 40
0.888911
  0
CIRCLE
  5
71A
  8
1
 10
1010.199515
 20
-342.783843
 30
0.0
 40
0.888911
  0
CIRCLE
  5
71B
  8
1
 10
997.407416
 20
-350.169365
 30
0.0
 40
0.888911
  0
ENDBLK
  5
71C
  8
0
  0
BLOCK
  5
71E
  8
1
  2
*U184
 70
    65
 10
0.0
 20
0.0
 30
0.0
  3
*U184
  1

  0
CIRCLE
  5
71F
  8
1
 10
1022.991614
 20
-364.940408
 30
0.0
 40
0.888911
  0
CIRCLE
  5
720
  8
1
 10
1022.991614
 20
-335.398321
 30
0.0
 40
0.888911
  0
CIRCLE
  5
721
  8
1
 10
1035.783712
 20
-357.554886
 30
0.0
 40
0.888911
  0
CIRCLE
  5
722
  8
1
 10
1035.783712
 20
-342.783843
 30
0.0
 40
0.888911
  0
CIRCLE
  5
723
  8
1
 10
1022.991614
 20
-350.169365
 30
0.0
 40
0.888911
  0
ENDBLK
  5
724
  8
0
  0
BLOCK
  5
726
  8
1
  2
*U185
 70
    65
 10
0.0
 20
0.0
 30
0.0
  3
*U185
  1

  0
CIRCLE
  5
727
  8
1
 10
1048.575811
 20
-364.940408
 30
0.0
 40
0.888911
  0
CIRCLE
  5
728
  8
1
 10
1048.575811
 20
-335.398321
 30
0.0
 40
0.888911
  0
CIRCLE
  5
729
  8
1
 10
1061.36791
 20
-357.554886
 30
0.0
 40
0.888911
  0
CIRCLE
  5
72A
  8
1
 10
1061.36791
 20
-342.783843
 30
0.0
 40
0.888911
  0
CIRCLE
  5
72B
  8
1
 10
1048.575811
 20
-350.169365
 30
0.0
 40
0.888911
  0
ENDBLK
  5
72C
  8
0
  0
BLOCK
  5
72E
  8
1
  2
*U186
 70
    65
 10
0.0
 20
0.0
 30
0.0
  3
*U186
  1

  0
CIRCLE
  5
72F
  8
1
 10
1099.744206
 20
-364.940408
 30
0.0
 40
0.888911
  0
CIRCLE
  5
730
  8
1
 10
1099.744206
 20
-335.398321
 30
0.0
 40
0.888911
  0
CIRCLE
  5
731
  8
1
 10
1112.536305
 20
-357.554886
 30
0.0
 40
0.888911
  0
CIRCLE
  5
732
  8
1
 10
1112.536305
 20
-342.783843
 30
0.0
 40
0.888911
  0
CIRCLE
  5
733
  8
1
 10
1099.744206
 20
-350.169365
 30
0.0
 40
0.888911
  0
ENDBLK
  5
734
  8
0
  0
BLOCK
  5
736
  8
1
  2
*U187
 70
    65
 10
0.0
 20
0.0
 30
0.0
  3
*U187
  1

  0
CIRCLE
  5
737
  8
1
 10
1125.328403
 20
-364.940408
 30
0.0
 40
0.888911
  0
CIRCLE
  5
738
  8
1
 10
1125.328403
 20
-335.398321
 30
0.0
 40
0.888911
  0
CIRCLE
  5
739
  8
1
 10
1138.120502
 20
-357.554886
 30
0.0
 40
0.888911
  0
CIRCLE
  5
73A
  8
1
 10
1138.120502
 20
-342.783843
 30
0.0
 40
0.888911
  0
CIRCLE
  5
73B
  8
1
 10
1125.328403
 20
-350.169365
 30
0.0
 40
0.888911
  0
ENDBLK
  5
73C
  8
0
  0
BLOCK
  5
73E
  8
1
  2
*U188
 70
    65
 10
0.0
 20
0.0
 30
0.0
  3
*U188
  1

  0
CIRCLE
  5
73F
  8
1
 10
1150.912601
 20
-364.940408
 30
0.0
 40
0.888911
  0
CIRCLE
  5
740
  8
1
 10
1150.912601
 20
-335.398321
 30
0.0
 40
0.888911
  0
CIRCLE
  5
741
  8
1
 10
1163.704699
 20
-357.554886
 30
0.0
 40
0.888911
  0
CIRCLE
  5
742
  8
1
 10
1163.704699
 20
-342.783843
 30
0.0
 40
0.888911
  0
CIRCLE
  5
743
  8
1
 10
1150.912601
 20
-350.169365
 30
0.0
 40
0.888911
  0
ENDBLK
  5
744
  8
0
  0
BLOCK
  5
746
  8
1
  2
*U189
 70
    65
 10
0.0
 20
0.0
 30
0.0
  3
*U189
  1

  0
CIRCLE
  5
747
  8
1
 10
1176.496798
 20
-364.940408
 30
0.0
 40
0.888911
  0
CIRCLE
  5
748
  8
1
 10
1176.496798
 20
-335.398321
 30
0.0
 40
0.888911
  0
CIRCLE
  5
749
  8
1
 10
1189.288897
 20
-357.554886
 30
0.0
 40
0.888911
  0
CIRCLE
  5
74A
  8
1
 10
1189.288897
 20
-342.783843
 30
0.0
 40
0.888911
  0
CIRCLE
  5
74B
  8
1
 10
1176.496798
 20
-350.169365
 30
0.0
 40
0.888911
  0
ENDBLK
  5
74C
  8
0
  0
BLOCK
  5
74E
  8
1
  2
*U190
 70
    65
 10
0.0
 20
0.0
 30
0.0
  3
*U190
  1

  0
CIRCLE
  5
74F
  8
1
 10
1202.080996
 20
-364.940408
 30
0.0
 40
0.888911
  0
CIRCLE
  5
750
  8
1
 10
1202.080996
 20
-335.398321
 30
0.0
 40
0.888911
  0
CIRCLE
  5
751
  8
1
 10
1214.873094
 20
-357.554886
 30
0.0
 40
0.888911
  0
CIRCLE
  5
752
  8
1
 10
1214.873094
 20
-342.783843
 30
0.0
 40
0.888911
  0
CIRCLE
  5
753
  8
1
 10
1202.080996
 20
-350.169365
 30
0.0
 40
0.888911
  0
ENDBLK
  5
754
  8
0
  0
BLOCK
  5
756
  8
1
  2
*U191
 70
    65
 10
0.0
 20
0.0
 30
0.0
  3
*U191
  1

  0
CIRCLE
  5
757
  8
1
 10
1227.665193
 20
-364.940408
 30
0.0
 40
0.888911
  0
CIRCLE
  5
758
  8
1
 10
1227.665193
 20
-335.398321
 30
0.0
 40
0.888911
  0
CIRCLE
  5
759
  8
1
 10
1240.457292
 20
-357.554886
 30
0.0
 40
0.888911
  0
CIRCLE
  5
75A
  8
1
 10
1240.457292
 20
-342.783843
 30
0.0
 40
0.888911
  0
CIRCLE
  5
75B
  8
1
 10
1227.665193
 20
-350.169365
 30
0.0
 40
0.888911
  0
ENDBLK
  5
75C
  8
0
  0
BLOCK
  5
75E
  8
1
  2
*U192
 70
    65
 10
0.0
 20
0.0
 30
0.0
  3
*U192
  1

  0
CIRCLE
  5
75F
  8
1
 10
1253.24939
 20
-364.940408
 30
0.0
 40
0.888911
  0
CIRCLE
  5
760
  8
1
 10
1253.24939
 20
-335.398321
 30
0.0
 40
0.888911
  0
CIRCLE
  5
761
  8
1
 10
1266.041489
 20
-357.554886
 30
0.0
 40
0.888911
  0
CIRCLE
  5
762
  8
1
 10
1266.041489
 20
-342.783843
 30
0.0
 40
0.888911
  0
CIRCLE
  5
763
  8
1
 10
1253.24939
 20
-350.169365
 30
0.0
 40
0.888911
  0
ENDBLK
  5
764
  8
0
  0
BLOCK
  5
766
  8
1
  2
*U193
 70
    65
 10
0.0
 20
0.0
 30
0.0
  3
*U193
  1

  0
CIRCLE
  5
767
  8
1
 10
1278.833588
 20
-364.940408
 30
0.0
 40
0.888911
  0
CIRCLE
  5
768
  8
1
 10
1278.833588
 20
-335.398321
 30
0.0
 40
0.888911
  0
CIRCLE
  5
769
  8
1
 10
1291.625687
 20
-357.554886
 30
0.0
 40
0.888911
  0
CIRCLE
  5
76A
  8
1
 10
1291.625687
 20
-342.783843
 30
0.0
 40
0.888911
  0
CIRCLE
  5
76B
  8
1
 10
1278.833588
 20
-350.169365
 30
0.0
 40
0.888911
  0
ENDBLK
  5
76C
  8
0
  0
BLOCK
  5
76E
  8
1
  2
*U194
 70
    65
 10
0.0
 20
0.0
 30
0.0
  3
*U194
  1

  0
CIRCLE
  5
76F
  8
1
 10
1304.417785
 20
-364.940408
 30
0.0
 40
0.888911
  0
CIRCLE
  5
770
  8
1
 10
1304.417785
 20
-335.398321
 30
0.0
 40
0.888911
  0
CIRCLE
  5
771
  8
1
 10
1317.209884
 20
-357.554886
 30
0.0
 40
0.888911
  0
CIRCLE
  5
772
  8
1
 10
1317.209884
 20
-342.783843
 30
0.0
 40
0.888911
  0
CIRCLE
  5
773
  8
1
 10
1304.417785
 20
-350.169365
 30
0.0
 40
0.888911
  0
ENDBLK
  5
774
  8
0
  0
BLOCK
  5
776
  8
1
  2
*U195
 70
    65
 10
0.0
 20
0.0
 30
0.0
  3
*U195
  1

  0
CIRCLE
  5
777
  8
1
 10
1330.001983
 20
-364.940408
 30
0.0
 40
0.888911
  0
CIRCLE
  5
778
  8
1
 10
1330.001983
 20
-335.398321
 30
0.0
 40
0.888911
  0
CIRCLE
  5
779
  8
1
 10
1342.794081
 20
-357.554886
 30
0.0
 40
0.888911
  0
CIRCLE
  5
77A
  8
1
 10
1342.794081
 20
-342.783843
 30
0.0
 40
0.888911
  0
CIRCLE
  5
77B
  8
1
 10
1330.001983
 20
-350.169365
 30
0.0
 40
0.888911
  0
ENDBLK
  5
77C
  8
0
  0
BLOCK
  5
77E
  8
1
  2
*U196
 70
    65
 10
0.0
 20
0.0
 30
0.0
  3
*U196
  1

  0
CIRCLE
  5
77F
  8
1
 10
1355.58618
 20
-364.940408
 30
0.0
 40
0.888911
  0
CIRCLE
  5
780
  8
1
 10
1355.58618
 20
-335.398321
 30
0.0
 40
0.888911
  0
CIRCLE
  5
781
  8
1
 10
1368.378279
 20
-357.554886
 30
0.0
 40
0.888911
  0
CIRCLE
  5
782
  8
1
 10
1368.378279
 20
-342.783843
 30
0.0
 40
0.888911
  0
CIRCLE
  5
783
  8
1
 10
1355.58618
 20
-350.169365
 30
0.0
 40
0.888911
  0
ENDBLK
  5
784
  8
0
  0
BLOCK
  5
786
  8
1
  2
*U197
 70
    65
 10
0.0
 20
0.0
 30
0.0
  3
*U197
  1

  0
CIRCLE
  5
787
  8
1
 10
1381.170377
 20
-364.940408
 30
0.0
 40
0.888911
  0
CIRCLE
  5
788
  8
1
 10
1381.170377
 20
-335.398321
 30
0.0
 40
0.888911
  0
CIRCLE
  5
789
  8
1
 10
1393.962476
 20
-357.554886
 30
0.0
 40
0.888911
  0
CIRCLE
  5
78A
  8
1
 10
1393.962476
 20
-342.783843
 30
0.0
 40
0.888911
  0
CIRCLE
  5
78B
  8
1
 10
1381.170377
 20
-350.169365
 30
0.0
 40
0.888911
  0
ENDBLK
  5
78C
  8
0
  0
BLOCK
  5
78E
  8
1
  2
*U198
 70
    65
 10
0.0
 20
0.0
 30
0.0
  3
*U198
  1

  0
CIRCLE
  5
78F
  8
1
 10
1406.754575
 20
-364.940408
 30
0.0
 40
0.888911
  0
CIRCLE
  5
790
  8
1
 10
1406.754575
 20
-335.398321
 30
0.0
 40
0.888911
  0
CIRCLE
  5
791
  8
1
 10
1419.546674
 20
-357.554886
 30
0.0
 40
0.888911
  0
CIRCLE
  5
792
  8
1
 10
1419.546674
 20
-342.783843
 30
0.0
 40
0.888911
  0
CIRCLE
  5
793
  8
1
 10
1406.754575
 20
-350.169365
 30
0.0
 40
0.888911
  0
ENDBLK
  5
794
  8
0
  0
BLOCK
  5
796
  8
1
  2
*U199
 70
    65
 10
0.0
 20
0.0
 30
0.0
  3
*U199
  1

  0
CIRCLE
  5
797
  8
1
 10
1432.338772
 20
-364.940408
 30
0.0
 40
0.888911
  0
CIRCLE
  5
798
  8
1
 10
1432.338772
 20
-335.398321
 30
0.0
 40
0.888911
  0
CIRCLE
  5
799
  8
1
 10
1445.130871
 20
-357.554886
 30
0.0
 40
0.888911
  0
CIRCLE
  5
79A
  8
1
 10
1445.130871
 20
-342.783843
 30
0.0
 40
0.888911
  0
CIRCLE
  5
79B
  8
1
 10
1432.338772
 20
-350.169365
 30
0.0
 40
0.888911
  0
ENDBLK
  5
79C
  8
0
  0
BLOCK
  5
79E
  8
1
  2
*U200
 70
    65
 10
0.0
 20
0.0
 30
0.0
  3
*U200
  1

  0
CIRCLE
  5
79F
  8
1
 10
1457.92297
 20
-364.940408
 30
0.0
 40
0.888911
  0
CIRCLE
  5
7A0
  8
1
 10
1457.92297
 20
-335.398321
 30
0.0
 40
0.888911
  0
CIRCLE
  5
7A1
  8
1
 10
1470.715068
 20
-357.554886
 30
0.0
 40
0.888911
  0
CIRCLE
  5
7A2
  8
1
 10
1470.715068
 20
-342.783843
 30
0.0
 40
0.888911
  0
CIRCLE
  5
7A3
  8
1
 10
1457.92297
 20
-350.169365
 30
0.0
 40
0.888911
  0
ENDBLK
  5
7A4
  8
0
  0
BLOCK
  5
7A6
  8
1
  2
*U201
 70
    65
 10
0.0
 20
0.0
 30
0.0
  3
*U201
  1

  0
CIRCLE
  5
7A7
  8
1
 10
1483.507167
 20
-364.940408
 30
0.0
 40
0.888911
  0
CIRCLE
  5
7A8
  8
1
 10
1483.507167
 20
-335.398321
 30
0.0
 40
0.888911
  0
CIRCLE
  5
7A9
  8
1
 10
1496.299266
 20
-357.554886
 30
0.0
 40
0.888911
  0
CIRCLE
  5
7AA
  8
1
 10
1496.299266
 20
-342.783843
 30
0.0
 40
0.888911
  0
CIRCLE
  5
7AB
  8
1
 10
1483.507167
 20
-350.169365
 30
0.0
 40
0.888911
  0
ENDBLK
  5
7AC
  8
0
  0
BLOCK
  5
7AE
  8
1
  2
*U202
 70
    65
 10
0.0
 20
0.0
 30
0.0
  3
*U202
  1

  0
CIRCLE
  5
7AF
  8
1
 10
1509.091365
 20
-364.940408
 30
0.0
 40
0.888911
  0
CIRCLE
  5
7B0
  8
1
 10
1509.091365
 20
-335.398321
 30
0.0
 40
0.888911
  0
CIRCLE
  5
7B1
  8
1
 10
1521.883463
 20
-357.554886
 30
0.0
 40
0.888911
  0
CIRCLE
  5
7B2
  8
1
 10
1521.883463
 20
-342.783843
 30
0.0
 40
0.888911
  0
CIRCLE
  5
7B3
  8
1
 10
1509.091365
 20
-350.169365
 30
0.0
 40
0.888911
  0
ENDBLK
  5
7B4
  8
0
  0
BLOCK
  5
7B6
  8
1
  2
*U203
 70
    65
 10
0.0
 20
0.0
 30
0.0
  3
*U203
  1

  0
CIRCLE
  5
7B7
  8
1
 10
1534.675562
 20
-364.940408
 30
0.0
 40
0.888911
  0
CIRCLE
  5
7B8
  8
1
 10
1534.675562
 20
-335.398321
 30
0.0
 40
0.888911
  0
CIRCLE
  5
7B9
  8
1
 10
1547.467661
 20
-357.554886
 30
0.0
 40
0.888911
  0
CIRCLE
  5
7BA
  8
1
 10
1547.467661
 20
-342.783843
 30
0.0
 40
0.888911
  0
CIRCLE
  5
7BB
  8
1
 10
1534.675562
 20
-350.169365
 30
0.0
 40
0.888911
  0
ENDBLK
  5
7BC
  8
0
  0
BLOCK
  5
7BE
  8
1
  2
*U204
 70
    65
 10
0.0
 20
0.0
 30
0.0
  3
*U204
  1

  0
CIRCLE
  5
7BF
  8
1
 10
1560.259759
 20
-364.940408
 30
0.0
 40
0.888911
  0
CIRCLE
  5
7C0
  8
1
 10
1560.259759
 20
-335.398321
 30
0.0
 40
0.888911
  0
CIRCLE
  5
7C1
  8
1
 10
1573.051858
 20
-357.554886
 30
0.0
 40
0.888911
  0
CIRCLE
  5
7C2
  8
1
 10
1573.051858
 20
-342.783843
 30
0.0
 40
0.888911
  0
CIRCLE
  5
7C3
  8
1
 10
1560.259759
 20
-350.169365
 30
0.0
 40
0.888911
  0
ENDBLK
  5
7C4
  8
0
  0
BLOCK
  5
7C6
  8
1
  2
*U205
 70
    65
 10
0.0
 20
0.0
 30
0.0
  3
*U205
  1

  0
CIRCLE
  5
7C7
  8
1
 10
1585.843957
 20
-364.940408
 30
0.0
 40
0.888911
  0
CIRCLE
  5
7C8
  8
1
 10
1585.843957
 20
-335.398321
 30
0.0
 40
0.888911
  0
CIRCLE
  5
7C9
  8
1
 10
1598.636055
 20
-357.554886
 30
0.0
 40
0.888911
  0
CIRCLE
  5
7CA
  8
1
 10
1598.636055
 20
-342.783843
 30
0.0
 40
0.888911
  0
CIRCLE
  5
7CB
  8
1
 10
1585.843957
 20
-350.169365
 30
0.0
 40
0.888911
  0
ENDBLK
  5
7CC
  8
0
  0
BLOCK
  5
7CE
  8
1
  2
*U206
 70
    65
 10
0.0
 20
0.0
 30
0.0
  3
*U206
  1

  0
CIRCLE
  5
7CF
  8
1
 10
1611.428154
 20
-364.940408
 30
0.0
 40
0.888911
  0
CIRCLE
  5
7D0
  8
1
 10
1611.428154
 20
-335.398321
 30
0.0
 40
0.888911
  0
CIRCLE
  5
7D1
  8
1
 10
1624.220253
 20
-357.554886
 30
0.0
 40
0.888911
  0
CIRCLE
  5
7D2
  8
1
 10
1624.220253
 20
-342.783843
 30
0.0
 40
0.888911
  0
CIRCLE
  5
7D3
  8
1
 10
1611.428154
 20
-350.169365
 30
0.0
 40
0.888911
  0
ENDBLK
  5
7D4
  8
0
  0
BLOCK
  5
7D6
  8
1
  2
*U207
 70
    65
 10
0.0
 20
0.0
 30
0.0
  3
*U207
  1

  0
CIRCLE
  5
7D7
  8
1
 10
1637.012352
 20
-364.940408
 30
0.0
 40
0.888911
  0
CIRCLE
  5
7D8
  8
1
 10
1637.012352
 20
-335.398321
 30
0.0
 40
0.888911
  0
CIRCLE
  5
7D9
  8
1
 10
1649.80445
 20
-357.554886
 30
0.0
 40
0.888911
  0
CIRCLE
  5
7DA
  8
1
 10
1649.80445
 20
-342.783843
 30
0.0
 40
0.888911
  0
CIRCLE
  5
7DB
  8
1
 10
1637.012352
 20
-350.169365
 30
0.0
 40
0.888911
  0
ENDBLK
  5
7DC
  8
0
  0
BLOCK
  5
7DE
  8
1
  2
*U208
 70
    65
 10
0.0
 20
0.0
 30
0.0
  3
*U208
  1

  0
CIRCLE
  5
7DF
  8
1
 10
1662.596549
 20
-364.940408
 30
0.0
 40
0.888911
  0
CIRCLE
  5
7E0
  8
1
 10
1662.596549
 20
-335.398321
 30
0.0
 40
0.888911
  0
CIRCLE
  5
7E1
  8
1
 10
1675.388648
 20
-357.554886
 30
0.0
 40
0.888911
  0
CIRCLE
  5
7E2
  8
1
 10
1675.388648
 20
-342.783843
 30
0.0
 40
0.888911
  0
CIRCLE
  5
7E3
  8
1
 10
1662.596549
 20
-350.169365
 30
0.0
 40
0.888911
  0
ENDBLK
  5
7E4
  8
0
  0
BLOCK
  5
7E6
  8
1
  2
*U209
 70
    65
 10
0.0
 20
0.0
 30
0.0
  3
*U209
  1

  0
CIRCLE
  5
7E7
  8
1
 10
1688.180746
 20
-364.940408
 30
0.0
 40
0.888911
  0
CIRCLE
  5
7E8
  8
1
 10
1688.180746
 20
-335.398321
 30
0.0
 40
0.888911
  0
CIRCLE
  5
7E9
  8
1
 10
1700.972845
 20
-357.554886
 30
0.0
 40
0.888911
  0
CIRCLE
  5
7EA
  8
1
 10
1700.972845
 20
-342.783843
 30
0.0
 40
0.888911
  0
CIRCLE
  5
7EB
  8
1
 10
1688.180746
 20
-350.169365
 30
0.0
 40
0.888911
  0
ENDBLK
  5
7EC
  8
0
  0
BLOCK
  5
7EE
  8
1
  2
*U210
 70
    65
 10
0.0
 20
0.0
 30
0.0
  3
*U210
  1

  0
CIRCLE
  5
7EF
  8
1
 10
1713.764944
 20
-364.940408
 30
0.0
 40
0.888911
  0
CIRCLE
  5
7F0
  8
1
 10
1713.764944
 20
-335.398321
 30
0.0
 40
0.888911
  0
CIRCLE
  5
7F1
  8
1
 10
1726.557043
 20
-357.554886
 30
0.0
 40
0.888911
  0
CIRCLE
  5
7F2
  8
1
 10
1726.557043
 20
-342.783843
 30
0.0
 40
0.888911
  0
CIRCLE
  5
7F3
  8
1
 10
1713.764944
 20
-350.169365
 30
0.0
 40
0.888911
  0
ENDBLK
  5
7F4
  8
0
  0
BLOCK
  5
7F6
  8
1
  2
*U211
 70
    65
 10
0.0
 20
0.0
 30
0.0
  3
*U211
  1

  0
CIRCLE
  5
7F7
  8
1
 10
1739.349141
 20
-364.940408
 30
0.0
 40
0.888911
  0
CIRCLE
  5
7F8
  8
1
 10
1739.349141
 20
-335.398321
 30
0.0
 40
0.888911
  0
CIRCLE
  5
7F9
  8
1
 10
1752.14124
 20
-357.554886
 30
0.0
 40
0.888911
  0
CIRCLE
  5
7FA
  8
1
 10
1752.14124
 20
-342.783843
 30
0.0
 40
0.888911
  0
CIRCLE
  5
7FB
  8
1
 10
1739.349141
 20
-350.169365
 30
0.0
 40
0.888911
  0
ENDBLK
  5
7FC
  8
0
  0
BLOCK
  5
7FE
  8
1
  2
*U212
 70
    65
 10
0.0
 20
0.0
 30
0.0
  3
*U212
  1

  0
CIRCLE
  5
7FF
  8
1
 10
1764.933339
 20
-364.940408
 30
0.0
 40
0.888911
  0
CIRCLE
  5
800
  8
1
 10
1764.933339
 20
-335.398321
 30
0.0
 40
0.888911
  0
CIRCLE
  5
801
  8
1
 10
1777.725437
 20
-357.554886
 30
0.0
 40
0.888911
  0
CIRCLE
  5
802
  8
1
 10
1777.725437
 20
-342.783843
 30
0.0
 40
0.888911
  0
CIRCLE
  5
803
  8
1
 10
1764.933339
 20
-350.169365
 30
0.0
 40
0.888911
  0
ENDBLK
  5
804
  8
0
  0
BLOCK
  5
806
  8
1
  2
*U213
 70
    65
 10
0.0
 20
0.0
 30
0.0
  3
*U213
  1

  0
CIRCLE
  5
807
  8
1
 10
1790.517536
 20
-364.940408
 30
0.0
 40
0.888911
  0
CIRCLE
  5
808
  8
1
 10
1790.517536
 20
-335.398321
 30
0.0
 40
0.888911
  0
CIRCLE
  5
809
  8
1
 10
1803.309635
 20
-357.554886
 30
0.0
 40
0.888911
  0
CIRCLE
  5
80A
  8
1
 10
1803.309635
 20
-342.783843
 30
0.0
 40
0.888911
  0
CIRCLE
  5
80B
  8
1
 10
1790.517536
 20
-350.169365
 30
0.0
 40
0.888911
  0
ENDBLK
  5
80C
  8
0
  0
BLOCK
  5
80E
  8
1
  2
*U214
 70
    65
 10
0.0
 20
0.0
 30
0.0
  3
*U214
  1

  0
CIRCLE
  5
80F
  8
1
 10
1816.101733
 20
-364.940408
 30
0.0
 40
0.888911
  0
CIRCLE
  5
810
  8
1
 10
1816.101733
 20
-335.398321
 30
0.0
 40
0.888911
  0
CIRCLE
  5
811
  8
1
 10
1828.893832
 20
-357.554886
 30
0.0
 40
0.888911
  0
CIRCLE
  5
812
  8
1
 10
1828.893832
 20
-342.783843
 30
0.0
 40
0.888911
  0
CIRCLE
  5
813
  8
1
 10
1816.101733
 20
-350.169365
 30
0.0
 40
0.888911
  0
ENDBLK
  5
814
  8
0
  0
BLOCK
  5
816
  8
1
  2
*U215
 70
    65
 10
0.0
 20
0.0
 30
0.0
  3
*U215
  1

  0
CIRCLE
  5
817
  8
1
 10
1841.685931
 20
-364.940408
 30
0.0
 40
0.888911
  0
CIRCLE
  5
818
  8
1
 10
1841.685931
 20
-335.398321
 30
0.0
 40
0.888911
  0
CIRCLE
  5
819
  8
1
 10
1854.47803
 20
-357.554886
 30
0.0
 40
0.888911
  0
CIRCLE
  5
81A
  8
1
 10
1854.47803
 20
-342.783843
 30
0.0
 40
0.888911
  0
CIRCLE
  5
81B
  8
1
 10
1841.685931
 20
-350.169365
 30
0.0
 40
0.888911
  0
ENDBLK
  5
81C
  8
0
  0
BLOCK
  5
81E
  8
1
  2
*U216
 70
    65
 10
0.0
 20
0.0
 30
0.0
  3
*U216
  1

  0
CIRCLE
  5
81F
  8
1
 10
1867.270128
 20
-364.940408
 30
0.0
 40
0.888911
  0
CIRCLE
  5
820
  8
1
 10
1867.270128
 20
-335.398321
 30
0.0
 40
0.888911
  0
CIRCLE
  5
821
  8
1
 10
1867.270128
 20
-350.169365
 30
0.0
 40
0.888911
  0
ENDBLK
  5
822
  8
0
  0
BLOCK
  5
824
  8
2
  2
*D217
 70
    65
 10
0.0
 20
0.0
 30
0.0
  3
*D217
  1

  0
POINT
  5
825
  8
DEFPOINTS
 10
827.132759
 20
869.486571
 30
0.0
  0
POINT
  5
826
  8
DEFPOINTS
 10
1442.132759
 20
869.486571
 30
0.0
  0
POINT
  5
827
  8
DEFPOINTS
 10
1135.984415
 20
1107.605952
 30
0.0
  0
LINE
  5
828
  8
2
  6
CONTINUOUS
 10
827.132759
 20
875.486571
 30
0.0
 11
827.132759
 21
1112.605952
 31
0.0
  0
LINE
  5
829
  8
2
  6
CONTINUOUS
 10
1442.132759
 20
875.486571
 30
0.0
 11
1442.132759
 21
1112.605952
 31
0.0
  0
LINE
  5
82A
  8
2
  6
CONTINUOUS
 10
827.132759
 20
1107.605952
 30
0.0
 11
1442.132759
 21
1107.605952
 31
0.0
  0
LINE
  5
82B
  8
2
  6
CONTINUOUS
 10
855.19978
 20
1112.554925
 30
0.0
 11
827.132759
 21
1107.605952
 31
0.0
  0
LINE
  5
82C
  8
2
  6
CONTINUOUS
 10
855.19978
 20
1102.656979
 30
0.0
 11
827.132759
 21
1107.605952
 31
0.0
  0
LINE
  5
82D
  8
2
  6
CONTINUOUS
 10
1414.065739
 20
1102.656977
 30
0.0
 11
1442.132759
 21
1107.605952
 31
0.0
  0
LINE
  5
82E
  8
2
  6
CONTINUOUS
 10
1414.065738
 20
1112.554923
 30
0.0
 11
1442.132759
 21
1107.605952
 31
0.0
  0
TEXT
  5
82F
  8
2
  6
CONTINUOUS
 10
1064.432739
 20
1111.605957
 30
0.0
 40
52.0
  1
６１５
 41
0.9
  7
MONOTXT
  0
ENDBLK
  5
830
  8
0
  0
BLOCK
  5
832
  8
2
  2
*D218
 70
    65
 10
0.0
 20
0.0
 30
0.0
  3
*D218
  1

  0
POINT
  5
833
  8
DEFPOINTS
 10
1632.632759
 20
803.486571
 30
0.0
  0
POINT
  5
834
  8
DEFPOINTS
 10
1717.632759
 20
803.486571
 30
0.0
  0
POINT
  5
835
  8
DEFPOINTS
 10
1571.751622
 20
1108.208468
 30
0.0
  0
LINE
  5
836
  8
2
  6
CONTINUOUS
 10
1632.632759
 20
809.486571
 30
0.0
 11
1632.632759
 21
1113.208468
 31
0.0
  0
LINE
  5
837
  8
2
  6
CONTINUOUS
 10
1717.632759
 20
809.486571
 30
0.0
 11
1717.632759
 21
1113.208468
 31
0.0
  0
LINE
  5
838
  8
2
  6
CONTINUOUS
 10
1492.232765
 20
1108.208468
 30
0.0
 11
1759.733292
 21
1108.208468
 31
0.0
  0
LINE
  5
839
  8
2
  6
CONTINUOUS
 10
1604.565739
 20
1103.259492
 30
0.0
 11
1632.632759
 21
1108.208468
 31
0.0
  0
LINE
  5
83A
  8
2
  6
CONTINUOUS
 10
1604.565738
 20
1113.157438
 30
0.0
 11
1632.632759
 21
1108.208468
 31
0.0
  0
LINE
  5
83B
  8
2
  6
CONTINUOUS
 10
1745.699779
 20
1113.157446
 30
0.0
 11
1717.632759
 21
1108.208468
 31
0.0
  0
LINE
  5
83C
  8
2
  6
CONTINUOUS
 10
1745.699781
 20
1103.259499
 30
0.0
 11
1717.632759
 21
1108.208468
 31
0.0
  0
TEXT
  5
83D
  8
2
  6
CONTINUOUS
 10
1515.632812
 20
1112.208496
 30
0.0
 40
52.0
  1
８５
 41
0.9
  7
MONOTXT
  0
ENDBLK
  5
83E
  8
0
  0
BLOCK
  5
840
  8
2
  2
*D219
 70
    65
 10
0.0
 20
0.0
 30
0.0
  3
*D219
  1

  0
POINT
  5
841
  8
DEFPOINTS
 10
1717.632759
 20
723.486571
 30
0.0
  0
POINT
  5
842
  8
DEFPOINTS
 10
1717.632759
 20
803.486571
 30
0.0
  0
POINT
  5
843
  8
DEFPOINTS
 10
2145.231588
 20
636.448913
 30
0.0
  0
LINE
  5
844
  8
2
  6
CONTINUOUS
 10
1723.632759
 20
723.486571
 30
0.0
 11
2150.231588
 21
723.486571
 31
0.0
  0
LINE
  5
845
  8
2
  6
CONTINUOUS
 10
1723.632759
 20
803.486571
 30
0.0
 11
2150.231588
 21
803.486571
 31
0.0
  0
LINE
  5
846
  8
2
  6
CONTINUOUS
 10
2145.231588
 20
583.086577
 30
0.0
 11
2145.231588
 21
845.587104
 31
0.0
  0
LINE
  5
847
  8
2
  6
CONTINUOUS
 10
2150.180562
 20
695.41955
 30
0.0
 11
2145.231588
 21
723.486571
 31
0.0
  0
LINE
  5
848
  8
2
  6
CONTINUOUS
 10
2140.282616
 20
695.41955
 30
0.0
 11
2145.231588
 21
723.486571
 31
0.0
  0
LINE
  5
849
  8
2
  6
CONTINUOUS
 10
2140.282619
 20
831.553593
 30
0.0
 11
2145.231588
 21
803.486571
 31
0.0
  0
LINE
  5
84A
  8
2
  6
CONTINUOUS
 10
2150.180565
 20
831.553591
 30
0.0
 11
2145.231588
 21
803.486571
 31
0.0
  0
TEXT
  5
84B
  8
2
  6
CONTINUOUS
 10
2141.231689
 20
606.486572
 30
0.0
 40
52.0
  1
８０
 50
90.000003
 41
0.9
  7
MONOTXT
  0
ENDBLK
  5
84C
  8
0
  0
BLOCK
  5
84E
  8
2
  2
*D220
 70
    65
 10
0.0
 20
0.0
 30
0.0
  3
*D220
  1

  0
POINT
  5
84F
  8
DEFPOINTS
 10
827.132759
 20
734.486571
 30
0.0
  0
POINT
  5
850
  8
DEFPOINTS
 10
827.132759
 20
869.486571
 30
0.0
  0
POINT
  5
851
  8
DEFPOINTS
 10
277.306566
 20
745.915057
 30
0.0
  0
LINE
  5
852
  8
2
  6
CONTINUOUS
 10
821.132759
 20
734.486571
 30
0.0
 11
272.306566
 21
734.486571
 31
0.0
  0
LINE
  5
853
  8
2
  6
CONTINUOUS
 10
821.132759
 20
869.486571
 30
0.0
 11
272.306566
 21
869.486571
 31
0.0
  0
LINE
  5
854
  8
2
  6
CONTINUOUS
 10
277.306566
 20
338.402495
 30
0.0
 11
277.306566
 21
911.587104
 31
0.0
  0
LINE
  5
855
  8
2
  6
CONTINUOUS
 10
282.255539
 20
706.41955
 30
0.0
 11
277.306566
 21
734.486571
 31
0.0
  0
LINE
  5
856
  8
2
  6
CONTINUOUS
 10
272.357593
 20
706.41955
 30
0.0
 11
277.306566
 21
734.486571
 31
0.0
  0
LINE
  5
857
  8
2
  6
CONTINUOUS
 10
272.357597
 20
897.553593
 30
0.0
 11
277.306566
 21
869.486571
 31
0.0
  0
LINE
  5
858
  8
2
  6
CONTINUOUS
 10
282.255543
 20
897.553591
 30
0.0
 11
277.306566
 21
869.486571
 31
0.0
  0
TEXT
  5
859
  8
2
  6
CONTINUOUS
 10
273.30658
 20
361.80249
 30
0.0
 40
52.0
  1
１３５
 50
90.000003
 41
0.9
  7
MONOTXT
  0
ENDBLK
  5
85A
  8
0
  0
BLOCK
  5
85C
  8
2
  2
*D221
 70
    65
 10
0.0
 20
0.0
 30
0.0
  3
*D221
  1

  0
POINT
  5
85D
  8
DEFPOINTS
 10
2152.13269
 20
563.286671
 30
0.0
  0
POINT
  5
85E
  8
DEFPOINTS
 10
2120.732759
 20
858.262042
 30
0.0
  0
POINT
  5
85F
  8
DEFPOINTS
 10
2499.941895
 20
871.784948
 30
0.0
  0
LINE
  5
860
  8
2
  6
CONTINUOUS
 10
2158.13269
 20
563.286671
 30
0.0
 11
2504.941895
 21
563.286671
 31
0.0
  0
LINE
  5
861
  8
2
  6
CONTINUOUS
 10
2126.732759
 20
858.262042
 30
0.0
 11
2504.941895
 21
858.262042
 31
0.0
  0
LINE
  5
862
  8
2
  6
CONTINUOUS
 10
2499.941895
 20
563.286671
 30
0.0
 11
2499.941895
 21
858.262042
 31
0.0
  0
LINE
  5
863
  8
2
  6
CONTINUOUS
 10
2494.992921
 20
591.353692
 30
0.0
 11
2499.941895
 21
563.286671
 31
0.0
  0
LINE
  5
864
  8
2
  6
CONTINUOUS
 10
2504.890867
 20
591.353692
 30
0.0
 11
2499.941895
 21
563.286671
 31
0.0
  0
LINE
  5
865
  8
2
  6
CONTINUOUS
 10
2504.890869
 20
830.195021
 30
0.0
 11
2499.941895
 21
858.262042
 31
0.0
  0
LINE
  5
866
  8
2
  6
CONTINUOUS
 10
2494.992923
 20
830.195021
 30
0.0
 11
2499.941895
 21
858.262042
 31
0.0
  0
TEXT
  5
867
  8
2
  6
CONTINUOUS
 10
2495.941895
 20
640.574341
 30
0.0
 40
52.0
  1
２９０
 50
90.000003
 41
0.9
  7
MONOTXT
  0
ENDBLK
  5
868
  8
0
  0
BLOCK
  5
86A
  8
2
  2
*D222
 70
    65
 10
0.0
 20
0.0
 30
0.0
  3
*D222
  1

  0
POINT
  5
86B
  8
DEFPOINTS
 10
362.13299
 20
563.286471
 30
0.0
  0
POINT
  5
86C
  8
DEFPOINTS
 10
260.633586
 20
922.286571
 30
0.0
  0
POINT
  5
86D
  8
DEFPOINTS
 10
-38.59214
 20
587.84823
 30
0.0
  0
LINE
  5
86E
  8
2
  6
CONTINUOUS
 10
356.13299
 20
563.286471
 30
0.0
 11
-43.59214
 21
563.286471
 31
0.0
  0
LINE
  5
86F
  8
2
  6
CONTINUOUS
 10
254.633586
 20
922.286571
 30
0.0
 11
-43.59214
 21
922.286571
 31
0.0
  0
LINE
  5
870
  8
2
  6
CONTINUOUS
 10
-38.59214
 20
563.286471
 30
0.0
 11
-38.59214
 21
922.286571
 31
0.0
  0
LINE
  5
871
  8
2
  6
CONTINUOUS
 10
-43.541114
 20
591.353492
 30
0.0
 11
-38.59214
 21
563.286471
 31
0.0
  0
LINE
  5
872
  8
2
  6
CONTINUOUS
 10
-33.643168
 20
591.353492
 30
0.0
 11
-38.59214
 21
563.286471
 31
0.0
  0
LINE
  5
873
  8
2
  6
CONTINUOUS
 10
-33.643166
 20
894.21955
 30
0.0
 11
-38.59214
 21
922.286571
 31
0.0
  0
LINE
  5
874
  8
2
  6
CONTINUOUS
 10
-43.541112
 20
894.21955
 30
0.0
 11
-38.59214
 21
922.286571
 31
0.0
  0
TEXT
  5
875
  8
2
  6
CONTINUOUS
 10
-42.592136
 20
625.786499
 30
0.0
 40
52.0
  1
３５０以上
 50
90.000003
 41
0.9
  7
MONOTXT
  0
ENDBLK
  5
876
  8
0
  0
BLOCK
  5
878
  8
2
  2
*D223
 70
    65
 10
0.0
 20
0.0
 30
0.0
  3
*D223
  1

  0
POINT
  5
879
  8
DEFPOINTS
 10
2152.13269
 20
563.286671
 30
0.0
  0
POINT
  5
87A
  8
DEFPOINTS
 10
1730.32932
 20
763.486571
 30
0.0
  0
POINT
  5
87B
  8
DEFPOINTS
 10
2364.087589
 20
509.376839
 30
0.0
  0
LINE
  5
87C
  8
2
  6
CONTINUOUS
 10
2158.13269
 20
563.286671
 30
0.0
 11
2369.087589
 21
563.286671
 31
0.0
  0
LINE
  5
87D
  8
2
  6
CONTINUOUS
 10
1736.32932
 20
763.486571
 30
0.0
 11
2369.087589
 21
763.486571
 31
0.0
  0
LINE
  5
87E
  8
2
  6
CONTINUOUS
 10
2364.087589
 20
563.286671
 30
0.0
 11
2364.087589
 21
763.486571
 31
0.0
  0
LINE
  5
87F
  8
2
  6
CONTINUOUS
 10
2359.138614
 20
591.353692
 30
0.0
 11
2364.087589
 21
563.286671
 31
0.0
  0
LINE
  5
880
  8
2
  6
CONTINUOUS
 10
2369.03656
 20
591.353692
 30
0.0
 11
2364.087589
 21
563.286671
 31
0.0
  0
LINE
  5
881
  8
2
  6
CONTINUOUS
 10
2369.036562
 20
735.41955
 30
0.0
 11
2364.087589
 21
763.486571
 31
0.0
  0
LINE
  5
882
  8
2
  6
CONTINUOUS
 10
2359.138616
 20
735.41955
 30
0.0
 11
2364.087589
 21
763.486571
 31
0.0
  0
TEXT
  5
883
  8
2
  6
CONTINUOUS
 10
2360.087646
 20
608.495605
 30
0.0
 40
52.0
  1
２００
 50
90.000003
 41
0.9
  7
MONOTXT
  0
ENDBLK
  5
884
  8
0
  0
BLOCK
  5
886
  8
2
  2
*D224
 70
    65
 10
0.0
 20
0.0
 30
0.0
  3
*D224
  1

  0
POINT
  5
887
  8
DEFPOINTS
 10
1967.133117
 20
548.287231
 30
0.0
  0
POINT
  5
888
  8
DEFPOINTS
 10
2152.13269
 20
563.286671
 30
0.0
  0
POINT
  5
889
  8
DEFPOINTS
 10
2364.087589
 20
509.376839
 30
0.0
  0
LINE
  5
88A
  8
2
  6
CONTINUOUS
 10
1973.133117
 20
548.287231
 30
0.0
 11
2369.087589
 21
548.287231
 31
0.0
  0
LINE
  5
88B
  8
2
  6
CONTINUOUS
 10
2158.13269
 20
563.286671
 30
0.0
 11
2369.087589
 21
563.286671
 31
0.0
  0
LINE
  5
88C
  8
2
  6
CONTINUOUS
 10
2364.087589
 20
415.001968
 30
0.0
 11
2364.087589
 21
605.387204
 31
0.0
  0
LINE
  5
88D
  8
2
  6
CONTINUOUS
 10
2369.036562
 20
520.22021
 30
0.0
 11
2364.087589
 21
548.287231
 31
0.0
  0
LINE
  5
88E
  8
2
  6
CONTINUOUS
 10
2359.138616
 20
520.22021
 30
0.0
 11
2364.087589
 21
548.287231
 31
0.0
  0
LINE
  5
88F
  8
2
  6
CONTINUOUS
 10
2359.138619
 20
591.353693
 30
0.0
 11
2364.087589
 21
563.286671
 31
0.0
  0
LINE
  5
890
  8
2
  6
CONTINUOUS
 10
2369.036566
 20
591.353691
 30
0.0
 11
2364.087589
 21
563.286671
 31
0.0
  0
TEXT
  5
891
  8
2
  6
CONTINUOUS
 10
2360.087646
 20
438.401978
 30
0.0
 40
52.0
  1
８
 50
90.000003
 41
0.9
  7
MONOTXT
  0
ENDBLK
  5
892
  8
0
  0
BLOCK
  5
894
  8
2
  2
*D225
 70
    65
 10
0.0
 20
0.0
 30
0.0
  3
*D225
  1

  0
POINT
  5
895
  8
DEFPOINTS
 10
362.13299
 20
563.286471
 30
0.0
  0
POINT
  5
896
  8
DEFPOINTS
 10
794.115685
 20
801.986571
 30
0.0
  0
POINT
  5
897
  8
DEFPOINTS
 10
178.504823
 20
690.180741
 30
0.0
  0
LINE
  5
898
  8
2
  6
CONTINUOUS
 10
356.13299
 20
563.286471
 30
0.0
 11
173.504823
 21
563.286471
 31
0.0
  0
LINE
  5
899
  8
2
  6
CONTINUOUS
 10
788.115685
 20
801.986571
 30
0.0
 11
173.504823
 21
801.986571
 31
0.0
  0
LINE
  5
89A
  8
2
  6
CONTINUOUS
 10
178.504823
 20
340.170458
 30
0.0
 11
178.504823
 21
844.087104
 31
0.0
  0
LINE
  5
89B
  8
2
  6
CONTINUOUS
 10
183.453796
 20
535.21945
 30
0.0
 11
178.504823
 21
563.286471
 31
0.0
  0
LINE
  5
89C
  8
2
  6
CONTINUOUS
 10
173.55585
 20
535.21945
 30
0.0
 11
178.504823
 21
563.286471
 31
0.0
  0
LINE
  5
89D
  8
2
  6
CONTINUOUS
 10
173.555853
 20
830.053593
 30
0.0
 11
178.504823
 21
801.986571
 31
0.0
  0
LINE
  5
89E
  8
2
  6
CONTINUOUS
 10
183.4538
 20
830.053591
 30
0.0
 11
178.504823
 21
801.986571
 31
0.0
  0
TEXT
  5
89F
  8
2
  6
CONTINUOUS
 10
174.504837
 20
363.570465
 30
0.0
 40
52.0
  1
２４０
 50
90.000003
 41
0.9
  7
MONOTXT
  0
ENDBLK
  5
8A0
  8
0
  0
BLOCK
  5
8A2
  8
2
  2
*D226
 70
    65
 10
0.0
 20
0.0
 30
0.0
  3
*D226
  1

  0
POINT
  5
8A3
  8
DEFPOINTS
 10
1952.13269
 20
563.286671
 30
0.0
  0
POINT
  5
8A4
  8
DEFPOINTS
 10
1972.13269
 20
553.286571
 30
0.0
  0
POINT
  5
8A5
  8
DEFPOINTS
 10
1968.847158
 20
353.561425
 30
0.0
  0
LINE
  5
8A6
  8
2
  6
CONTINUOUS
 10
1952.13269
 20
557.286671
 30
0.0
 11
1952.13269
 21
348.561425
 31
0.0
  0
LINE
  5
8A7
  8
2
  6
CONTINUOUS
 10
1972.13269
 20
547.286571
 30
0.0
 11
1972.13269
 21
348.561425
 31
0.0
  0
LINE
  5
8A8
  8
2
  6
CONTINUOUS
 10
1929.974516
 20
353.561425
 30
0.0
 11
2112.532684
 21
353.561425
 31
0.0
  0
CIRCLE
  5
8A9
  8
2
  6
CONTINUOUS
 10
1952.13269
 20
353.561425
 30
0.0
 40
3.75
  0
CIRCLE
  5
8AA
  8
2
  6
CONTINUOUS
 10
1952.13269
 20
353.561425
 30
0.0
 40
2.25
  0
LINE
  5
8AB
  8
2
  6
CONTINUOUS
 10
2000.19971
 20
358.510403
 30
0.0
 11
1972.13269
 21
353.561425
 31
0.0
  0
LINE
  5
8AC
  8
2
  6
CONTINUOUS
 10
2000.199712
 20
348.612457
 30
0.0
 11
1972.13269
 21
353.561425
 31
0.0
  0
TEXT
  5
8AD
  8
2
  6
CONTINUOUS
 10
1995.532715
 20
357.561432
 30
0.0
 40
52.0
  1
２０
 41
0.9
  7
MONOTXT
  0
ENDBLK
  5
8AE
  8
0
  0
BLOCK
  5
8B0
  8
2
  2
*D227
 70
    65
 10
0.0
 20
0.0
 30
0.0
  3
*D227
  1

  0
POINT
  5
8B1
  8
DEFPOINTS
 10
1932.133109
 20
563.287199
 30
0.0
  0
POINT
  5
8B2
  8
DEFPOINTS
 10
1952.13269
 20
563.286671
 30
0.0
  0
POINT
  5
8B3
  8
DEFPOINTS
 10
1968.847158
 20
353.561425
 30
0.0
  0
LINE
  5
8B4
  8
2
  6
CONTINUOUS
 10
1932.133109
 20
557.287199
 30
0.0
 11
1932.133109
 21
348.561425
 31
0.0
  0
LINE
  5
8B5
  8
2
  6
CONTINUOUS
 10
1952.13269
 20
557.286671
 30
0.0
 11
1952.13269
 21
348.561425
 31
0.0
  0
LINE
  5
8B6
  8
2
  6
CONTINUOUS
 10
1791.733115
 20
353.561425
 30
0.0
 11
1974.290865
 21
353.561425
 31
0.0
  0
LINE
  5
8B7
  8
2
  6
CONTINUOUS
 10
1904.066089
 20
348.612449
 30
0.0
 11
1932.133109
 21
353.561425
 31
0.0
  0
LINE
  5
8B8
  8
2
  6
CONTINUOUS
 10
1904.066088
 20
358.510395
 30
0.0
 11
1932.133109
 21
353.561425
 31
0.0
  0
CIRCLE
  5
8B9
  8
2
  6
CONTINUOUS
 10
1952.13269
 20
353.561425
 30
0.0
 40
3.75
  0
CIRCLE
  5
8BA
  8
2
  6
CONTINUOUS
 10
1952.13269
 20
353.561425
 30
0.0
 40
2.25
  0
TEXT
  5
8BB
  8
2
  6
CONTINUOUS
 10
1815.133057
 20
357.561432
 30
0.0
 40
52.0
  1
２０
 41
0.9
  7
MONOTXT
  0
ENDBLK
  5
8BC
  8
0
  0
BLOCK
  5
8BE
  8
2
  2
*D228
 70
    65
 10
0.0
 20
0.0
 30
0.0
  3
*D228
  1

  0
POINT
  5
8BF
  8
DEFPOINTS
 10
562.13259
 20
563.286671
 30
0.0
  0
POINT
  5
8C0
  8
DEFPOINTS
 10
603.033109
 20
563.285962
 30
0.0
  0
POINT
  5
8C1
  8
DEFPOINTS
 10
547.375863
 20
359.139322
 30
0.0
  0
LINE
  5
8C2
  8
2
  6
CONTINUOUS
 10
562.13259
 20
557.286671
 30
0.0
 11
562.13259
 21
354.139322
 31
0.0
  0
LINE
  5
8C3
  8
2
  6
CONTINUOUS
 10
603.033109
 20
557.285962
 30
0.0
 11
603.033109
 21
354.139322
 31
0.0
  0
LINE
  5
8C4
  8
2
  6
CONTINUOUS
 10
539.974416
 20
359.139322
 30
0.0
 11
743.433103
 21
359.139322
 31
0.0
  0
CIRCLE
  5
8C5
  8
2
  6
CONTINUOUS
 10
562.13259
 20
359.139322
 30
0.0
 40
3.75
  0
CIRCLE
  5
8C6
  8
2
  6
CONTINUOUS
 10
562.13259
 20
359.139322
 30
0.0
 40
2.25
  0
LINE
  5
8C7
  8
2
  6
CONTINUOUS
 10
631.100129
 20
364.0883
 30
0.0
 11
603.033109
 21
359.139322
 31
0.0
  0
LINE
  5
8C8
  8
2
  6
CONTINUOUS
 10
631.100131
 20
354.190354
 30
0.0
 11
603.033109
 21
359.139322
 31
0.0
  0
TEXT
  5
8C9
  8
2
  6
CONTINUOUS
 10
626.433105
 20
363.139313
 30
0.0
 40
52.0
  1
４０
 41
0.9
  7
MONOTXT
  0
ENDBLK
  5
8CA
  8
0
  0
BLOCK
  5
8CC
  8
2
  2
*D229
 70
    65
 10
0.0
 20
0.0
 30
0.0
  3
*D229
  1

  0
POINT
  5
8CD
  8
DEFPOINTS
 10
542.13269
 20
553.286571
 30
0.0
  0
POINT
  5
8CE
  8
DEFPOINTS
 10
562.13259
 20
563.286671
 30
0.0
  0
POINT
  5
8CF
  8
DEFPOINTS
 10
547.375863
 20
359.139322
 30
0.0
  0
LINE
  5
8D0
  8
2
  6
CONTINUOUS
 10
542.13269
 20
547.286571
 30
0.0
 11
542.13269
 21
354.139322
 31
0.0
  0
LINE
  5
8D1
  8
2
  6
CONTINUOUS
 10
562.13259
 20
557.286671
 30
0.0
 11
562.13259
 21
354.139322
 31
0.0
  0
LINE
  5
8D2
  8
2
  6
CONTINUOUS
 10
401.732696
 20
359.139322
 30
0.0
 11
584.290765
 21
359.139322
 31
0.0
  0
LINE
  5
8D3
  8
2
  6
CONTINUOUS
 10
514.06567
 20
354.190347
 30
0.0
 11
542.13269
 21
359.139322
 31
0.0
  0
LINE
  5
8D4
  8
2
  6
CONTINUOUS
 10
514.065669
 20
364.088293
 30
0.0
 11
542.13269
 21
359.139322
 31
0.0
  0
CIRCLE
  5
8D5
  8
2
  6
CONTINUOUS
 10
562.13259
 20
359.139322
 30
0.0
 40
3.75
  0
CIRCLE
  5
8D6
  8
2
  6
CONTINUOUS
 10
562.13259
 20
359.139322
 30
0.0
 40
2.25
  0
TEXT
  5
8D7
  8
2
  6
CONTINUOUS
 10
425.13269
 20
363.139313
 30
0.0
 40
52.0
  1
２０
 41
0.9
  7
MONOTXT
  0
ENDBLK
  5
8D8
  8
0
  0
BLOCK
  5
8DA
  8
2
  2
*D230
 70
    65
 10
0.0
 20
0.0
 30
0.0
  3
*D230
  1

  0
POINT
  5
8DB
  8
DEFPOINTS
 10
1841.732759
 20
912.286571
 30
0.0
  0
POINT
  5
8DC
  8
DEFPOINTS
 10
1972.13269
 20
563.286571
 30
0.0
  0
POINT
  5
8DD
  8
DEFPOINTS
 10
1102.023628
 20
1276.462799
 30
0.0
  0
LINE
  5
8DE
  8
2
  6
CONTINUOUS
 10
1841.732759
 20
918.286571
 30
0.0
 11
1841.732759
 21
1281.462799
 31
0.0
  0
LINE
  5
8DF
  8
2
  6
CONTINUOUS
 10
1972.13269
 20
569.286571
 30
0.0
 11
1972.13269
 21
1281.462799
 31
0.0
  0
LINE
  5
8E0
  8
2
  6
CONTINUOUS
 10
1799.632227
 20
1276.462799
 30
0.0
 11
2153.942764
 21
1276.462799
 31
0.0
  0
LINE
  5
8E1
  8
2
  6
CONTINUOUS
 10
1813.665739
 20
1271.513823
 30
0.0
 11
1841.732759
 21
1276.462799
 31
0.0
  0
LINE
  5
8E2
  8
2
  6
CONTINUOUS
 10
1813.665738
 20
1281.41177
 30
0.0
 11
1841.732759
 21
1276.462799
 31
0.0
  0
LINE
  5
8E3
  8
2
  6
CONTINUOUS
 10
2000.19971
 20
1281.411777
 30
0.0
 11
1972.13269
 21
1276.462799
 31
0.0
  0
LINE
  5
8E4
  8
2
  6
CONTINUOUS
 10
2000.199712
 20
1271.513831
 30
0.0
 11
1972.13269
 21
1276.462799
 31
0.0
  0
TEXT
  5
8E5
  8
2
  6
CONTINUOUS
 10
1990.142822
 20
1280.462769
 30
0.0
 40
52.0
  1
１２５
 41
0.9
  7
MONOTXT
  0
ENDBLK
  5
8E6
  8
0
  0
BLOCK
  5
8E8
  8
2
  2
*D231
 70
    65
 10
0.0
 20
0.0
 30
0.0
  3
*D231
  1

  0
POINT
  5
8E9
  8
DEFPOINTS
 10
672.532759
 20
912.286571
 30
0.0
  0
POINT
  5
8EA
  8
DEFPOINTS
 10
1841.732759
 20
912.286571
 30
0.0
  0
POINT
  5
8EB
  8
DEFPOINTS
 10
1102.023628
 20
1276.462799
 30
0.0
  0
LINE
  5
8EC
  8
2
  6
CONTINUOUS
 10
672.532759
 20
918.286571
 30
0.0
 11
672.532759
 21
1281.462799
 31
0.0
  0
LINE
  5
8ED
  8
2
  6
CONTINUOUS
 10
1841.732759
 20
918.286571
 30
0.0
 11
1841.732759
 21
1281.462799
 31
0.0
  0
LINE
  5
8EE
  8
2
  6
CONTINUOUS
 10
672.532759
 20
1276.462799
 30
0.0
 11
1841.732759
 21
1276.462799
 31
0.0
  0
LINE
  5
8EF
  8
2
  6
CONTINUOUS
 10
700.59978
 20
1281.411772
 30
0.0
 11
672.532759
 21
1276.462799
 31
0.0
  0
LINE
  5
8F0
  8
2
  6
CONTINUOUS
 10
700.59978
 20
1271.513826
 30
0.0
 11
672.532759
 21
1276.462799
 31
0.0
  0
LINE
  5
8F1
  8
2
  6
CONTINUOUS
 10
1813.665739
 20
1271.513823
 30
0.0
 11
1841.732759
 21
1276.462799
 31
0.0
  0
LINE
  5
8F2
  8
2
  6
CONTINUOUS
 10
1813.665738
 20
1281.41177
 30
0.0
 11
1841.732759
 21
1276.462799
 31
0.0
  0
TEXT
  5
8F3
  8
2
  6
CONTINUOUS
 10
1163.532715
 20
1280.462769
 30
0.0
 40
52.0
  1
１１８０
 41
0.9
  7
MONOTXT
  0
ENDBLK
  5
8F4
  8
0
  0
BLOCK
  5
8F6
  8
2
  2
*D232
 70
    65
 10
0.0
 20
0.0
 30
0.0
  3
*D232
  1

  0
POINT
  5
8F7
  8
DEFPOINTS
 10
542.13269
 20
563.286571
 30
0.0
  0
POINT
  5
8F8
  8
DEFPOINTS
 10
672.532759
 20
912.286571
 30
0.0
  0
POINT
  5
8F9
  8
DEFPOINTS
 10
1102.023628
 20
1276.462799
 30
0.0
  0
LINE
  5
8FA
  8
2
  6
CONTINUOUS
 10
542.13269
 20
569.286571
 30
0.0
 11
542.13269
 21
1281.462799
 31
0.0
  0
LINE
  5
8FB
  8
2
  6
CONTINUOUS
 10
672.532759
 20
918.286571
 30
0.0
 11
672.532759
 21
1281.462799
 31
0.0
  0
LINE
  5
8FC
  8
2
  6
CONTINUOUS
 10
354.932693
 20
1276.462799
 30
0.0
 11
714.633292
 21
1276.462799
 31
0.0
  0
LINE
  5
8FD
  8
2
  6
CONTINUOUS
 10
514.06567
 20
1271.513823
 30
0.0
 11
542.13269
 21
1276.462799
 31
0.0
  0
LINE
  5
8FE
  8
2
  6
CONTINUOUS
 10
514.065669
 20
1281.41177
 30
0.0
 11
542.13269
 21
1276.462799
 31
0.0
  0
LINE
  5
8FF
  8
2
  6
CONTINUOUS
 10
700.599779
 20
1281.411777
 30
0.0
 11
672.532759
 21
1276.462799
 31
0.0
  0
LINE
  5
900
  8
2
  6
CONTINUOUS
 10
700.599781
 20
1271.513831
 30
0.0
 11
672.532759
 21
1276.462799
 31
0.0
  0
TEXT
  5
901
  8
2
  6
CONTINUOUS
 10
378.332703
 20
1280.462769
 30
0.0
 40
52.0
  1
１２５
 41
0.9
  7
MONOTXT
  0
ENDBLK
  5
902
  8
0
  0
BLOCK
  5
904
  8
2
  2
*D233
 70
    65
 10
0.0
 20
0.0
 30
0.0
  3
*D233
  1

  0
POINT
  5
905
  8
DEFPOINTS
 10
362.13299
 20
563.286471
 30
0.0
  0
POINT
  5
906
  8
DEFPOINTS
 10
603.033062
 20
614.285962
 30
0.0
  0
POINT
  5
907
  8
DEFPOINTS
 10
63.596842
 20
643.59422
 30
0.0
  0
LINE
  5
908
  8
2
  6
CONTINUOUS
 10
356.13299
 20
563.286471
 30
0.0
 11
58.596842
 21
563.286471
 31
0.0
  0
LINE
  5
909
  8
2
  6
CONTINUOUS
 10
597.033062
 20
614.285962
 30
0.0
 11
58.596842
 21
614.285962
 31
0.0
  0
LINE
  5
90A
  8
2
  6
CONTINUOUS
 10
63.596842
 20
381.983401
 30
0.0
 11
63.596842
 21
656.386495
 31
0.0
  0
LINE
  5
90B
  8
2
  6
CONTINUOUS
 10
68.545816
 20
535.21945
 30
0.0
 11
63.596842
 21
563.286471
 31
0.0
  0
LINE
  5
90C
  8
2
  6
CONTINUOUS
 10
58.64787
 20
535.21945
 30
0.0
 11
63.596842
 21
563.286471
 31
0.0
  0
LINE
  5
90D
  8
2
  6
CONTINUOUS
 10
58.647873
 20
642.352984
 30
0.0
 11
63.596842
 21
614.285962
 31
0.0
  0
LINE
  5
90E
  8
2
  6
CONTINUOUS
 10
68.545819
 20
642.352983
 30
0.0
 11
63.596842
 21
614.285962
 31
0.0
  0
TEXT
  5
90F
  8
2
  6
CONTINUOUS
 10
59.596848
 20
405.383392
 30
0.0
 40
52.0
  1
４５
 50
90.000003
 41
0.9
  7
MONOTXT
  0
ENDBLK
  5
910
  8
0
  0
BLOCK
  5
912
  8
2
  2
*D234
 70
    65
 10
0.0
 20
0.0
 30
0.0
  3
*D234
  1

  0
POINT
  5
913
  8
DEFPOINTS
 10
603.033062
 20
614.285962
 30
0.0
  0
POINT
  5
914
  8
DEFPOINTS
 10
672.532759
 20
912.286571
 30
0.0
  0
POINT
  5
915
  8
DEFPOINTS
 10
63.596842
 20
643.59422
 30
0.0
  0
LINE
  5
916
  8
2
  6
CONTINUOUS
 10
597.033062
 20
614.285962
 30
0.0
 11
58.596842
 21
614.285962
 31
0.0
  0
LINE
  5
917
  8
2
  6
CONTINUOUS
 10
666.532759
 20
912.286571
 30
0.0
 11
58.596842
 21
912.286571
 31
0.0
  0
LINE
  5
918
  8
2
  6
CONTINUOUS
 10
63.596842
 20
614.285962
 30
0.0
 11
63.596842
 21
912.286571
 31
0.0
  0
LINE
  5
919
  8
2
  6
CONTINUOUS
 10
58.647868
 20
642.352983
 30
0.0
 11
63.596842
 21
614.285962
 31
0.0
  0
LINE
  5
91A
  8
2
  6
CONTINUOUS
 10
68.545814
 20
642.352984
 30
0.0
 11
63.596842
 21
614.285962
 31
0.0
  0
LINE
  5
91B
  8
2
  6
CONTINUOUS
 10
68.545816
 20
884.21955
 30
0.0
 11
63.596842
 21
912.286571
 31
0.0
  0
LINE
  5
91C
  8
2
  6
CONTINUOUS
 10
58.64787
 20
884.21955
 30
0.0
 11
63.596842
 21
912.286571
 31
0.0
  0
TEXT
  5
91D
  8
2
  6
CONTINUOUS
 10
59.596844
 20
693.086243
 30
0.0
 40
52.0
  1
３０５
 50
90.000003
 41
0.9
  7
MONOTXT
  0
ENDBLK
  5
91E
  8
0
  0
BLOCK
  5
920
  8
2
  2
*D235
 70
    65
 10
0.0
 20
0.0
 30
0.0
  3
*D235
  1

  0
POINT
  5
921
  8
DEFPOINTS
 10
1134.632759
 20
698.488418
 30
0.0
  0
POINT
  5
922
  8
DEFPOINTS
 10
1257.13269
 20
512.141196
 30
0.0
  0
POINT
  5
923
  8
DEFPOINTS
 10
1271.144295
 20
356.233466
 30
0.0
  0
LINE
  5
924
  8
2
  6
CONTINUOUS
 10
1134.632759
 20
692.488418
 30
0.0
 11
1134.632759
 21
351.233466
 31
0.0
  0
LINE
  5
925
  8
2
  6
CONTINUOUS
 10
1257.13269
 20
506.141196
 30
0.0
 11
1257.13269
 21
351.233466
 31
0.0
  0
LINE
  5
926
  8
2
  6
CONTINUOUS
 10
947.432762
 20
356.233466
 30
0.0
 11
1299.233223
 21
356.233466
 31
0.0
  0
LINE
  5
927
  8
2
  6
CONTINUOUS
 10
1106.565739
 20
351.28449
 30
0.0
 11
1134.632759
 21
356.233466
 31
0.0
  0
LINE
  5
928
  8
2
  6
CONTINUOUS
 10
1106.565738
 20
361.182436
 30
0.0
 11
1134.632759
 21
356.233466
 31
0.0
  0
LINE
  5
929
  8
2
  6
CONTINUOUS
 10
1285.19971
 20
361.182444
 30
0.0
 11
1257.13269
 21
356.233466
 31
0.0
  0
LINE
  5
92A
  8
2
  6
CONTINUOUS
 10
1285.199712
 20
351.284497
 30
0.0
 11
1257.13269
 21
356.233466
 31
0.0
  0
TEXT
  5
92B
  8
2
  6
CONTINUOUS
 10
970.832764
 20
360.233459
 30
0.0
 40
52.0
  1
１２５
 41
0.9
  7
MONOTXT
  0
ENDBLK
  5
92C
  8
0
  0
BLOCK
  5
92E
  8
2
  2
*D236
 70
    65
 10
0.0
 20
0.0
 30
0.0
  3
*D236
  1

  0
POINT
  5
92F
  8
DEFPOINTS
 10
1257.13269
 20
482.604639
 30
0.0
  0
POINT
  5
930
  8
DEFPOINTS
 10
1675.132759
 20
708.025086
 30
0.0
  0
POINT
  5
931
  8
DEFPOINTS
 10
1271.144295
 20
356.233466
 30
0.0
  0
LINE
  5
932
  8
2
  6
CONTINUOUS
 10
1257.13269
 20
476.604639
 30
0.0
 11
1257.13269
 21
351.233466
 31
0.0
  0
LINE
  5
933
  8
2
  6
CONTINUOUS
 10
1675.132759
 20
702.025086
 30
0.0
 11
1675.132759
 21
351.233466
 31
0.0
  0
LINE
  5
934
  8
2
  6
CONTINUOUS
 10
1257.13269
 20
356.233466
 30
0.0
 11
1675.132759
 21
356.233466
 31
0.0
  0
LINE
  5
935
  8
2
  6
CONTINUOUS
 10
1285.199711
 20
361.182439
 30
0.0
 11
1257.13269
 21
356.233466
 31
0.0
  0
LINE
  5
936
  8
2
  6
CONTINUOUS
 10
1285.199711
 20
351.284493
 30
0.0
 11
1257.13269
 21
356.233466
 31
0.0
  0
LINE
  5
937
  8
2
  6
CONTINUOUS
 10
1647.065739
 20
351.28449
 30
0.0
 11
1675.132759
 21
356.233466
 31
0.0
  0
LINE
  5
938
  8
2
  6
CONTINUOUS
 10
1647.065738
 20
361.182436
 30
0.0
 11
1675.132759
 21
356.233466
 31
0.0
  0
TEXT
  5
939
  8
2
  6
CONTINUOUS
 10
1388.300659
 20
360.233459
 30
0.0
 40
52.0
  1
４２０
 41
0.9
  7
MONOTXT
  0
ENDBLK
  5
93A
  8
0
  0
BLOCK
  5
93C
  8
2
  2
*D237
 70
    65
 10
0.0
 20
0.0
 30
0.0
  3
*D237
  1

  0
POINT
  5
93D
  8
DEFPOINTS
 10
2724.055093
 20
2035.974965
 30
0.0
  0
POINT
  5
93E
  8
DEFPOINTS
 10
2724.055093
 20
2170.974965
 30
0.0
  0
POINT
  5
93F
  8
DEFPOINTS
 10
2319.30664
 20
2089.631283
 30
0.0
  0
LINE
  5
940
  8
2
  6
CONTINUOUS
 10
2718.055093
 20
2035.974965
 30
0.0
 11
2314.30664
 21
2035.974965
 31
0.0
  0
LINE
  5
941
  8
2
  6
CONTINUOUS
 10
2718.055093
 20
2170.974965
 30
0.0
 11
2314.30664
 21
2170.974965
 31
0.0
  0
LINE
  5
942
  8
2
  6
CONTINUOUS
 10
2319.30664
 20
1837.812535
 30
0.0
 11
2319.30664
 21
2213.075498
 31
0.0
  0
LINE
  5
943
  8
2
  6
CONTINUOUS
 10
2324.255613
 20
2007.907944
 30
0.0
 11
2319.30664
 21
2035.974965
 31
0.0
  0
LINE
  5
944
  8
2
  6
CONTINUOUS
 10
2314.357667
 20
2007.907944
 30
0.0
 11
2319.30664
 21
2035.974965
 31
0.0
  0
LINE
  5
945
  8
2
  6
CONTINUOUS
 10
2314.35767
 20
2199.041987
 30
0.0
 11
2319.30664
 21
2170.974965
 31
0.0
  0
LINE
  5
946
  8
2
  6
CONTINUOUS
 10
2324.255617
 20
2199.041985
 30
0.0
 11
2319.30664
 21
2170.974965
 31
0.0
  0
TEXT
  5
947
  8
2
  6
CONTINUOUS
 10
2315.306641
 20
1861.212524
 30
0.0
 40
52.0
  1
１３５
 50
90.000003
 41
0.9
  7
MONOTXT
  0
ENDBLK
  5
948
  8
0
  0
BLOCK
  5
94A
  8
2
  2
*D238
 70
    65
 10
0.0
 20
0.0
 30
0.0
  3
*D238
  1

  0
POINT
  5
94B
  8
DEFPOINTS
 10
2724.055093
 20
2035.974965
 30
0.0
  0
POINT
  5
94C
  8
DEFPOINTS
 10
3339.055093
 20
2035.974965
 30
0.0
  0
POINT
  5
94D
  8
DEFPOINTS
 10
3169.577859
 20
1722.227641
 30
0.0
  0
LINE
  5
94E
  8
2
  6
CONTINUOUS
 10
2724.055093
 20
2029.974965
 30
0.0
 11
2724.055093
 21
1717.227641
 31
0.0
  0
LINE
  5
94F
  8
2
  6
CONTINUOUS
 10
3339.055093
 20
2029.974965
 30
0.0
 11
3339.055093
 21
1717.227641
 31
0.0
  0
LINE
  5
950
  8
2
  6
CONTINUOUS
 10
2724.055093
 20
1722.227641
 30
0.0
 11
3339.055093
 21
1722.227641
 31
0.0
  0
LINE
  5
951
  8
2
  6
CONTINUOUS
 10
2752.122114
 20
1727.176614
 30
0.0
 11
2724.055093
 21
1722.227641
 31
0.0
  0
LINE
  5
952
  8
2
  6
CONTINUOUS
 10
2752.122114
 20
1717.278668
 30
0.0
 11
2724.055093
 21
1722.227641
 31
0.0
  0
LINE
  5
953
  8
2
  6
CONTINUOUS
 10
3310.988072
 20
1717.278665
 30
0.0
 11
3339.055093
 21
1722.227641
 31
0.0
  0
LINE
  5
954
  8
2
  6
CONTINUOUS
 10
3310.988071
 20
1727.176611
 30
0.0
 11
3339.055093
 21
1722.227641
 31
0.0
  0
TEXT
  5
955
  8
2
  6
CONTINUOUS
 10
2961.35498
 20
1726.227661
 30
0.0
 40
52.0
  1
６１５
 41
0.9
  7
MONOTXT
  0
ENDBLK
  5
956
  8
0
  0
BLOCK
  5
958
  8
2
  2
*D239
 70
    65
 10
0.0
 20
0.0
 30
0.0
  3
*D239
  1

  0
POINT
  5
959
  8
DEFPOINTS
 10
2688.011847
 20
2103.474965
 30
0.0
  0
POINT
  5
95A
  8
DEFPOINTS
 10
2439.055443
 20
2342.17563
 30
0.0
  0
POINT
  5
95B
  8
DEFPOINTS
 10
2237.88424
 20
2239.192749
 30
0.0
  0
LINE
  5
95C
  8
2
  6
CONTINUOUS
 10
2682.011847
 20
2103.474965
 30
0.0
 11
2232.88424
 21
2103.474965
 31
0.0
  0
LINE
  5
95D
  8
2
  6
CONTINUOUS
 10
2433.055443
 20
2342.17563
 30
0.0
 11
2232.88424
 21
2342.17563
 31
0.0
  0
LINE
  5
95E
  8
2
  6
CONTINUOUS
 10
2237.88424
 20
2103.474965
 30
0.0
 11
2237.88424
 21
2342.17563
 31
0.0
  0
LINE
  5
95F
  8
2
  6
CONTINUOUS
 10
2232.935265
 20
2131.541986
 30
0.0
 11
2237.88424
 21
2103.474965
 31
0.0
  0
LINE
  5
960
  8
2
  6
CONTINUOUS
 10
2242.833212
 20
2131.541986
 30
0.0
 11
2237.88424
 21
2103.474965
 31
0.0
  0
LINE
  5
961
  8
2
  6
CONTINUOUS
 10
2242.833213
 20
2314.108609
 30
0.0
 11
2237.88424
 21
2342.17563
 31
0.0
  0
LINE
  5
962
  8
2
  6
CONTINUOUS
 10
2232.935267
 20
2314.108609
 30
0.0
 11
2237.88424
 21
2342.17563
 31
0.0
  0
TEXT
  5
963
  8
2
  6
CONTINUOUS
 10
2233.884277
 20
2152.625244
 30
0.0
 40
52.0
  1
２４０
 50
90.000003
 41
0.9
  7
MONOTXT
  0
ENDBLK
  5
964
  8
0
  0
BLOCK
  5
966
  8
2
  2
*D240
 70
    65
 10
0.0
 20
0.0
 30
0.0
  3
*D240
  1

  0
POINT
  5
967
  8
DEFPOINTS
 10
3031.555093
 20
2006.854925
 30
0.0
  0
POINT
  5
968
  8
DEFPOINTS
 10
3154.055043
 20
1932.275155
 30
0.0
  0
POINT
  5
969
  8
DEFPOINTS
 10
3248.435329
 20
1817.98314
 30
0.0
  0
LINE
  5
96A
  8
2
  6
CONTINUOUS
 10
3031.555093
 20
2000.854925
 30
0.0
 11
3031.555093
 21
1812.98314
 31
0.0
  0
LINE
  5
96B
  8
2
  6
CONTINUOUS
 10
3154.055043
 20
1926.275155
 30
0.0
 11
3154.055043
 21
1812.98314
 31
0.0
  0
LINE
  5
96C
  8
2
  6
CONTINUOUS
 10
2818.95942
 20
1817.98314
 30
0.0
 11
3196.155575
 21
1817.98314
 31
0.0
  0
LINE
  5
96D
  8
2
  6
CONTINUOUS
 10
3003.488072
 20
1813.034164
 30
0.0
 11
3031.555093
 21
1817.98314
 31
0.0
  0
LINE
  5
96E
  8
2
  6
CONTINUOUS
 10
3003.488071
 20
1822.932111
 30
0.0
 11
3031.555093
 21
1817.98314
 31
0.0
  0
LINE
  5
96F
  8
2
  6
CONTINUOUS
 10
3182.122063
 20
1822.932118
 30
0.0
 11
3154.055043
 21
1817.98314
 31
0.0
  0
LINE
  5
970
  8
2
  6
CONTINUOUS
 10
3182.122065
 20
1813.034172
 30
0.0
 11
3154.055043
 21
1817.98314
 31
0.0
  0
TEXT
  5
971
  8
2
  6
CONTINUOUS
 10
2842.359375
 20
1821.983154
 30
0.0
 40
52.0
  1
１２５
 41
0.9
  7
MONOTXT
  0
ENDBLK
  5
972
  8
0
  0
BLOCK
  5
974
  8
2
  2
*D241
 70
    65
 10
0.0
 20
0.0
 30
0.0
  3
*D241
  1

  0
POINT
  5
975
  8
DEFPOINTS
 10
3150.089374
 20
563.286571
 30
0.0
  0
POINT
  5
976
  8
DEFPOINTS
 10
3438.07496
 20
738.286571
 30
0.0
  0
POINT
  5
977
  8
DEFPOINTS
 10
2995.925011
 20
686.066506
 30
0.0
  0
LINE
  5
978
  8
2
  6
CONTINUOUS
 10
3144.089374
 20
563.286571
 30
0.0
 11
2990.925011
 21
563.286571
 31
0.0
  0
LINE
  5
979
  8
2
  6
CONTINUOUS
 10
3432.07496
 20
738.286571
 30
0.0
 11
2990.925011
 21
738.286571
 31
0.0
  0
LINE
  5
97A
  8
2
  6
CONTINUOUS
 10
2995.925011
 20
521.186039
 30
0.0
 11
2995.925011
 21
780.387104
 31
0.0
  0
LINE
  5
97B
  8
2
  6
CONTINUOUS
 10
3000.873984
 20
535.21955
 30
0.0
 11
2995.925011
 21
563.286571
 31
0.0
  0
LINE
  5
97C
  8
2
  6
CONTINUOUS
 10
2990.976038
 20
535.21955
 30
0.0
 11
2995.925011
 21
563.286571
 31
0.0
  0
LINE
  5
97D
  8
2
  6
CONTINUOUS
 10
2990.976042
 20
766.353593
 30
0.0
 11
2995.925011
 21
738.286571
 31
0.0
  0
LINE
  5
97E
  8
2
  6
CONTINUOUS
 10
3000.873988
 20
766.353591
 30
0.0
 11
2995.925011
 21
738.286571
 31
0.0
  0
TEXT
  5
97F
  8
2
  6
CONTINUOUS
 10
2991.925049
 20
580.586548
 30
0.0
 40
52.0
  1
１７５
 50
90.000003
 41
0.9
  7
MONOTXT
  0
ENDBLK
  5
980
  8
0
  0
BLOCK
  5
982
  8
2
  2
*D242
 70
    65
 10
0.0
 20
0.0
 30
0.0
  3
*D242
  1

  0
POINT
  5
983
  8
DEFPOINTS
 10
3150.089374
 20
563.286571
 30
0.0
  0
POINT
  5
984
  8
DEFPOINTS
 10
3192.089374
 20
723.286571
 30
0.0
  0
POINT
  5
985
  8
DEFPOINTS
 10
3060.613609
 20
628.77089
 30
0.0
  0
LINE
  5
986
  8
2
  6
CONTINUOUS
 10
3144.089374
 20
563.286571
 30
0.0
 11
3055.613609
 21
563.286571
 31
0.0
  0
LINE
  5
987
  8
2
  6
CONTINUOUS
 10
3186.089374
 20
723.286571
 30
0.0
 11
3055.613609
 21
723.286571
 31
0.0
  0
LINE
  5
988
  8
2
  6
CONTINUOUS
 10
3060.613609
 20
521.186039
 30
0.0
 11
3060.613609
 21
765.387104
 31
0.0
  0
LINE
  5
989
  8
2
  6
CONTINUOUS
 10
3065.562582
 20
535.21955
 30
0.0
 11
3060.613609
 21
563.286571
 31
0.0
  0
LINE
  5
98A
  8
2
  6
CONTINUOUS
 10
3055.664636
 20
535.21955
 30
0.0
 11
3060.613609
 21
563.286571
 31
0.0
  0
LINE
  5
98B
  8
2
  6
CONTINUOUS
 10
3055.66464
 20
751.353593
 30
0.0
 11
3060.613609
 21
723.286571
 31
0.0
  0
LINE
  5
98C
  8
2
  6
CONTINUOUS
 10
3065.562586
 20
751.353591
 30
0.0
 11
3060.613609
 21
723.286571
 31
0.0
  0
TEXT
  5
98D
  8
2
  6
CONTINUOUS
 10
3056.613525
 20
573.086548
 30
0.0
 40
52.0
  1
１６０
 50
90.000003
 41
0.9
  7
MONOTXT
  0
ENDBLK
  5
98E
  8
0
  0
BLOCK
  5
990
  8
2
  2
*D243
 70
    65
 10
0.0
 20
0.0
 30
0.0
  3
*D243
  1

  0
POINT
  5
991
  8
DEFPOINTS
 10
3195.489374
 20
912.286571
 30
0.0
  0
POINT
  5
992
  8
DEFPOINTS
 10
3784.689374
 20
912.286571
 30
0.0
  0
POINT
  5
993
  8
DEFPOINTS
 10
3525.94764
 20
1212.610927
 30
0.0
  0
LINE
  5
994
  8
2
  6
CONTINUOUS
 10
3195.489374
 20
918.286571
 30
0.0
 11
3195.489374
 21
1217.610927
 31
0.0
  0
LINE
  5
995
  8
2
  6
CONTINUOUS
 10
3784.689374
 20
918.286571
 30
0.0
 11
3784.689374
 21
1217.610927
 31
0.0
  0
LINE
  5
996
  8
2
  6
CONTINUOUS
 10
3195.489374
 20
1212.610927
 30
0.0
 11
3784.689374
 21
1212.610927
 31
0.0
  0
LINE
  5
997
  8
2
  6
CONTINUOUS
 10
3223.556395
 20
1217.5599
 30
0.0
 11
3195.489374
 21
1212.610927
 31
0.0
  0
LINE
  5
998
  8
2
  6
CONTINUOUS
 10
3223.556395
 20
1207.661954
 30
0.0
 11
3195.489374
 21
1212.610927
 31
0.0
  0
LINE
  5
999
  8
2
  6
CONTINUOUS
 10
3756.622354
 20
1207.661951
 30
0.0
 11
3784.689374
 21
1212.610927
 31
0.0
  0
LINE
  5
99A
  8
2
  6
CONTINUOUS
 10
3756.622353
 20
1217.559897
 30
0.0
 11
3784.689374
 21
1212.610927
 31
0.0
  0
TEXT
  5
99B
  8
2
  6
CONTINUOUS
 10
3419.889404
 20
1216.610962
 30
0.0
 40
52.0
  1
６００
 41
0.9
  7
MONOTXT
  0
ENDBLK
  5
99C
  8
0
  0
BLOCK
  5
99E
  8
2
  2
*D244
 70
    65
 10
0.0
 20
0.0
 30
0.0
  3
*D244
  1

  0
POINT
  5
99F
  8
DEFPOINTS
 10
3490.089374
 20
1013.008246
 30
0.0
  0
POINT
  5
9A0
  8
DEFPOINTS
 10
3545.089345
 20
759.626381
 30
0.0
  0
POINT
  5
9A1
  8
DEFPOINTS
 10
3471.438874
 20
1003.237448
 30
0.0
  0
LINE
  5
9A2
  8
2
  6
CONTINUOUS
 10
3490.089374
 20
1007.008246
 30
0.0
 11
3490.089374
 21
998.237448
 31
0.0
  0
LINE
  5
9A3
  8
2
  6
CONTINUOUS
 10
3545.089345
 20
765.626381
 30
0.0
 11
3545.089345
 21
1008.237448
 31
0.0
  0
LINE
  5
9A4
  8
2
  6
CONTINUOUS
 10
3467.9312
 20
1003.237448
 30
0.0
 11
3755.791448
 21
1003.237448
 31
0.0
  0
CIRCLE
  5
9A5
  8
2
  6
CONTINUOUS
 10
3490.089374
 20
1003.237448
 30
0.0
 40
3.75
  0
CIRCLE
  5
9A6
  8
2
  6
CONTINUOUS
 10
3490.089374
 20
1003.237448
 30
0.0
 40
2.25
  0
LINE
  5
9A7
  8
2
  6
CONTINUOUS
 10
3573.156365
 20
1008.186426
 30
0.0
 11
3545.089345
 21
1003.237448
 31
0.0
  0
LINE
  5
9A8
  8
2
  6
CONTINUOUS
 10
3573.156367
 20
998.288479
 30
0.0
 11
3545.089345
 21
1003.237448
 31
0.0
  0
TEXT
  5
9A9
  8
2
  6
CONTINUOUS
 10
3638.791504
 20
1007.237427
 30
0.0
 40
52.0
  1
５５
 41
0.9
  7
MONOTXT
  0
ENDBLK
  5
9AA
  8
0
  0
BLOCK
  5
9AC
  8
2
  2
*D245
 70
    65
 10
0.0
 20
0.0
 30
0.0
  3
*D245
  1

  0
POINT
  5
9AD
  8
DEFPOINTS
 10
3830.089374
 20
563.286571
 30
0.0
  0
POINT
  5
9AE
  8
DEFPOINTS
 10
3556.741784
 20
738.564071
 30
0.0
  0
POINT
  5
9AF
  8
DEFPOINTS
 10
3941.308565
 20
692.68713
 30
0.0
  0
LINE
  5
9B0
  8
2
  6
CONTINUOUS
 10
3836.089374
 20
563.286571
 30
0.0
 11
3946.308565
 21
563.286571
 31
0.0
  0
LINE
  5
9B1
  8
2
  6
CONTINUOUS
 10
3562.741784
 20
738.564071
 30
0.0
 11
3946.308565
 21
738.564071
 31
0.0
  0
LINE
  5
9B2
  8
2
  6
CONTINUOUS
 10
3941.308565
 20
521.186039
 30
0.0
 11
3941.308565
 21
780.664604
 31
0.0
  0
LINE
  5
9B3
  8
2
  6
CONTINUOUS
 10
3946.257538
 20
535.21955
 30
0.0
 11
3941.308565
 21
563.286571
 31
0.0
  0
LINE
  5
9B4
  8
2
  6
CONTINUOUS
 10
3936.359592
 20
535.21955
 30
0.0
 11
3941.308565
 21
563.286571
 31
0.0
  0
LINE
  5
9B5
  8
2
  6
CONTINUOUS
 10
3936.359595
 20
766.631093
 30
0.0
 11
3941.308565
 21
738.564071
 31
0.0
  0
LINE
  5
9B6
  8
2
  6
CONTINUOUS
 10
3946.257541
 20
766.631091
 30
0.0
 11
3941.308565
 21
738.564071
 31
0.0
  0
TEXT
  5
9B7
  8
2
  6
CONTINUOUS
 10
3937.308594
 20
580.725342
 30
0.0
 40
52.0
  1
１７５
 50
90.000003
 41
0.9
  7
MONOTXT
  0
ENDBLK
  5
9B8
  8
0
  0
BLOCK
  5
9BA
  8
2
  2
*D246
 70
    65
 10
0.0
 20
0.0
 30
0.0
  3
*D246
  1

  0
POINT
  5
9BB
  8
DEFPOINTS
 10
3830.089374
 20
563.286571
 30
0.0
  0
POINT
  5
9BC
  8
DEFPOINTS
 10
3644.168788
 20
858.262042
 30
0.0
  0
POINT
  5
9BD
  8
DEFPOINTS
 10
4028.691288
 20
727.80466
 30
0.0
  0
LINE
  5
9BE
  8
2
  6
CONTINUOUS
 10
3836.089374
 20
563.286571
 30
0.0
 11
4033.691288
 21
563.286571
 31
0.0
  0
LINE
  5
9BF
  8
2
  6
CONTINUOUS
 10
3650.168788
 20
858.262042
 30
0.0
 11
4033.691288
 21
858.262042
 31
0.0
  0
LINE
  5
9C0
  8
2
  6
CONTINUOUS
 10
4028.691288
 20
563.286571
 30
0.0
 11
4028.691288
 21
858.262042
 31
0.0
  0
LINE
  5
9C1
  8
2
  6
CONTINUOUS
 10
4023.742314
 20
591.353592
 30
0.0
 11
4028.691288
 21
563.286571
 31
0.0
  0
LINE
  5
9C2
  8
2
  6
CONTINUOUS
 10
4033.64026
 20
591.353592
 30
0.0
 11
4028.691288
 21
563.286571
 31
0.0
  0
LINE
  5
9C3
  8
2
  6
CONTINUOUS
 10
4033.640262
 20
830.195021
 30
0.0
 11
4028.691288
 21
858.262042
 31
0.0
  0
LINE
  5
9C4
  8
2
  6
CONTINUOUS
 10
4023.742316
 20
830.195021
 30
0.0
 11
4028.691288
 21
858.262042
 31
0.0
  0
TEXT
  5
9C5
  8
2
  6
CONTINUOUS
 10
4024.691406
 20
640.57428
 30
0.0
 40
52.0
  1
２９０
 50
90.000003
 41
0.9
  7
MONOTXT
  0
ENDBLK
  5
9C6
  8
0
  0
BLOCK
  5
9C8
  8
2
  2
*D247
 70
    65
 10
0.0
 20
0.0
 30
0.0
  3
*D247
  1

  0
POINT
  5
9C9
  8
DEFPOINTS
 10
3490.089374
 20
932.428096
 30
0.0
  0
POINT
  5
9CA
  8
DEFPOINTS
 10
3615.132574
 20
883.113662
 30
0.0
  0
POINT
  5
9CB
  8
DEFPOINTS
 10
3648.98787
 20
1098.864313
 30
0.0
  0
LINE
  5
9CC
  8
2
  6
CONTINUOUS
 10
3490.089374
 20
938.428096
 30
0.0
 11
3490.089374
 21
1103.864313
 31
0.0
  0
LINE
  5
9CD
  8
2
  6
CONTINUOUS
 10
3615.132574
 20
889.113662
 30
0.0
 11
3615.132574
 21
1103.864313
 31
0.0
  0
LINE
  5
9CE
  8
2
  6
CONTINUOUS
 10
3447.988842
 20
1098.864313
 30
0.0
 11
3802.332571
 21
1098.864313
 31
0.0
  0
LINE
  5
9CF
  8
2
  6
CONTINUOUS
 10
3462.022354
 20
1093.915337
 30
0.0
 11
3490.089374
 21
1098.864313
 31
0.0
  0
LINE
  5
9D0
  8
2
  6
CONTINUOUS
 10
3462.022353
 20
1103.813283
 30
0.0
 11
3490.089374
 21
1098.864313
 31
0.0
  0
LINE
  5
9D1
  8
2
  6
CONTINUOUS
 10
3643.199594
 20
1103.813291
 30
0.0
 11
3615.132574
 21
1098.864313
 31
0.0
  0
LINE
  5
9D2
  8
2
  6
CONTINUOUS
 10
3643.199596
 20
1093.915344
 30
0.0
 11
3615.132574
 21
1098.864313
 31
0.0
  0
TEXT
  5
9D3
  8
2
  6
CONTINUOUS
 10
3638.532471
 20
1102.864258
 30
0.0
 40
52.0
  1
１２５
 41
0.9
  7
MONOTXT
  0
ENDBLK
  5
9D4
  8
0
  0
BLOCK
  5
9D6
  8
2
  2
*D248
 70
    65
 10
0.0
 20
0.0
 30
0.0
  3
*D248
  1

  0
POINT
  5
9D7
  8
DEFPOINTS
 10
3445.089446
 20
756.170141
 30
0.0
  0
POINT
  5
9D8
  8
DEFPOINTS
 10
3490.089374
 20
996.516486
 30
0.0
  0
POINT
  5
9D9
  8
DEFPOINTS
 10
3471.438874
 20
1003.237448
 30
0.0
  0
LINE
  5
9DA
  8
2
  6
CONTINUOUS
 10
3445.089446
 20
762.170141
 30
0.0
 11
3445.089446
 21
1008.237448
 31
0.0
  0
LINE
  5
9DB
  8
2
  6
CONTINUOUS
 10
3490.089374
 20
1002.516486
 30
0.0
 11
3490.089374
 21
1008.237448
 31
0.0
  0
LINE
  5
9DC
  8
2
  6
CONTINUOUS
 10
3272.651503
 20
1003.237448
 30
0.0
 11
3512.247549
 21
1003.237448
 31
0.0
  0
LINE
  5
9DD
  8
2
  6
CONTINUOUS
 10
3417.022425
 20
998.288472
 30
0.0
 11
3445.089446
 21
1003.237448
 31
0.0
  0
LINE
  5
9DE
  8
2
  6
CONTINUOUS
 10
3417.022424
 20
1008.186418
 30
0.0
 11
3445.089446
 21
1003.237448
 31
0.0
  0
CIRCLE
  5
9DF
  8
2
  6
CONTINUOUS
 10
3490.089374
 20
1003.237448
 30
0.0
 40
3.75
  0
CIRCLE
  5
9E0
  8
2
  6
CONTINUOUS
 10
3490.089374
 20
1003.237448
 30
0.0
 40
2.25
  0
TEXT
  5
9E1
  8
2
  6
CONTINUOUS
 10
3296.051514
 20
1007.237427
 30
0.0
 40
52.0
  1
４５
 41
0.9
  7
MONOTXT
  0
ENDBLK
  5
9E2
  8
0
  0
BLOCK
  5
9E4
  8
2
  2
*D249
 70
    65
 10
0.0
 20
0.0
 30
0.0
  3
*D249
  1

  0
POINT
  5
9E5
  8
DEFPOINTS
 10
3784.689374
 20
912.286571
 30
0.0
  0
POINT
  5
9E6
  8
DEFPOINTS
 10
3830.089374
 20
563.286571
 30
0.0
  0
POINT
  5
9E7
  8
DEFPOINTS
 10
3784.689374
 20
1212.610927
 30
0.0
  0
LINE
  5
9E8
  8
2
  6
CONTINUOUS
 10
3784.689374
 20
918.286571
 30
0.0
 11
3784.689374
 21
1217.610927
 31
0.0
  0
LINE
  5
9E9
  8
2
  6
CONTINUOUS
 10
3830.089374
 20
569.286571
 30
0.0
 11
3830.089374
 21
1217.610927
 31
0.0
  0
LINE
  5
9EA
  8
2
  6
CONTINUOUS
 10
3742.588842
 20
1212.610927
 30
0.0
 11
3970.489368
 21
1212.610927
 31
0.0
  0
LINE
  5
9EB
  8
2
  6
CONTINUOUS
 10
3756.622354
 20
1207.661951
 30
0.0
 11
3784.689374
 21
1212.610927
 31
0.0
  0
LINE
  5
9EC
  8
2
  6
CONTINUOUS
 10
3756.622353
 20
1217.559897
 30
0.0
 11
3784.689374
 21
1212.610927
 31
0.0
  0
LINE
  5
9ED
  8
2
  6
CONTINUOUS
 10
3858.156394
 20
1217.559905
 30
0.0
 11
3830.089374
 21
1212.610927
 31
0.0
  0
LINE
  5
9EE
  8
2
  6
CONTINUOUS
 10
3858.156396
 20
1207.661959
 30
0.0
 11
3830.089374
 21
1212.610927
 31
0.0
  0
TEXT
  5
9EF
  8
2
  6
CONTINUOUS
 10
3853.489258
 20
1216.610962
 30
0.0
 40
52.0
  1
４０
 41
0.9
  7
MONOTXT
  0
ENDBLK
  5
9F0
  8
0
  0
BLOCK
  5
9F2
  8
2
  2
*D250
 70
    65
 10
0.0
 20
0.0
 30
0.0
  3
*D250
  1

  0
POINT
  5
9F3
  8
DEFPOINTS
 10
3150.089374
 20
563.286571
 30
0.0
  0
POINT
  5
9F4
  8
DEFPOINTS
 10
3195.489374
 20
912.286571
 30
0.0
  0
POINT
  5
9F5
  8
DEFPOINTS
 10
3195.489374
 20
1212.610927
 30
0.0
  0
LINE
  5
9F6
  8
2
  6
CONTINUOUS
 10
3150.089374
 20
569.286571
 30
0.0
 11
3150.089374
 21
1217.610927
 31
0.0
  0
LINE
  5
9F7
  8
2
  6
CONTINUOUS
 10
3195.489374
 20
918.286571
 30
0.0
 11
3195.489374
 21
1217.610927
 31
0.0
  0
LINE
  5
9F8
  8
2
  6
CONTINUOUS
 10
3009.68938
 20
1212.610927
 30
0.0
 11
3237.589907
 21
1212.610927
 31
0.0
  0
LINE
  5
9F9
  8
2
  6
CONTINUOUS
 10
3122.022354
 20
1207.661951
 30
0.0
 11
3150.089374
 21
1212.610927
 31
0.0
  0
LINE
  5
9FA
  8
2
  6
CONTINUOUS
 10
3122.022353
 20
1217.559897
 30
0.0
 11
3150.089374
 21
1212.610927
 31
0.0
  0
LINE
  5
9FB
  8
2
  6
CONTINUOUS
 10
3223.556394
 20
1217.559905
 30
0.0
 11
3195.489374
 21
1212.610927
 31
0.0
  0
LINE
  5
9FC
  8
2
  6
CONTINUOUS
 10
3223.556396
 20
1207.661959
 30
0.0
 11
3195.489374
 21
1212.610927
 31
0.0
  0
TEXT
  5
9FD
  8
2
  6
CONTINUOUS
 10
3033.089355
 20
1216.610962
 30
0.0
 40
52.0
  1
４０
 41
0.9
  7
MONOTXT
  0
ENDBLK
  5
9FE
  8
0
  0
BLOCK
  5
A00
  8
2
  2
*D251
 70
    65
 10
0.0
 20
0.0
 30
0.0
  3
*D251
  1

  0
POINT
  5
A01
  8
DEFPOINTS
 10
624.456457
 20
1898.099778
 30
0.0
  0
POINT
  5
A02
  8
DEFPOINTS
 10
626.006668
 20
2418.099778
 30
0.0
  0
POINT
  5
A03
  8
DEFPOINTS
 10
358.75025
 20
2104.793803
 30
0.0
  0
LINE
  5
A04
  8
2
  6
CONTINUOUS
 10
618.456457
 20
1898.099778
 30
0.0
 11
353.75025
 21
1898.099778
 31
0.0
  0
LINE
  5
A05
  8
2
  6
CONTINUOUS
 10
620.006668
 20
2418.099778
 30
0.0
 11
353.75025
 21
2418.099778
 31
0.0
  0
LINE
  5
A06
  8
2
  6
CONTINUOUS
 10
358.75025
 20
1898.099778
 30
0.0
 11
358.75025
 21
2418.099778
 31
0.0
  0
LINE
  5
A07
  8
2
  6
CONTINUOUS
 10
353.801276
 20
1926.166799
 30
0.0
 11
358.75025
 21
1898.099778
 31
0.0
  0
LINE
  5
A08
  8
2
  6
CONTINUOUS
 10
363.699222
 20
1926.166799
 30
0.0
 11
358.75025
 21
1898.099778
 31
0.0
  0
LINE
  5
A09
  8
2
  6
CONTINUOUS
 10
363.699223
 20
2390.032757
 30
0.0
 11
358.75025
 21
2418.099778
 31
0.0
  0
LINE
  5
A0A
  8
2
  6
CONTINUOUS
 10
353.801277
 20
2390.032757
 30
0.0
 11
358.75025
 21
2418.099778
 31
0.0
  0
TEXT
  5
A0B
  8
2
  6
CONTINUOUS
 10
354.750244
 20
1947.499756
 30
0.0
 40
52.0
  1
５２０（吊り位置）
 50
90.000003
 41
0.9
  7
MONOTXT
  0
ENDBLK
  5
A0C
  8
0
  0
BLOCK
  5
A0E
  8
2
  2
*D252
 70
    65
 10
0.0
 20
0.0
 30
0.0
  3
*D252
  1

  0
POINT
  5
A0F
  8
DEFPOINTS
 10
562.132759
 20
1837.699778
 30
0.0
  0
POINT
  5
A10
  8
DEFPOINTS
 10
562.132759
 20
2477.699778
 30
0.0
  0
POINT
  5
A11
  8
DEFPOINTS
 10
261.759523
 20
1950.354968
 30
0.0
  0
LINE
  5
A12
  8
2
  6
CONTINUOUS
 10
556.132759
 20
1837.699778
 30
0.0
 11
256.759523
 21
1837.699778
 31
0.0
  0
LINE
  5
A13
  8
2
  6
CONTINUOUS
 10
556.132759
 20
2477.699778
 30
0.0
 11
256.759523
 21
2477.699778
 31
0.0
  0
LINE
  5
A14
  8
2
  6
CONTINUOUS
 10
261.759523
 20
1837.699778
 30
0.0
 11
261.759523
 21
2477.699778
 31
0.0
  0
LINE
  5
A15
  8
2
  6
CONTINUOUS
 10
256.810549
 20
1865.766799
 30
0.0
 11
261.759523
 21
1837.699778
 31
0.0
  0
LINE
  5
A16
  8
2
  6
CONTINUOUS
 10
266.708495
 20
1865.766799
 30
0.0
 11
261.759523
 21
1837.699778
 31
0.0
  0
LINE
  5
A17
  8
2
  6
CONTINUOUS
 10
266.708496
 20
2449.632757
 30
0.0
 11
261.759523
 21
2477.699778
 31
0.0
  0
LINE
  5
A18
  8
2
  6
CONTINUOUS
 10
256.81055
 20
2449.632757
 30
0.0
 11
261.759523
 21
2477.699778
 31
0.0
  0
TEXT
  5
A19
  8
2
  6
CONTINUOUS
 10
257.759521
 20
1923.699829
 30
0.0
 40
52.0
  1
６４０（天井開口部）
 50
90.000003
 41
0.9
  7
MONOTXT
  0
ENDBLK
  5
A1A
  8
0
  0
BLOCK
  5
A1C
  8
2
  2
*D253
 70
    65
 10
0.0
 20
0.0
 30
0.0
  3
*D253
  1

  0
POINT
  5
A1D
  8
DEFPOINTS
 10
647.532759
 20
1870.415788
 30
0.0
  0
POINT
  5
A1E
  8
DEFPOINTS
 10
1866.732759
 20
1870.811631
 30
0.0
  0
POINT
  5
A1F
  8
DEFPOINTS
 10
1218.249159
 20
1642.397113
 30
0.0
  0
LINE
  5
A20
  8
2
  6
CONTINUOUS
 10
647.532759
 20
1864.415788
 30
0.0
 11
647.532759
 21
1637.397113
 31
0.0
  0
LINE
  5
A21
  8
2
  6
CONTINUOUS
 10
1866.732759
 20
1864.811631
 30
0.0
 11
1866.732759
 21
1637.397113
 31
0.0
  0
LINE
  5
A22
  8
2
  6
CONTINUOUS
 10
647.532759
 20
1642.397113
 30
0.0
 11
1866.732759
 21
1642.397113
 31
0.0
  0
LINE
  5
A23
  8
2
  6
CONTINUOUS
 10
675.59978
 20
1647.346086
 30
0.0
 11
647.532759
 21
1642.397113
 31
0.0
  0
LINE
  5
A24
  8
2
  6
CONTINUOUS
 10
675.59978
 20
1637.44814
 30
0.0
 11
647.532759
 21
1642.397113
 31
0.0
  0
LINE
  5
A25
  8
2
  6
CONTINUOUS
 10
1838.665739
 20
1637.448137
 30
0.0
 11
1866.732759
 21
1642.397113
 31
0.0
  0
LINE
  5
A26
  8
2
  6
CONTINUOUS
 10
1838.665738
 20
1647.346083
 30
0.0
 11
1866.732759
 21
1642.397113
 31
0.0
  0
TEXT
  5
A27
  8
2
  6
CONTINUOUS
 10
1023.132751
 20
1646.397095
 30
0.0
 40
52.0
  1
１２２０（吊り位置）
 41
0.9
  7
MONOTXT
  0
ENDBLK
  5
A28
  8
0
  0
BLOCK
  5
A2A
  8
2
  2
*D254
 70
    65
 10
0.0
 20
0.0
 30
0.0
  3
*D254
  1

  0
POINT
  5
A2B
  8
DEFPOINTS
 10
562.132759
 20
1837.699778
 30
0.0
  0
POINT
  5
A2C
  8
DEFPOINTS
 10
1952.132759
 20
1837.699778
 30
0.0
  0
POINT
  5
A2D
  8
DEFPOINTS
 10
1224.339165
 20
1557.137028
 30
0.0
  0
LINE
  5
A2E
  8
2
  6
CONTINUOUS
 10
562.132759
 20
1831.699778
 30
0.0
 11
562.132759
 21
1552.137028
 31
0.0
  0
LINE
  5
A2F
  8
2
  6
CONTINUOUS
 10
1952.132759
 20
1831.699778
 30
0.0
 11
1952.132759
 21
1552.137028
 31
0.0
  0
LINE
  5
A30
  8
2
  6
CONTINUOUS
 10
562.132759
 20
1557.137028
 30
0.0
 11
1952.132759
 21
1557.137028
 31
0.0
  0
LINE
  5
A31
  8
2
  6
CONTINUOUS
 10
590.19978
 20
1562.086001
 30
0.0
 11
562.132759
 21
1557.137028
 31
0.0
  0
LINE
  5
A32
  8
2
  6
CONTINUOUS
 10
590.19978
 20
1552.188055
 30
0.0
 11
562.132759
 21
1557.137028
 31
0.0
  0
LINE
  5
A33
  8
2
  6
CONTINUOUS
 10
1924.065739
 20
1552.188052
 30
0.0
 11
1952.132759
 21
1557.137028
 31
0.0
  0
LINE
  5
A34
  8
2
  6
CONTINUOUS
 10
1924.065738
 20
1562.085998
 30
0.0
 11
1952.132759
 21
1557.137028
 31
0.0
  0
TEXT
  5
A35
  8
2
  6
CONTINUOUS
 10
999.732788
 20
1561.137085
 30
0.0
 40
52.0
  1
１３９０（天井開口部）
 41
0.9
  7
MONOTXT
  0
ENDBLK
  5
A36
  8
0
  0
BLOCK
  5
A38
  8
2
  2
*D255
 70
    65
 10
0.0
 20
0.0
 30
0.0
  3
*D255
  1

  0
POINT
  5
A39
  8
DEFPOINTS
 10
1841.732759
 20
1857.699778
 30
0.0
  0
POINT
  5
A3A
  8
DEFPOINTS
 10
1902.332759
 20
2108.299778
 30
0.0
  0
POINT
  5
A3B
  8
DEFPOINTS
 10
2026.095264
 20
1715.982295
 30
0.0
  0
LINE
  5
A3C
  8
2
  6
CONTINUOUS
 10
1841.732759
 20
1851.699778
 30
0.0
 11
1841.732759
 21
1710.982295
 31
0.0
  0
LINE
  5
A3D
  8
2
  6
CONTINUOUS
 10
1902.332759
 20
2102.299778
 30
0.0
 11
1902.332759
 21
1710.982295
 31
0.0
  0
LINE
  5
A3E
  8
2
  6
CONTINUOUS
 10
1799.632227
 20
1715.982295
 30
0.0
 11
2110.012203
 21
1715.982295
 31
0.0
  0
LINE
  5
A3F
  8
2
  6
CONTINUOUS
 10
1813.665739
 20
1711.03332
 30
0.0
 11
1841.732759
 21
1715.982295
 31
0.0
  0
LINE
  5
A40
  8
2
  6
CONTINUOUS
 10
1813.665738
 20
1720.931266
 30
0.0
 11
1841.732759
 21
1715.982295
 31
0.0
  0
LINE
  5
A41
  8
2
  6
CONTINUOUS
 10
1930.399779
 20
1720.931273
 30
0.0
 11
1902.332759
 21
1715.982295
 31
0.0
  0
LINE
  5
A42
  8
2
  6
CONTINUOUS
 10
1930.399781
 20
1711.033327
 30
0.0
 11
1902.332759
 21
1715.982295
 31
0.0
  0
TEXT
  5
A43
  8
2
  6
CONTINUOUS
 10
1993.012207
 20
1719.9823
 30
0.0
 40
52.0
  1
６０
 41
0.9
  7
MONOTXT
  0
ENDBLK
  5
A44
  8
0
  0
BLOCK
  5
A46
  8
2
  2
*D256
 70
    65
 10
0.0
 20
0.0
 30
0.0
  3
*D256
  1

  0
POINT
  5
A47
  8
DEFPOINTS
 10
1841.732759
 20
2457.699778
 30
0.0
  0
POINT
  5
A48
  8
DEFPOINTS
 10
1894.132759
 20
2288.299778
 30
0.0
  0
POINT
  5
A49
  8
DEFPOINTS
 10
2020.073982
 20
2602.279565
 30
0.0
  0
LINE
  5
A4A
  8
2
  6
CONTINUOUS
 10
1841.732759
 20
2463.699778
 30
0.0
 11
1841.732759
 21
2607.279565
 31
0.0
  0
LINE
  5
A4B
  8
2
  6
CONTINUOUS
 10
1894.132759
 20
2294.299778
 30
0.0
 11
1894.132759
 21
2607.279565
 31
0.0
  0
LINE
  5
A4C
  8
2
  6
CONTINUOUS
 10
1799.632227
 20
2602.279565
 30
0.0
 11
2068.192147
 21
2602.279565
 31
0.0
  0
LINE
  5
A4D
  8
2
  6
CONTINUOUS
 10
1813.665739
 20
2597.330589
 30
0.0
 11
1841.732759
 21
2602.279565
 31
0.0
  0
LINE
  5
A4E
  8
2
  6
CONTINUOUS
 10
1813.665738
 20
2607.228535
 30
0.0
 11
1841.732759
 21
2602.279565
 31
0.0
  0
LINE
  5
A4F
  8
2
  6
CONTINUOUS
 10
1922.199779
 20
2607.228543
 30
0.0
 11
1894.132759
 21
2602.279565
 31
0.0
  0
LINE
  5
A50
  8
2
  6
CONTINUOUS
 10
1922.199781
 20
2597.330597
 30
0.0
 11
1894.132759
 21
2602.279565
 31
0.0
  0
TEXT
  5
A51
  8
2
  6
CONTINUOUS
 10
1951.192139
 20
2606.279541
 30
0.0
 40
52.0
  1
５０
 41
0.9
  7
MONOTXT
  0
ENDBLK
  5
A52
  8
0
  0
BLOCK
  5
A54
  8
2
  2
*D257
 70
    65
 10
0.0
 20
0.0
 30
0.0
  3
*D257
  1

  0
POINT
  5
A55
  8
DEFPOINTS
 10
-600.708564
 20
563.286571
 30
0.0
  0
POINT
  5
A56
  8
DEFPOINTS
 10
-839.844463
 20
792.703118
 30
0.0
  0
POINT
  5
A57
  8
DEFPOINTS
 10
-433.389026
 20
727.122305
 30
0.0
  0
LINE
  5
A58
  8
2
  6
CONTINUOUS
 10
-594.708564
 20
563.286571
 30
0.0
 11
-428.389026
 21
563.286571
 31
0.0
  0
LINE
  5
A59
  8
2
  6
CONTINUOUS
 10
-833.844463
 20
792.703118
 30
0.0
 11
-428.389026
 21
792.703118
 31
0.0
  0
LINE
  5
A5A
  8
2
  6
CONTINUOUS
 10
-433.389026
 20
563.286571
 30
0.0
 11
-433.389026
 21
792.703118
 31
0.0
  0
LINE
  5
A5B
  8
2
  6
CONTINUOUS
 10
-438.338
 20
591.353592
 30
0.0
 11
-433.389026
 21
563.286571
 31
0.0
  0
LINE
  5
A5C
  8
2
  6
CONTINUOUS
 10
-428.440054
 20
591.353592
 30
0.0
 11
-433.389026
 21
563.286571
 31
0.0
  0
LINE
  5
A5D
  8
2
  6
CONTINUOUS
 10
-428.440053
 20
764.636097
 30
0.0
 11
-433.389026
 21
792.703118
 31
0.0
  0
LINE
  5
A5E
  8
2
  6
CONTINUOUS
 10
-438.337999
 20
764.636097
 30
0.0
 11
-433.389026
 21
792.703118
 31
0.0
  0
TEXT
  5
A5F
  8
2
  6
CONTINUOUS
 10
-437.389038
 20
607.794861
 30
0.0
 40
52.0
  1
２３０
 50
90.000003
 41
0.9
  7
MONOTXT
  0
ENDBLK
  5
A60
  8
0
  0
BLOCK
  5
A62
  8
2
  2
*D258
 70
    65
 10
0.0
 20
0.0
 30
0.0
  3
*D258
  1

  0
POINT
  5
A63
  8
DEFPOINTS
 10
-940.708564
 20
992.039683
 30
0.0
  0
POINT
  5
A64
  8
DEFPOINTS
 10
-890.387682
 20
882.121896
 30
0.0
  0
POINT
  5
A65
  8
DEFPOINTS
 10
-1119.398141
 20
1144.233543
 30
0.0
  0
LINE
  5
A66
  8
2
  6
CONTINUOUS
 10
-940.708564
 20
998.039683
 30
0.0
 11
-940.708564
 21
1149.233543
 31
0.0
  0
LINE
  5
A67
  8
2
  6
CONTINUOUS
 10
-890.387682
 20
888.121896
 30
0.0
 11
-890.387682
 21
1149.233543
 31
0.0
  0
LINE
  5
A68
  8
2
  6
CONTINUOUS
 10
-1081.108558
 20
1144.233543
 30
0.0
 11
-848.287149
 21
1144.233543
 31
0.0
  0
LINE
  5
A69
  8
2
  6
CONTINUOUS
 10
-968.775585
 20
1139.284567
 30
0.0
 11
-940.708564
 21
1144.233543
 31
0.0
  0
LINE
  5
A6A
  8
2
  6
CONTINUOUS
 10
-968.775586
 20
1149.182513
 30
0.0
 11
-940.708564
 21
1144.233543
 31
0.0
  0
LINE
  5
A6B
  8
2
  6
CONTINUOUS
 10
-862.320661
 20
1149.182521
 30
0.0
 11
-890.387682
 21
1144.233543
 31
0.0
  0
LINE
  5
A6C
  8
2
  6
CONTINUOUS
 10
-862.32066
 20
1139.284574
 30
0.0
 11
-890.387682
 21
1144.233543
 31
0.0
  0
TEXT
  5
A6D
  8
2
  6
CONTINUOUS
 10
-1057.708618
 20
1148.233521
 30
0.0
 40
52.0
  1
５０
 41
0.9
  7
MONOTXT
  0
ENDBLK
  5
A6E
  8
0
  0
BLOCK
  5
A70
  8
2
  2
*D259
 70
    65
 10
0.0
 20
0.0
 30
0.0
  3
*D259
  1

  0
POINT
  5
A71
  8
DEFPOINTS
 10
542.13269
 20
-853.430128
 30
0.0
  0
POINT
  5
A72
  8
DEFPOINTS
 10
1972.13269
 20
-853.430128
 30
0.0
  0
POINT
  5
A73
  8
DEFPOINTS
 10
1479.871152
 20
-1152.454857
 30
0.0
  0
LINE
  5
A74
  8
2
  6
CONTINUOUS
 10
542.13269
 20
-859.430128
 30
0.0
 11
542.13269
 21
-1157.454857
 31
0.0
  0
LINE
  5
A75
  8
2
  6
CONTINUOUS
 10
1972.13269
 20
-859.430128
 30
0.0
 11
1972.13269
 21
-1157.454857
 31
0.0
  0
LINE
  5
A76
  8
2
  6
CONTINUOUS
 10
542.13269
 20
-1152.454857
 30
0.0
 11
1972.13269
 21
-1152.454857
 31
0.0
  0
LINE
  5
A77
  8
2
  6
CONTINUOUS
 10
570.199711
 20
-1147.505884
 30
0.0
 11
542.13269
 21
-1152.454857
 31
0.0
  0
LINE
  5
A78
  8
2
  6
CONTINUOUS
 10
570.199711
 20
-1157.40383
 30
0.0
 11
542.13269
 21
-1152.454857
 31
0.0
  0
LINE
  5
A79
  8
2
  6
CONTINUOUS
 10
1944.06567
 20
-1157.403833
 30
0.0
 11
1972.13269
 21
-1152.454857
 31
0.0
  0
LINE
  5
A7A
  8
2
  6
CONTINUOUS
 10
1944.065669
 20
-1147.505887
 30
0.0
 11
1972.13269
 21
-1152.454857
 31
0.0
  0
TEXT
  5
A7B
  8
2
  6
CONTINUOUS
 10
1163.532715
 20
-1148.454834
 30
0.0
 40
52.0
  1
１４３０
 41
0.9
  7
MONOTXT
  0
ENDBLK
  5
A7C
  8
0
  0
BLOCK
  5
A7E
  8
2
  2
*D260
 70
    65
 10
0.0
 20
0.0
 30
0.0
  3
*D260
  1

  0
POINT
  5
A7F
  8
DEFPOINTS
 10
639.53269
 20
-658.430128
 30
0.0
  0
POINT
  5
A80
  8
DEFPOINTS
 10
639.53269
 20
-398.430128
 30
0.0
  0
POINT
  5
A81
  8
DEFPOINTS
 10
394.813968
 20
-821.744435
 30
0.0
  0
LINE
  5
A82
  8
2
  6
CONTINUOUS
 10
633.53269
 20
-658.430128
 30
0.0
 11
389.813968
 21
-658.430128
 31
0.0
  0
LINE
  5
A83
  8
2
  6
CONTINUOUS
 10
633.53269
 20
-398.430128
 30
0.0
 11
389.813968
 21
-398.430128
 31
0.0
  0
LINE
  5
A84
  8
2
  6
CONTINUOUS
 10
394.813968
 20
-1308.254285
 30
0.0
 11
394.813968
 21
-356.329595
 31
0.0
  0
LINE
  5
A85
  8
2
  6
CONTINUOUS
 10
399.762941
 20
-686.497149
 30
0.0
 11
394.813968
 21
-658.430128
 31
0.0
  0
LINE
  5
A86
  8
2
  6
CONTINUOUS
 10
389.864995
 20
-686.497149
 30
0.0
 11
394.813968
 21
-658.430128
 31
0.0
  0
LINE
  5
A87
  8
2
  6
CONTINUOUS
 10
389.864998
 20
-370.363106
 30
0.0
 11
394.813968
 21
-398.430128
 31
0.0
  0
LINE
  5
A88
  8
2
  6
CONTINUOUS
 10
399.762945
 20
-370.363107
 30
0.0
 11
394.813968
 21
-398.430128
 31
0.0
  0
TEXT
  5
A89
  8
2
  6
CONTINUOUS
 10
390.813995
 20
-1284.854248
 30
0.0
 40
52.0
  1
２６０（天井材部）
 50
90.000003
 41
0.9
  7
MONOTXT
  0
ENDBLK
  5
A8A
  8
0
  0
BLOCK
  5
A8C
  8
2
  2
*D261
 70
    65
 10
0.0
 20
0.0
 30
0.0
  3
*D261
  1

  0
POINT
  5
A8D
  8
DEFPOINTS
 10
557.13269
 20
-868.430128
 30
0.0
  0
POINT
  5
A8E
  8
DEFPOINTS
 10
557.13269
 20
-188.430128
 30
0.0
  0
POINT
  5
A8F
  8
DEFPOINTS
 10
296.185547
 20
-564.606053
 30
0.0
  0
LINE
  5
A90
  8
2
  6
CONTINUOUS
 10
551.13269
 20
-868.430128
 30
0.0
 11
291.185547
 21
-868.430128
 31
0.0
  0
LINE
  5
A91
  8
2
  6
CONTINUOUS
 10
551.13269
 20
-188.430128
 30
0.0
 11
291.185547
 21
-188.430128
 31
0.0
  0
LINE
  5
A92
  8
2
  6
CONTINUOUS
 10
296.185547
 20
-868.430128
 30
0.0
 11
296.185547
 21
-188.430128
 31
0.0
  0
LINE
  5
A93
  8
2
  6
CONTINUOUS
 10
291.236573
 20
-840.363107
 30
0.0
 11
296.185547
 21
-868.430128
 31
0.0
  0
LINE
  5
A94
  8
2
  6
CONTINUOUS
 10
301.134519
 20
-840.363107
 30
0.0
 11
296.185547
 21
-868.430128
 31
0.0
  0
LINE
  5
A95
  8
2
  6
CONTINUOUS
 10
301.13452
 20
-216.497149
 30
0.0
 11
296.185547
 21
-188.430128
 31
0.0
  0
LINE
  5
A96
  8
2
  6
CONTINUOUS
 10
291.236574
 20
-216.497149
 30
0.0
 11
296.185547
 21
-188.430128
 31
0.0
  0
TEXT
  5
A97
  8
2
  6
CONTINUOUS
 10
292.185547
 20
-598.630127
 30
0.0
 40
52.0
  1
６８０
 50
90.000003
 41
0.9
  7
MONOTXT
  0
ENDBLK
  5
A98
  8
0
  0
ENDSEC
  0
SECTION
  2
ENTITIES
  0
INSERT
  5
A99
  8
1
  2
*U2
 10
0.0
 20
0.0
 30
0.0
  0
INSERT
  5
A9A
  8
1
  2
*U3
 10
0.0
 20
0.0
 30
0.0
  0
INSERT
  5
A9B
  8
1
  2
*U4
 10
0.0
 20
0.0
 30
0.0
  0
INSERT
  5
A9C
  8
1
  2
*U5
 10
0.0
 20
0.0
 30
0.0
  0
INSERT
  5
A9D
  8
1
  2
*U6
 10
0.0
 20
0.0
 30
0.0
  0
INSERT
  5
A9E
  8
1
  2
*U8
 10
0.0
 20
0.0
 30
0.0
  0
INSERT
  5
A9F
  8
1
  2
*U10
 10
0.0
 20
0.0
 30
0.0
  0
INSERT
  5
AA0
  8
1
  2
*U11
 10
0.0
 20
0.0
 30
0.0
  0
INSERT
  5
AA1
  8
1
  2
*U12
 10
0.0
 20
0.0
 30
0.0
  0
INSERT
  5
AA2
  8
1
  2
*U13
 10
0.0
 20
0.0
 30
0.0
  0
INSERT
  5
AA3
  8
1
  2
*U14
 10
0.0
 20
0.0
 30
0.0
  0
INSERT
  5
AA4
  8
1
  2
*U16
 10
0.0
 20
0.0
 30
0.0
  0
INSERT
  5
AA5
  8
1
  2
*U17
 10
0.0
 20
0.0
 30
0.0
  0
INSERT
  5
AA6
  8
1
  2
*U18
 10
0.0
 20
0.0
 30
0.0
  0
INSERT
  5
AA7
  8
1
  2
*U19
 10
0.0
 20
0.0
 30
0.0
  0
INSERT
  5
AA8
  8
1
  2
*U20
 10
0.0
 20
0.0
 30
0.0
  0
INSERT
  5
AA9
  8
1
  2
*U21
 10
0.0
 20
0.0
 30
0.0
  0
INSERT
  5
AAA
  8
1
  2
*U22
 10
0.0
 20
0.0
 30
0.0
  0
INSERT
  5
AAB
  8
1
  2
*U23
 10
0.0
 20
0.0
 30
0.0
  0
INSERT
  5
AAC
  8
1
  2
*U24
 10
0.0
 20
0.0
 30
0.0
  0
INSERT
  5
AAD
  8
1
  2
*U25
 10
0.0
 20
0.0
 30
0.0
  0
INSERT
  5
AAE
  8
1
  2
*U26
 10
0.0
 20
0.0
 30
0.0
  0
INSERT
  5
AAF
  8
1
  2
*U27
 10
0.0
 20
0.0
 30
0.0
  0
INSERT
  5
AB0
  8
1
  2
*U28
 10
0.0
 20
0.0
 30
0.0
  0
INSERT
  5
AB1
  8
1
  2
*U29
 10
0.0
 20
0.0
 30
0.0
  0
INSERT
  5
AB2
  8
1
  2
*U30
 10
0.0
 20
0.0
 30
0.0
  0
INSERT
  5
AB3
  8
1
  2
*U31
 10
0.0
 20
0.0
 30
0.0
  0
INSERT
  5
AB4
  8
1
  2
*U32
 10
0.0
 20
0.0
 30
0.0
  0
INSERT
  5
AB5
  8
1
  2
*U33
 10
0.0
 20
0.0
 30
0.0
  0
INSERT
  5
AB6
  8
1
  2
*U34
 10
0.0
 20
0.0
 30
0.0
  0
INSERT
  5
AB7
  8
1
  2
*U35
 10
0.0
 20
0.0
 30
0.0
  0
INSERT
  5
AB8
  8
1
  2
*U36
 10
0.0
 20
0.0
 30
0.0
  0
INSERT
  5
AB9
  8
1
  2
*U37
 10
0.0
 20
0.0
 30
0.0
  0
INSERT
  5
ABA
  8
1
  2
*U38
 10
0.0
 20
0.0
 30
0.0
  0
INSERT
  5
ABB
  8
1
  2
*U39
 10
0.0
 20
0.0
 30
0.0
  0
INSERT
  5
ABC
  8
1
  2
*U40
 10
0.0
 20
0.0
 30
0.0
  0
INSERT
  5
ABD
  8
1
  2
*U41
 10
0.0
 20
0.0
 30
0.0
  0
INSERT
  5
ABE
  8
1
  2
*U42
 10
0.0
 20
0.0
 30
0.0
  0
INSERT
  5
ABF
  8
1
  2
*U43
 10
0.0
 20
0.0
 30
0.0
  0
INSERT
  5
AC0
  8
1
  2
*U44
 10
0.0
 20
0.0
 30
0.0
  0
INSERT
  5
AC1
  8
1
  2
*U45
 10
0.0
 20
0.0
 30
0.0
  0
INSERT
  5
AC2
  8
1
  2
*U46
 10
0.0
 20
0.0
 30
0.0
  0
INSERT
  5
AC3
  8
1
  2
*U47
 10
0.0
 20
0.0
 30
0.0
  0
INSERT
  5
AC4
  8
1
  2
*U48
 10
0.0
 20
0.0
 30
0.0
  0
INSERT
  5
AC5
  8
1
  2
*U49
 10
0.0
 20
0.0
 30
0.0
  0
INSERT
  5
AC6
  8
1
  2
*U50
 10
0.0
 20
0.0
 30
0.0
  0
INSERT
  5
AC7
  8
1
  2
*U51
 10
0.0
 20
0.0
 30
0.0
  0
INSERT
  5
AC8
  8
1
  2
*U52
 10
0.0
 20
0.0
 30
0.0
  0
INSERT
  5
AC9
  8
1
  2
*U53
 10
0.0
 20
0.0
 30
0.0
  0
INSERT
  5
ACA
  8
1
  2
*U54
 10
0.0
 20
0.0
 30
0.0
  0
INSERT
  5
ACB
  8
1
  2
*U55
 10
0.0
 20
0.0
 30
0.0
  0
INSERT
  5
ACC
  8
1
  2
*U56
 10
0.0
 20
0.0
 30
0.0
  0
INSERT
  5
ACD
  8
1
  2
*U57
 10
0.0
 20
0.0
 30
0.0
  0
INSERT
  5
ACE
  8
1
  2
*U58
 10
0.0
 20
0.0
 30
0.0
  0
INSERT
  5
ACF
  8
1
  2
*U59
 10
0.0
 20
0.0
 30
0.0
  0
INSERT
  5
AD0
  8
1
  2
*U60
 10
0.0
 20
0.0
 30
0.0
  0
INSERT
  5
AD1
  8
1
  2
*U61
 10
0.0
 20
0.0
 30
0.0
  0
INSERT
  5
AD2
  8
1
  2
*U62
 10
0.0
 20
0.0
 30
0.0
  0
INSERT
  5
AD3
  8
1
  2
*U63
 10
0.0
 20
0.0
 30
0.0
  0
INSERT
  5
AD4
  8
1
  2
*U64
 10
0.0
 20
0.0
 30
0.0
  0
INSERT
  5
AD5
  8
1
  2
*U65
 10
0.0
 20
0.0
 30
0.0
  0
INSERT
  5
AD6
  8
1
  2
*U66
 10
0.0
 20
0.0
 30
0.0
  0
INSERT
  5
AD7
  8
1
  2
*U67
 10
0.0
 20
0.0
 30
0.0
  0
INSERT
  5
AD8
  8
1
  2
*U68
 10
0.0
 20
0.0
 30
0.0
  0
INSERT
  5
AD9
  8
1
  2
*U69
 10
0.0
 20
0.0
 30
0.0
  0
INSERT
  5
ADA
  8
1
  2
*U70
 10
0.0
 20
0.0
 30
0.0
  0
INSERT
  5
ADB
  8
1
  2
*U71
 10
0.0
 20
0.0
 30
0.0
  0
INSERT
  5
ADC
  8
1
  2
*U72
 10
0.0
 20
0.0
 30
0.0
  0
INSERT
  5
ADD
  8
1
  2
*U73
 10
0.0
 20
0.0
 30
0.0
  0
INSERT
  5
ADE
  8
1
  2
*U74
 10
0.0
 20
0.0
 30
0.0
  0
INSERT
  5
ADF
  8
1
  2
*U75
 10
0.0
 20
0.0
 30
0.0
  0
INSERT
  5
AE0
  8
1
  2
*U76
 10
0.0
 20
0.0
 30
0.0
  0
INSERT
  5
AE1
  8
1
  2
*U77
 10
0.0
 20
0.0
 30
0.0
  0
INSERT
  5
AE2
  8
1
  2
*U78
 10
0.0
 20
0.0
 30
0.0
  0
INSERT
  5
AE3
  8
1
  2
*U79
 10
0.0
 20
0.0
 30
0.0
  0
INSERT
  5
AE4
  8
1
  2
*U80
 10
0.0
 20
0.0
 30
0.0
  0
INSERT
  5
AE5
  8
1
  2
*U81
 10
0.0
 20
0.0
 30
0.0
  0
INSERT
  5
AE6
  8
1
  2
*U82
 10
0.0
 20
0.0
 30
0.0
  0
INSERT
  5
AE7
  8
1
  2
*U83
 10
0.0
 20
0.0
 30
0.0
  0
INSERT
  5
AE8
  8
1
  2
*U84
 10
0.0
 20
0.0
 30
0.0
  0
INSERT
  5
AE9
  8
1
  2
*U85
 10
0.0
 20
0.0
 30
0.0
  0
INSERT
  5
AEA
  8
1
  2
*U86
 10
0.0
 20
0.0
 30
0.0
  0
INSERT
  5
AEB
  8
1
  2
*U87
 10
0.0
 20
0.0
 30
0.0
  0
INSERT
  5
AEC
  8
1
  2
*U88
 10
0.0
 20
0.0
 30
0.0
  0
INSERT
  5
AED
  8
1
  2
*U89
 10
0.0
 20
0.0
 30
0.0
  0
INSERT
  5
AEE
  8
1
  2
*U90
 10
0.0
 20
0.0
 30
0.0
  0
INSERT
  5
AEF
  8
1
  2
*U91
 10
0.0
 20
0.0
 30
0.0
  0
INSERT
  5
AF0
  8
1
  2
*U92
 10
0.0
 20
0.0
 30
0.0
  0
INSERT
  5
AF1
  8
1
  2
*U93
 10
0.0
 20
0.0
 30
0.0
  0
INSERT
  5
AF2
  8
1
  2
*U94
 10
0.0
 20
0.0
 30
0.0
  0
INSERT
  5
AF3
  8
1
  2
*U95
 10
0.0
 20
0.0
 30
0.0
  0
INSERT
  5
AF4
  8
1
  2
*U96
 10
0.0
 20
0.0
 30
0.0
  0
INSERT
  5
AF5
  8
1
  2
*U97
 10
0.0
 20
0.0
 30
0.0
  0
INSERT
  5
AF6
  8
1
  2
*U98
 10
0.0
 20
0.0
 30
0.0
  0
INSERT
  5
AF7
  8
1
  2
*U99
 10
0.0
 20
0.0
 30
0.0
  0
INSERT
  5
AF8
  8
1
  2
*U100
 10
0.0
 20
0.0
 30
0.0
  0
INSERT
  5
AF9
  8
1
  2
*U101
 10
0.0
 20
0.0
 30
0.0
  0
INSERT
  5
AFA
  8
1
  2
*U102
 10
0.0
 20
0.0
 30
0.0
  0
INSERT
  5
AFB
  8
1
  2
*U103
 10
0.0
 20
0.0
 30
0.0
  0
INSERT
  5
AFC
  8
1
  2
*U104
 10
0.0
 20
0.0
 30
0.0
  0
INSERT
  5
AFD
  8
1
  2
*U105
 10
0.0
 20
0.0
 30
0.0
  0
INSERT
  5
AFE
  8
1
  2
*U106
 10
0.0
 20
0.0
 30
0.0
  0
INSERT
  5
AFF
  8
1
  2
*U107
 10
0.0
 20
0.0
 30
0.0
  0
INSERT
  5
B00
  8
1
  2
*U108
 10
0.0
 20
0.0
 30
0.0
  0
INSERT
  5
B01
  8
1
  2
*U109
 10
0.0
 20
0.0
 30
0.0
  0
INSERT
  5
B02
  8
1
  2
*U110
 10
0.0
 20
0.0
 30
0.0
  0
INSERT
  5
B03
  8
1
  2
*U111
 10
0.0
 20
0.0
 30
0.0
  0
INSERT
  5
B04
  8
1
  2
*U112
 10
0.0
 20
0.0
 30
0.0
  0
INSERT
  5
B05
  8
1
  2
*U113
 10
0.0
 20
0.0
 30
0.0
  0
INSERT
  5
B06
  8
1
  2
*U114
 10
0.0
 20
0.0
 30
0.0
  0
INSERT
  5
B07
  8
1
  2
*U115
 10
0.0
 20
0.0
 30
0.0
  0
INSERT
  5
B08
  8
1
  2
*U116
 10
0.0
 20
0.0
 30
0.0
  0
INSERT
  5
B09
  8
1
  2
*U117
 10
0.0
 20
0.0
 30
0.0
  0
INSERT
  5
B0A
  8
1
  2
*U118
 10
0.0
 20
0.0
 30
0.0
  0
INSERT
  5
B0B
  8
1
  2
*U119
 10
0.0
 20
0.0
 30
0.0
  0
INSERT
  5
B0C
  8
1
  2
*U120
 10
0.0
 20
0.0
 30
0.0
  0
INSERT
  5
B0D
  8
1
  2
*U121
 10
0.0
 20
0.0
 30
0.0
  0
INSERT
  5
B0E
  8
1
  2
*U122
 10
0.0
 20
0.0
 30
0.0
  0
INSERT
  5
B0F
  8
1
  2
*U123
 10
0.0
 20
0.0
 30
0.0
  0
INSERT
  5
B10
  8
1
  2
*U124
 10
0.0
 20
0.0
 30
0.0
  0
INSERT
  5
B11
  8
1
  2
*U125
 10
0.0
 20
0.0
 30
0.0
  0
INSERT
  5
B12
  8
1
  2
*U126
 10
0.0
 20
0.0
 30
0.0
  0
INSERT
  5
B13
  8
1
  2
*U127
 10
0.0
 20
0.0
 30
0.0
  0
INSERT
  5
B14
  8
1
  2
*U128
 10
0.0
 20
0.0
 30
0.0
  0
INSERT
  5
B15
  8
1
  2
*U129
 10
0.0
 20
0.0
 30
0.0
  0
INSERT
  5
B16
  8
1
  2
*U130
 10
0.0
 20
0.0
 30
0.0
  0
INSERT
  5
B17
  8
1
  2
*U131
 10
0.0
 20
0.0
 30
0.0
  0
INSERT
  5
B18
  8
1
  2
*U132
 10
0.0
 20
0.0
 30
0.0
  0
INSERT
  5
B19
  8
1
  2
*U133
 10
0.0
 20
0.0
 30
0.0
  0
INSERT
  5
B1A
  8
1
  2
*U134
 10
0.0
 20
0.0
 30
0.0
  0
INSERT
  5
B1B
  8
1
  2
*U135
 10
0.0
 20
0.0
 30
0.0
  0
INSERT
  5
B1C
  8
1
  2
*U136
 10
0.0
 20
0.0
 30
0.0
  0
INSERT
  5
B1D
  8
1
  2
*U137
 10
0.0
 20
0.0
 30
0.0
  0
INSERT
  5
B1E
  8
1
  2
*U138
 10
0.0
 20
0.0
 30
0.0
  0
INSERT
  5
B1F
  8
1
  2
*U139
 10
0.0
 20
0.0
 30
0.0
  0
INSERT
  5
B20
  8
1
  2
*U140
 10
0.0
 20
0.0
 30
0.0
  0
INSERT
  5
B21
  8
1
  2
*U141
 10
0.0
 20
0.0
 30
0.0
  0
INSERT
  5
B22
  8
1
  2
*U142
 10
0.0
 20
0.0
 30
0.0
  0
INSERT
  5
B23
  8
1
  2
*U143
 10
0.0
 20
0.0
 30
0.0
  0
INSERT
  5
B24
  8
1
  2
*U144
 10
0.0
 20
0.0
 30
0.0
  0
INSERT
  5
B25
  8
1
  2
*U145
 10
0.0
 20
0.0
 30
0.0
  0
INSERT
  5
B26
  8
1
  2
*U146
 10
0.0
 20
0.0
 30
0.0
  0
INSERT
  5
B27
  8
1
  2
*U147
 10
0.0
 20
0.0
 30
0.0
  0
INSERT
  5
B28
  8
1
  2
*U148
 10
0.0
 20
0.0
 30
0.0
  0
INSERT
  5
B29
  8
1
  2
*U149
 10
0.0
 20
0.0
 30
0.0
  0
INSERT
  5
B2A
  8
1
  2
*U150
 10
0.0
 20
0.0
 30
0.0
  0
INSERT
  5
B2B
  8
1
  2
*U151
 10
0.0
 20
0.0
 30
0.0
  0
INSERT
  5
B2C
  8
1
  2
*U152
 10
0.0
 20
0.0
 30
0.0
  0
INSERT
  5
B2D
  8
1
  2
*U153
 10
0.0
 20
0.0
 30
0.0
  0
INSERT
  5
B2E
  8
1
  2
*U154
 10
0.0
 20
0.0
 30
0.0
  0
INSERT
  5
B2F
  8
1
  2
*U155
 10
0.0
 20
0.0
 30
0.0
  0
INSERT
  5
B30
  8
1
  2
*U156
 10
0.0
 20
0.0
 30
0.0
  0
INSERT
  5
B31
  8
1
  2
*U157
 10
0.0
 20
0.0
 30
0.0
  0
INSERT
  5
B32
  8
1
  2
*U158
 10
0.0
 20
0.0
 30
0.0
  0
INSERT
  5
B33
  8
1
  2
*U159
 10
0.0
 20
0.0
 30
0.0
  0
INSERT
  5
B34
  8
1
  2
*U160
 10
0.0
 20
0.0
 30
0.0
  0
INSERT
  5
B35
  8
1
  2
*U161
 10
0.0
 20
0.0
 30
0.0
  0
INSERT
  5
B36
  8
1
  2
*U162
 10
0.0
 20
0.0
 30
0.0
  0
INSERT
  5
B37
  8
1
  2
*U163
 10
0.0
 20
0.0
 30
0.0
  0
INSERT
  5
B38
  8
1
  2
*U164
 10
0.0
 20
0.0
 30
0.0
  0
INSERT
  5
B39
  8
1
  2
*U165
 10
0.0
 20
0.0
 30
0.0
  0
INSERT
  5
B3A
  8
1
  2
*U166
 10
0.0
 20
0.0
 30
0.0
  0
INSERT
  5
B3B
  8
1
  2
*U167
 10
0.0
 20
0.0
 30
0.0
  0
INSERT
  5
B3C
  8
1
  2
*U168
 10
0.0
 20
0.0
 30
0.0
  0
INSERT
  5
B3D
  8
1
  2
*U169
 10
0.0
 20
0.0
 30
0.0
  0
INSERT
  5
B3E
  8
1
  2
*U170
 10
0.0
 20
0.0
 30
0.0
  0
INSERT
  5
B3F
  8
1
  2
*U171
 10
0.0
 20
0.0
 30
0.0
  0
INSERT
  5
B40
  8
1
  2
*U172
 10
0.0
 20
0.0
 30
0.0
  0
INSERT
  5
B41
  8
1
  2
*U173
 10
0.0
 20
0.0
 30
0.0
  0
INSERT
  5
B42
  8
1
  2
*U174
 10
0.0
 20
0.0
 30
0.0
  0
INSERT
  5
B43
  8
1
  2
*U175
 10
0.0
 20
0.0
 30
0.0
  0
INSERT
  5
B44
  8
1
  2
*U176
 10
0.0
 20
0.0
 30
0.0
  0
INSERT
  5
B45
  8
1
  2
*U177
 10
0.0
 20
0.0
 30
0.0
  0
INSERT
  5
B46
  8
1
  2
*U178
 10
0.0
 20
0.0
 30
0.0
  0
INSERT
  5
B47
  8
1
  2
*U179
 10
0.0
 20
0.0
 30
0.0
  0
INSERT
  5
B48
  8
1
  2
*U180
 10
0.0
 20
0.0
 30
0.0
  0
INSERT
  5
B49
  8
1
  2
*U181
 10
0.0
 20
0.0
 30
0.0
  0
INSERT
  5
B4A
  8
1
  2
*U182
 10
0.0
 20
0.0
 30
0.0
  0
INSERT
  5
B4B
  8
1
  2
*U183
 10
0.0
 20
0.0
 30
0.0
  0
INSERT
  5
B4C
  8
1
  2
*U184
 10
0.0
 20
0.0
 30
0.0
  0
INSERT
  5
B4D
  8
1
  2
*U185
 10
0.0
 20
0.0
 30
0.0
  0
INSERT
  5
B4E
  8
1
  2
*U186
 10
0.0
 20
0.0
 30
0.0
  0
INSERT
  5
B4F
  8
1
  2
*U187
 10
0.0
 20
0.0
 30
0.0
  0
INSERT
  5
B50
  8
1
  2
*U188
 10
0.0
 20
0.0
 30
0.0
  0
INSERT
  5
B51
  8
1
  2
*U189
 10
0.0
 20
0.0
 30
0.0
  0
INSERT
  5
B52
  8
1
  2
*U190
 10
0.0
 20
0.0
 30
0.0
  0
INSERT
  5
B53
  8
1
  2
*U191
 10
0.0
 20
0.0
 30
0.0
  0
INSERT
  5
B54
  8
1
  2
*U192
 10
0.0
 20
0.0
 30
0.0
  0
INSERT
  5
B55
  8
1
  2
*U193
 10
0.0
 20
0.0
 30
0.0
  0
INSERT
  5
B56
  8
1
  2
*U194
 10
0.0
 20
0.0
 30
0.0
  0
INSERT
  5
B57
  8
1
  2
*U195
 10
0.0
 20
0.0
 30
0.0
  0
INSERT
  5
B58
  8
1
  2
*U196
 10
0.0
 20
0.0
 30
0.0
  0
INSERT
  5
B59
  8
1
  2
*U197
 10
0.0
 20
0.0
 30
0.0
  0
INSERT
  5
B5A
  8
1
  2
*U198
 10
0.0
 20
0.0
 30
0.0
  0
INSERT
  5
B5B
  8
1
  2
*U199
 10
0.0
 20
0.0
 30
0.0
  0
INSERT
  5
B5C
  8
1
  2
*U200
 10
0.0
 20
0.0
 30
0.0
  0
INSERT
  5
B5D
  8
1
  2
*U201
 10
0.0
 20
0.0
 30
0.0
  0
INSERT
  5
B5E
  8
1
  2
*U202
 10
0.0
 20
0.0
 30
0.0
  0
INSERT
  5
B5F
  8
1
  2
*U203
 10
0.0
 20
0.0
 30
0.0
  0
INSERT
  5
B60
  8
1
  2
*U204
 10
0.0
 20
0.0
 30
0.0
  0
INSERT
  5
B61
  8
1
  2
*U205
 10
0.0
 20
0.0
 30
0.0
  0
INSERT
  5
B62
  8
1
  2
*U206
 10
0.0
 20
0.0
 30
0.0
  0
INSERT
  5
B63
  8
1
  2
*U207
 10
0.0
 20
0.0
 30
0.0
  0
INSERT
  5
B64
  8
1
  2
*U208
 10
0.0
 20
0.0
 30
0.0
  0
INSERT
  5
B65
  8
1
  2
*U209
 10
0.0
 20
0.0
 30
0.0
  0
INSERT
  5
B66
  8
1
  2
*U210
 10
0.0
 20
0.0
 30
0.0
  0
INSERT
  5
B67
  8
1
  2
*U211
 10
0.0
 20
0.0
 30
0.0
  0
INSERT
  5
B68
  8
1
  2
*U212
 10
0.0
 20
0.0
 30
0.0
  0
INSERT
  5
B69
  8
1
  2
*U213
 10
0.0
 20
0.0
 30
0.0
  0
INSERT
  5
B6A
  8
1
  2
*U214
 10
0.0
 20
0.0
 30
0.0
  0
INSERT
  5
B6B
  8
1
  2
*U215
 10
0.0
 20
0.0
 30
0.0
  0
INSERT
  5
B6C
  8
1
  2
*U216
 10
0.0
 20
0.0
 30
0.0
  0
DIMENSION
  5
B6D
  8
2
  6
CONTINUOUS
 62
     7
  2
*D217
 10
1135.984415
 20
1107.605952
 30
0.0
 11
1134.632739
 21
1137.605957
 31
0.0
  1
６１５
 13
827.132759
 23
869.486571
 33
0.0
 14
1442.132759
 24
869.486571
 34
0.0
  0
DIMENSION
  5
B6E
  8
2
  6
CONTINUOUS
 62
     7
  2
*D218
 10
1571.751622
 20
1108.208468
 30
0.0
 11
1562.432812
 21
1138.208496
 31
0.0
  1
８５
 13
1632.632759
 23
803.486571
 33
0.0
 14
1717.632759
 24
803.486571
 34
0.0
  0
DIMENSION
  5
B6F
  8
2
  6
CONTINUOUS
 62
     7
  2
*D219
 10
2145.231588
 20
636.448913
 30
0.0
 11
2115.231687
 21
653.286571
 31
0.0
  1
８０
 13
1717.632759
 23
723.486571
 33
0.0
 14
1717.632759
 24
803.486571
 34
0.0
 50
90.000003
  0
DIMENSION
  5
B70
  8
2
  6
CONTINUOUS
 62
     7
  2
*D220
 10
277.306566
 20
745.915057
 30
0.0
 11
247.306577
 21
432.002489
 31
0.0
  1
１３５
 13
827.132759
 23
734.486571
 33
0.0
 14
827.132759
 24
869.486571
 34
0.0
 50
90.000003
  0
DIMENSION
  5
B71
  8
2
  6
CONTINUOUS
 62
     7
  2
*D221
 10
2499.941895
 20
871.784948
 30
0.0
 11
2469.941891
 21
710.77434
 31
0.0
  1
２９０
 13
2152.13269
 23
563.286671
 33
0.0
 14
2120.732759
 24
858.262042
 34
0.0
 50
90.000003
  0
DIMENSION
  5
B72
  8
2
  6
CONTINUOUS
 62
     7
  2
*D222
 10
-38.59214
 20
587.84823
 30
0.0
 11
-68.592141
 21
742.786498
 31
0.0
  1
３５０以上
 13
362.13299
 23
563.286471
 33
0.0
 14
260.633586
 24
922.286571
 34
0.0
 50
90.000003
  0
DIMENSION
  5
B73
  8
2
  6
CONTINUOUS
 62
     7
  2
*D223
 10
2364.087589
 20
509.376839
 30
0.0
 11
2334.087643
 21
678.695604
 31
0.0
  1
２００
 13
2152.13269
 23
563.286671
 33
0.0
 14
1730.32932
 24
763.486571
 34
0.0
 50
90.000003
  0
DIMENSION
  5
B74
  8
2
  6
CONTINUOUS
 62
     7
  2
*D224
 10
2364.087589
 20
509.376839
 30
0.0
 11
2334.087645
 21
461.801976
 31
0.0
  1
８
 13
1967.133117
 23
548.287231
 33
0.0
 14
2152.13269
 24
563.286671
 34
0.0
 50
90.000003
  0
DIMENSION
  5
B75
  8
2
  6
CONTINUOUS
 62
     7
  2
*D225
 10
178.504823
 20
690.180741
 30
0.0
 11
148.504834
 21
433.770464
 31
0.0
  1
２４０
 13
362.13299
 23
563.286471
 33
0.0
 14
794.115685
 24
801.986571
 34
0.0
 50
90.000003
  0
DIMENSION
  5
B76
  8
2
  6
CONTINUOUS
 62
     7
  2
*D226
 10
1968.847158
 20
353.561425
 30
0.0
 11
2042.332715
 21
383.561432
 31
0.0
  1
２０
 13
1952.13269
 23
563.286671
 33
0.0
 14
1972.13269
 24
553.286571
 34
0.0
  0
DIMENSION
  5
B77
  8
2
  6
CONTINUOUS
 62
     7
  2
*D227
 10
1968.847158
 20
353.561425
 30
0.0
 11
1861.933057
 21
383.561432
 31
0.0
  1
２０
 13
1932.133109
 23
563.287199
 33
0.0
 14
1952.13269
 24
563.286671
 34
0.0
  0
DIMENSION
  5
B78
  8
2
  6
CONTINUOUS
 62
     7
  2
*D228
 10
547.375863
 20
359.139322
 30
0.0
 11
673.233105
 21
389.139313
 31
0.0
  1
４０
 13
562.13259
 23
563.286671
 33
0.0
 14
603.033109
 24
563.285962
 34
0.0
  0
DIMENSION
  5
B79
  8
2
  6
CONTINUOUS
 62
     7
  2
*D229
 10
547.375863
 20
359.139322
 30
0.0
 11
471.93269
 21
389.139313
 31
0.0
  1
２０
 13
542.13269
 23
553.286571
 33
0.0
 14
562.13259
 24
563.286671
 34
0.0
  0
DIMENSION
  5
B7A
  8
2
  6
CONTINUOUS
 62
     7
  2
*D230
 10
1102.023628
 20
1276.462799
 30
0.0
 11
2060.342822
 21
1306.462769
 31
0.0
  1
１２５
 13
1841.732759
 23
912.286571
 33
0.0
 14
1972.13269
 24
563.286571
 34
0.0
  0
DIMENSION
  5
B7B
  8
2
  6
CONTINUOUS
 62
     7
  2
*D231
 10
1102.023628
 20
1276.462799
 30
0.0
 11
1257.132715
 21
1306.462769
 31
0.0
  1
１１８０
 13
672.532759
 23
912.286571
 33
0.0
 14
1841.732759
 24
912.286571
 34
0.0
  0
DIMENSION
  5
B7C
  8
2
  6
CONTINUOUS
 62
     7
  2
*D232
 10
1102.023628
 20
1276.462799
 30
0.0
 11
448.532703
 21
1306.462769
 31
0.0
  1
１２５
 13
542.13269
 23
563.286571
 33
0.0
 14
672.532759
 24
912.286571
 34
0.0
  0
DIMENSION
  5
B7D
  8
2
  6
CONTINUOUS
 62
     7
  2
*D233
 10
63.596842
 20
643.59422
 30
0.0
 11
33.596845
 21
452.183391
 31
0.0
  1
４５
 13
362.13299
 23
563.286471
 33
0.0
 14
603.033062
 24
614.285962
 34
0.0
 50
90.000003
  0
DIMENSION
  5
B7E
  8
2
  6
CONTINUOUS
 62
     7
  2
*D234
 10
63.596842
 20
643.59422
 30
0.0
 11
33.596841
 21
763.286242
 31
0.0
  1
３０５
 13
603.033062
 23
614.285962
 33
0.0
 14
672.532759
 24
912.286571
 34
0.0
 50
90.000003
  0
DIMENSION
  5
B7F
  8
2
  6
CONTINUOUS
 62
     7
  2
*D235
 10
1271.144295
 20
356.233466
 30
0.0
 11
1041.032764
 21
386.233459
 31
0.0
  1
１２５
 13
1134.632759
 23
698.488418
 33
0.0
 14
1257.13269
 24
512.141196
 34
0.0
  0
DIMENSION
  5
B80
  8
2
  6
CONTINUOUS
 62
     7
  2
*D236
 10
1271.144295
 20
356.233466
 30
0.0
 11
1458.500659
 21
386.233459
 31
0.0
  1
４２０
 13
1257.13269
 23
482.604639
 33
0.0
 14
1675.132759
 24
708.025086
 34
0.0
  0
DIMENSION
  5
B81
  8
2
  6
CONTINUOUS
 62
     7
  2
*D237
 10
2319.30664
 20
2089.631283
 30
0.0
 11
2289.306638
 21
1931.412523
 31
0.0
  1
１３５
 13
2724.055093
 23
2035.974965
 33
0.0
 14
2724.055093
 24
2170.974965
 34
0.0
 50
90.000003
  0
DIMENSION
  5
B82
  8
2
  6
CONTINUOUS
 62
     7
  2
*D238
 10
3169.577859
 20
1722.227641
 30
0.0
 11
3031.55498
 21
1752.227661
 31
0.0
  1
６１５
 13
2724.055093
 23
2035.974965
 33
0.0
 14
3339.055093
 24
2035.974965
 34
0.0
  0
DIMENSION
  5
B83
  8
2
  6
CONTINUOUS
 62
     7
  2
*D239
 10
2237.88424
 20
2239.192749
 30
0.0
 11
2207.884274
 21
2222.825243
 31
0.0
  1
２４０
 13
2688.011847
 23
2103.474965
 33
0.0
 14
2439.055443
 24
2342.17563
 34
0.0
 50
90.000003
  0
DIMENSION
  5
B84
  8
2
  6
CONTINUOUS
 62
     7
  2
*D240
 10
3248.435329
 20
1817.98314
 30
0.0
 11
2912.559375
 21
1847.983154
 31
0.0
  1
１２５
 13
3031.555093
 23
2006.854925
 33
0.0
 14
3154.055043
 24
1932.275155
 34
0.0
  0
DIMENSION
  5
B85
  8
2
  6
CONTINUOUS
 62
     7
  2
*D241
 10
2995.925011
 20
686.066506
 30
0.0
 11
2965.925046
 21
650.786547
 31
0.0
  1
１７５
 13
3150.089374
 23
563.286571
 33
0.0
 14
3438.07496
 24
738.286571
 34
0.0
 50
90.000003
  0
DIMENSION
  5
B86
  8
2
  6
CONTINUOUS
 62
     7
  2
*D242
 10
3060.613609
 20
628.77089
 30
0.0
 11
3030.613522
 21
643.286547
 31
0.0
  1
１６０
 13
3150.089374
 23
563.286571
 33
0.0
 14
3192.089374
 24
723.286571
 34
0.0
 50
90.000003
  0
DIMENSION
  5
B87
  8
2
  6
CONTINUOUS
 62
     7
  2
*D243
 10
3525.94764
 20
1212.610927
 30
0.0
 11
3490.089404
 21
1242.610962
 31
0.0
  1
６００
 13
3195.489374
 23
912.286571
 33
0.0
 14
3784.689374
 24
912.286571
 34
0.0
  0
DIMENSION
  5
B88
  8
2
  6
CONTINUOUS
 62
     7
  2
*D244
 10
3471.438874
 20
1003.237448
 30
0.0
 11
3685.591504
 21
1033.237427
 31
0.0
  1
５５
 13
3490.089374
 23
1013.008246
 33
0.0
 14
3545.089345
 24
759.626381
 34
0.0
  0
DIMENSION
  5
B89
  8
2
  6
CONTINUOUS
 62
     7
  2
*D245
 10
3941.308565
 20
692.68713
 30
0.0
 11
3911.308591
 21
650.925341
 31
0.0
  1
１７５
 13
3830.089374
 23
563.286571
 33
0.0
 14
3556.741784
 24
738.564071
 34
0.0
 50
90.000003
  0
DIMENSION
  5
B8A
  8
2
  6
CONTINUOUS
 62
     7
  2
*D246
 10
4028.691288
 20
727.80466
 30
0.0
 11
3998.691403
 21
710.774279
 31
0.0
  1
２９０
 13
3830.089374
 23
563.286571
 33
0.0
 14
3644.168788
 24
858.262042
 34
0.0
 50
90.000003
  0
DIMENSION
  5
B8B
  8
2
  6
CONTINUOUS
 62
     7
  2
*D247
 10
3648.98787
 20
1098.864313
 30
0.0
 11
3708.732471
 21
1128.864258
 31
0.0
  1
１２５
 13
3490.089374
 23
932.428096
 33
0.0
 14
3615.132574
 24
883.113662
 34
0.0
  0
DIMENSION
  5
B8C
  8
2
  6
CONTINUOUS
 62
     7
  2
*D248
 10
3471.438874
 20
1003.237448
 30
0.0
 11
3342.851514
 21
1033.237427
 31
0.0
  1
４５
 13
3445.089446
 23
756.170141
 33
0.0
 14
3490.089374
 24
996.516486
 34
0.0
  0
DIMENSION
  5
B8D
  8
2
  6
CONTINUOUS
 62
     7
  2
*D249
 10
3784.689374
 20
1212.610927
 30
0.0
 11
3900.289258
 21
1242.610962
 31
0.0
  1
４０
 13
3784.689374
 23
912.286571
 33
0.0
 14
3830.089374
 24
563.286571
 34
0.0
  0
DIMENSION
  5
B8E
  8
2
  6
CONTINUOUS
 62
     7
  2
*D250
 10
3195.489374
 20
1212.610927
 30
0.0
 11
3079.889355
 21
1242.610962
 31
0.0
  1
４０
 13
3150.089374
 23
563.286571
 33
0.0
 14
3195.489374
 24
912.286571
 34
0.0
  0
DIMENSION
  5
B8F
  8
2
  6
CONTINUOUS
 62
     7
  2
*D251
 10
358.75025
 20
2104.793803
 30
0.0
 11
328.750235
 21
2158.099755
 31
0.0
  1
５２０（吊り位置）
 13
624.456457
 23
1898.099778
 33
0.0
 14
626.006668
 24
2418.099778
 34
0.0
 50
90.000003
  0
DIMENSION
  5
B90
  8
2
  6
CONTINUOUS
 62
     7
  2
*D252
 10
261.759523
 20
1950.354968
 30
0.0
 11
231.759511
 21
2157.699828
 31
0.0
  1
６４０（天井開口部）
 13
562.132759
 23
1837.699778
 33
0.0
 14
562.132759
 24
2477.699778
 34
0.0
 50
90.000003
  0
DIMENSION
  5
B91
  8
2
  6
CONTINUOUS
 62
     7
  2
*D253
 10
1218.249159
 20
1642.397113
 30
0.0
 11
1257.132751
 21
1672.397095
 31
0.0
  1
１２２０（吊り位置）
 13
647.532759
 23
1870.415788
 33
0.0
 14
1866.732759
 24
1870.811631
 34
0.0
  0
DIMENSION
  5
B92
  8
2
  6
CONTINUOUS
 62
     7
  2
*D254
 10
1224.339165
 20
1557.137028
 30
0.0
 11
1257.132788
 21
1587.137085
 31
0.0
  1
１３９０（天井開口部）
 13
562.132759
 23
1837.699778
 33
0.0
 14
1952.132759
 24
1837.699778
 34
0.0
  0
DIMENSION
  5
B93
  8
2
  6
CONTINUOUS
 62
     7
  2
*D255
 10
2026.095264
 20
1715.982295
 30
0.0
 11
2039.812207
 21
1745.9823
 31
0.0
  1
６０
 13
1841.732759
 23
1857.699778
 33
0.0
 14
1902.332759
 24
2108.299778
 34
0.0
  0
DIMENSION
  5
B94
  8
2
  6
CONTINUOUS
 62
     7
  2
*D256
 10
2020.073982
 20
2602.279565
 30
0.0
 11
1997.992139
 21
2632.279541
 31
0.0
  1
５０
 13
1841.732759
 23
2457.699778
 33
0.0
 14
1894.132759
 24
2288.299778
 34
0.0
  0
DIMENSION
  5
B95
  8
2
  6
CONTINUOUS
 62
     7
  2
*D257
 10
-433.389026
 20
727.122305
 30
0.0
 11
-463.389041
 21
677.99486
 31
0.0
  1
２３０
 13
-600.708564
 23
563.286571
 33
0.0
 14
-839.844463
 24
792.703118
 34
0.0
 50
90.000003
  0
DIMENSION
  5
B96
  8
2
  6
CONTINUOUS
 62
     7
  2
*D258
 10
-1119.398141
 20
1144.233543
 30
0.0
 11
-1010.908618
 21
1174.233521
 31
0.0
  1
５０
 13
-940.708564
 23
992.039683
 33
0.0
 14
-890.387682
 24
882.121896
 34
0.0
  0
DIMENSION
  5
B97
  8
2
  6
CONTINUOUS
 62
     7
  2
*D259
 10
1479.871152
 20
-1152.454857
 30
0.0
 11
1257.132715
 21
-1122.454834
 31
0.0
  1
１４３０
 13
542.13269
 23
-853.430128
 33
0.0
 14
1972.13269
 24
-853.430128
 34
0.0
  0
DIMENSION
  5
B98
  8
2
  6
CONTINUOUS
 62
     7
  2
*D260
 10
394.813968
 20
-821.744435
 30
0.0
 11
364.813986
 21
-1074.254249
 31
0.0
  1
２６０（天井材部）
 13
639.53269
 23
-658.430128
 33
0.0
 14
639.53269
 24
-398.430128
 34
0.0
 50
90.000003
  0
DIMENSION
  5
B99
  8
2
  6
CONTINUOUS
 62
     7
  2
*D261
 10
296.185547
 20
-564.606053
 30
0.0
 11
266.185544
 21
-528.430128
 31
0.0
  1
６８０
 13
557.13269
 23
-868.430128
 33
0.0
 14
557.13269
 24
-188.430128
 34
0.0
 50
90.000003
  0
LINE
  5
B9A
  8
1
 10
1841.732759
 20
614.286571
 30
0.0
 11
672.532759
 21
614.286571
 31
0.0
  0
LINE
  5
B9B
  8
1
 10
672.532759
 20
912.286571
 30
0.0
 11
672.532759
 21
614.286571
 31
0.0
  0
LINE
  5
B9C
  8
1
 10
1841.732759
 20
912.286571
 30
0.0
 11
1841.732759
 21
614.886571
 31
0.0
  0
LINE
  5
B9D
  8
1
 10
1841.732759
 20
912.286571
 30
0.0
 11
672.532759
 21
912.286571
 31
0.0
  0
LINE
  5
B9E
  8
1
 10
1841.732759
 20
614.286571
 30
0.0
 11
1841.732759
 21
748.286571
 31
0.0
  0
LINE
  5
B9F
  8
1
 10
1442.132759
 20
734.486571
 30
0.0
 11
1442.132759
 21
869.486571
 31
0.0
  0
LINE
  5
BA0
  8
1
 10
827.132759
 20
869.486571
 30
0.0
 11
1442.132759
 21
869.486571
 31
0.0
  0
LINE
  5
BA1
  8
1
 10
827.132759
 20
734.486571
 30
0.0
 11
1442.132759
 21
734.486571
 31
0.0
  0
LINE
  5
BA2
  8
1
 10
827.132759
 20
734.486571
 30
0.0
 11
827.132759
 21
869.486571
 31
0.0
  0
LINE
  5
BA3
  8
1
 10
1632.632759
 20
723.486571
 30
0.0
 11
1632.632759
 21
803.486571
 31
0.0
  0
LINE
  5
BA4
  8
1
 10
1632.632759
 20
803.486571
 30
0.0
 11
1717.632759
 21
803.486571
 31
0.0
  0
LINE
  5
BA5
  8
1
 10
1717.632759
 20
723.486571
 30
0.0
 11
1717.632759
 21
803.486571
 31
0.0
  0
LINE
  5
BA6
  8
1
 10
1632.632759
 20
723.486571
 30
0.0
 11
1717.632759
 21
723.486571
 31
0.0
  0
LINE
  5
BA7
  8
1
 10
542.133109
 20
563.285906
 30
0.0
 11
1972.133109
 21
563.287236
 31
0.0
  0
LINE
  5
BA8
  8
1
 10
547.133117
 20
548.28591
 30
0.0
 11
1967.133117
 21
548.287231
 31
0.0
  0
LINE
  5
BA9
  8
1
 10
542.13269
 20
553.286571
 30
0.0
 11
542.13269
 21
563.286571
 31
0.0
  0
LINE
  5
BAA
  8
1
 10
1972.13269
 20
553.286571
 30
0.0
 11
1972.13269
 21
563.286571
 31
0.0
  0
ARC
  5
BAB
  8
1
 10
547.13269
 20
553.286571
 30
0.0
 40
5.0
 50
180.0
 51
270.0
  0
ARC
  5
BAC
  8
1
 10
1967.13269
 20
553.286571
 30
0.0
 40
5.0
 50
270.0
 51
0.0
  0
LINE
  5
BAD
  8
1
 10
603.033062
 20
614.285962
 30
0.0
 11
1911.233062
 21
614.287179
 31
0.0
  0
LINE
  5
BAE
  8
1
 10
603.033109
 20
563.285962
 30
0.0
 11
603.033062
 21
614.285962
 31
0.0
  0
LINE
  5
BAF
  8
1
 10
1932.133109
 20
563.287199
 30
0.0
 11
1932.133032
 21
645.787199
 31
0.0
  0
LINE
  5
BB0
  8
1
 10
1866.633062
 20
614.287138
 30
0.0
 11
1866.633032
 21
645.787138
 31
0.0
  0
LINE
  5
BB1
  8
1
 10
1866.633032
 20
645.787138
 30
0.0
 11
1932.133032
 21
645.787199
 31
0.0
  0
LINE
  5
BB2
  8
1
 10
1906.633052
 20
624.287175
 30
0.0
 11
1932.133052
 21
624.287199
 31
0.0
  0
LINE
  5
BB3
  8
1
 10
1906.633062
 20
614.287175
 30
0.0
 11
1906.633052
 21
624.287175
 31
0.0
  0
LINE
  5
BB4
  8
1
 10
1911.233109
 20
563.287179
 30
0.0
 11
1911.233062
 21
614.287179
 31
0.0
  0
LINE
  5
BB5
  8
1
  6
DASHDOT
 10
1257.13269
 20
482.604639
 30
0.0
 11
1257.13269
 21
1057.122778
 31
0.0
  0
LINE
  5
BB6
  8
1
  6
DASHDOT
 10
1134.632759
 20
670.536335
 30
0.0
 11
1134.632759
 21
900.364576
 31
0.0
  0
LINE
  5
BB7
  8
1
  6
DASHDOT
 10
1518.256122
 20
801.986571
 30
0.0
 11
759.490506
 21
801.986571
 31
0.0
  0
LINE
  5
BB8
  8
1
  6
DASHDOT
 10
1747.632759
 20
763.486571
 30
0.0
 11
1602.632759
 21
763.486571
 31
0.0
  0
LINE
  5
BB9
  8
1
  6
DASHDOT
 10
1675.132759
 20
693.486571
 30
0.0
 11
1675.132759
 21
833.486571
 31
0.0
  0
LINE
  5
BBA
  8
1
 10
2103.732759
 20
874.262042
 30
0.0
 11
2103.732759
 21
842.262042
 31
0.0
  0
LINE
  5
BBB
  8
1
 10
2103.732759
 20
874.262042
 30
0.0
 11
2046.732759
 21
874.262042
 31
0.0
  0
LINE
  5
BBC
  8
1
 10
2103.732759
 20
842.262042
 30
0.0
 11
2046.732759
 21
842.262042
 31
0.0
  0
LINE
  5
BBD
  8
1
 10
2046.732759
 20
883.262042
 30
0.0
 11
2046.732759
 21
833.262042
 31
0.0
  0
LINE
  5
BBE
  8
1
 10
2046.732759
 20
883.262042
 30
0.0
 11
1841.732759
 21
883.262042
 31
0.0
  0
LINE
  5
BBF
  8
1
 10
2046.732759
 20
833.262042
 30
0.0
 11
1841.732759
 21
833.262042
 31
0.0
  0
ARC
  5
BC0
  8
1
  6
DASHDOT
 10
2120.732759
 20
864.262042
 30
0.0
 40
6.0
 50
270.0
 51
0.0
  0
LINE
  5
BC1
  8
1
 10
3738.655093
 20
2291.174965
 30
0.0
 11
2569.455093
 21
2291.174965
 31
0.0
  0
LINE
  5
BC2
  8
1
 10
2569.455093
 20
1993.174965
 30
0.0
 11
2569.455093
 21
2291.174965
 31
0.0
  0
LINE
  5
BC3
  8
1
 10
3738.655093
 20
1993.174965
 30
0.0
 11
3738.655093
 21
2290.574965
 31
0.0
  0
LINE
  5
BC4
  8
1
 10
3738.655093
 20
1993.174965
 30
0.0
 11
2569.455093
 21
1993.174965
 31
0.0
  0
LINE
  5
BC5
  8
1
 10
3738.655093
 20
2291.174965
 30
0.0
 11
3738.655093
 21
2157.174965
 31
0.0
  0
LINE
  5
BC6
  8
1
 10
3339.055093
 20
2170.974965
 30
0.0
 11
3339.055093
 21
2035.974965
 31
0.0
  0
LINE
  5
BC7
  8
1
 10
2724.055093
 20
2035.974965
 30
0.0
 11
3339.055093
 21
2035.974965
 31
0.0
  0
LINE
  5
BC8
  8
1
 10
2724.055093
 20
2170.974965
 30
0.0
 11
3339.055093
 21
2170.974965
 31
0.0
  0
LINE
  5
BC9
  8
1
 10
2724.055093
 20
2170.974965
 30
0.0
 11
2724.055093
 21
2035.974965
 31
0.0
  0
LINE
  5
BCA
  8
1
  6
DASHDOT
 10
3154.055224
 20
2321.892405
 30
0.0
 11
3154.055024
 21
1891.892405
 31
0.0
  0
LINE
  5
BCB
  8
1
 10
2439.055443
 20
2342.17563
 30
0.0
 11
3869.055443
 21
2342.1743
 31
0.0
  0
LINE
  5
BCC
  8
1
 10
2444.05545
 20
2357.175626
 30
0.0
 11
3864.05545
 21
2357.174305
 31
0.0
  0
LINE
  5
BCD
  8
1
 10
2439.055024
 20
2352.174965
 30
0.0
 11
2439.055024
 21
2342.174965
 31
0.0
  0
LINE
  5
BCE
  8
1
 10
3869.055024
 20
2352.174965
 30
0.0
 11
3869.055024
 21
2342.174965
 31
0.0
  0
ARC
  5
BCF
  8
1
 10
2444.055024
 20
2352.174965
 30
0.0
 40
5.0
 50
90.0
 51
180.0
  0
ARC
  5
BD0
  8
1
 10
3864.055024
 20
2352.174965
 30
0.0
 40
5.0
 50
0.0
 51
90.0
  0
LINE
  5
BD1
  8
1
 10
2499.955395
 20
2291.175574
 30
0.0
 11
3808.155395
 21
2291.174357
 31
0.0
  0
LINE
  5
BD2
  8
1
 10
2499.955443
 20
2342.175574
 30
0.0
 11
2499.955395
 21
2291.175574
 31
0.0
  0
LINE
  5
BD3
  8
1
 10
3829.055443
 20
2342.174337
 30
0.0
 11
3829.055366
 21
2259.674337
 31
0.0
  0
LINE
  5
BD4
  8
1
 10
3763.555395
 20
2291.174398
 30
0.0
 11
3763.555366
 21
2259.674398
 31
0.0
  0
LINE
  5
BD5
  8
1
 10
3763.555366
 20
2259.674398
 30
0.0
 11
3829.055366
 21
2259.674337
 31
0.0
  0
LINE
  5
BD6
  8
1
 10
3803.555386
 20
2281.174361
 30
0.0
 11
3829.055386
 21
2281.174337
 31
0.0
  0
LINE
  5
BD7
  8
1
 10
3803.555395
 20
2291.174361
 30
0.0
 11
3803.555386
 21
2281.174361
 31
0.0
  0
LINE
  5
BD8
  8
1
 10
3808.155443
 20
2342.174357
 30
0.0
 11
3808.155395
 21
2291.174357
 31
0.0
  0
LINE
  5
BD9
  8
1
  6
DASHDOT
 10
3154.055024
 20
2422.856897
 30
0.0
 11
3154.055024
 21
2236.119023
 31
0.0
  0
LINE
  5
BDA
  8
1
  6
DASHDOT
 10
3415.178455
 20
2103.474965
 30
0.0
 11
2656.41284
 21
2103.474965
 31
0.0
  0
LINE
  5
BDB
  8
1
  6
DASHDOT
 10
3031.555093
 20
1972.024729
 30
0.0
 11
3031.555093
 21
2201.85297
 31
0.0
  0
LINE
  5
BDC
  8
1
 10
3195.489374
 20
912.286571
 30
0.0
 11
3784.689374
 21
912.286571
 31
0.0
  0
LINE
  5
BDD
  8
1
 10
3195.489374
 20
912.286571
 30
0.0
 11
3195.489374
 21
723.286571
 31
0.0
  0
LINE
  5
BDE
  8
1
 10
3784.689374
 20
912.286571
 30
0.0
 11
3784.689374
 21
723.286571
 31
0.0
  0
LINE
  5
BDF
  8
1
 10
3763.089374
 20
614.286571
 30
0.0
 11
3784.689374
 21
614.286571
 31
0.0
  0
LINE
  5
BE0
  8
1
 10
3712.089374
 20
723.286571
 30
0.0
 11
3788.089374
 21
723.286571
 31
0.0
  0
LINE
  5
BE1
  8
1
 10
3712.089374
 20
719.986571
 30
0.0
 11
3727.089374
 21
719.986571
 31
0.0
  0
LINE
  5
BE2
  8
1
 10
3788.089374
 20
719.986571
 30
0.0
 11
3788.089374
 21
723.286571
 31
0.0
  0
LINE
  5
BE3
  8
1
 10
3712.089374
 20
719.986571
 30
0.0
 11
3712.089374
 21
723.286571
 31
0.0
  0
LINE
  5
BE4
  8
1
 10
3727.089374
 20
714.286571
 30
0.0
 11
3727.089374
 21
723.286571
 31
0.0
  0
LINE
  5
BE5
  8
1
 10
3744.089374
 20
714.286571
 30
0.0
 11
3744.089374
 21
723.286571
 31
0.0
  0
LINE
  5
BE6
  8
1
 10
3756.089374
 20
714.286571
 30
0.0
 11
3756.089374
 21
723.286571
 31
0.0
  0
LINE
  5
BE7
  8
1
 10
3773.089374
 20
679.020415
 30
0.0
 11
3773.089374
 21
723.286571
 31
0.0
  0
LINE
  5
BE8
  8
1
 10
3730.089374
 20
711.286571
 30
0.0
 11
3741.089374
 21
711.286571
 31
0.0
  0
ARC
  5
BE9
  8
1
 10
3770.089374
 20
714.286571
 30
0.0
 40
3.0
 50
270.0
 51
0.0
  0
ARC
  5
BEA
  8
1
 10
3759.089374
 20
714.286571
 30
0.0
 40
3.0
 50
180.0
 51
270.0
  0
ARC
  5
BEB
  8
1
 10
3741.089374
 20
714.286571
 30
0.0
 40
3.0
 50
270.0
 51
0.0
  0
ARC
  5
BEC
  8
1
 10
3730.089374
 20
714.286571
 30
0.0
 40
3.0
 50
180.0
 51
270.0
  0
LINE
  5
BED
  8
1
 10
3733.809527
 20
668.286571
 30
0.0
 11
3766.369221
 21
668.286571
 31
0.0
  0
CIRCLE
  5
BEE
  8
1
 10
3750.089374
 20
708.286571
 30
0.0
 40
3.5
  0
CIRCLE
  5
BEF
  8
1
 10
3750.089374
 20
678.286571
 30
0.0
 40
3.5
  0
LINE
  5
BF0
  8
1
 10
3771.158352
 20
671.849832
 30
0.0
 11
3772.878506
 21
677.583676
 31
0.0
  0
LINE
  5
BF1
  8
1
 10
3729.020396
 20
671.849832
 30
0.0
 11
3727.300243
 21
677.583676
 31
0.0
  0
ARC
  5
BF2
  8
1
 10
3766.369221
 20
673.286571
 30
0.0
 40
5.0
 50
270.0
 51
343.300756
  0
ARC
  5
BF3
  8
1
 10
3768.089374
 20
679.020415
 30
0.0
 40
5.0
 50
343.300756
 51
0.0
  0
ARC
  5
BF4
  8
1
 10
3733.809527
 20
673.286571
 30
0.0
 40
5.0
 50
196.699244
 51
270.0
  0
ARC
  5
BF5
  8
1
 10
3732.089374
 20
679.020415
 30
0.0
 40
5.0
 50
180.0
 51
196.699244
  0
LINE
  5
BF6
  8
1
 10
3759.089374
 20
711.286571
 30
0.0
 11
3770.089374
 21
711.286571
 31
0.0
  0
LINE
  5
BF7
  8
1
 10
3727.089374
 20
714.286571
 30
0.0
 11
3727.089374
 21
679.020415
 31
0.0
  0
LINE
  5
BF8
  8
1
 10
3773.089374
 20
719.986571
 30
0.0
 11
3788.089374
 21
719.986571
 31
0.0
  0
LINE
  5
BF9
  8
1
 10
3744.089374
 20
719.986571
 30
0.0
 11
3756.089374
 21
719.986571
 31
0.0
  0
LINE
  5
BFA
  8
1
  6
DASHDOT
 10
3657.677962
 20
858.262042
 30
0.0
 11
3572.587186
 21
858.262042
 31
0.0
  0
LINE
  5
BFB
  8
1
  6
DASHDOT
 10
3615.132574
 20
815.716654
 30
0.0
 11
3615.132574
 21
900.80743
 31
0.0
  0
LINE
  5
BFC
  8
1
 10
3557.089374
 20
639.286571
 30
0.0
 11
3517.564969
 21
639.286571
 31
0.0
  0
LINE
  5
BFD
  8
1
  6
DOT
 10
3557.089374
 20
614.286571
 30
0.0
 11
3557.089374
 21
624.286571
 31
0.0
  0
LINE
  5
BFE
  8
1
  6
DOT
 10
3437.089374
 20
614.286571
 30
0.0
 11
3437.089374
 21
624.286571
 31
0.0
  0
LINE
  5
BFF
  8
1
 10
3217.089374
 20
563.286571
 30
0.0
 11
3217.089374
 21
623.286571
 31
0.0
  0
ARC
  5
C00
  8
1
 10
3784.589374
 20
568.786571
 30
0.0
 40
6.0
 50
0.0
 51
89.045026
  0
LINE
  5
C01
  8
1
 10
3790.589374
 20
563.286571
 30
0.0
 11
3790.589374
 21
568.786571
 31
0.0
  0
ARC
  5
C02
  8
1
 10
3195.589374
 20
568.786571
 30
0.0
 40
6.0
 50
90.954974
 51
180.0
  0
LINE
  5
C03
  8
1
 10
3189.589374
 20
563.286571
 30
0.0
 11
3189.589374
 21
568.786571
 31
0.0
  0
LINE
  5
C04
  8
1
  6
DASHDOT
 10
3490.089374
 20
539.367441
 30
0.0
 11
3490.089374
 21
1171.257915
 31
0.0
  0
LINE
  5
C05
  8
1
 10
3816.089374
 20
548.286571
 30
0.0
 11
3164.089374
 21
548.286571
 31
0.0
  0
ARC
  5
C06
  8
1
 10
3816.089374
 20
578.286571
 30
0.0
 40
30.0
 50
270.0
 51
296.014366
  0
ARC
  5
C07
  8
1
 10
3828.589374
 20
552.674074
 30
0.0
 40
1.5
 50
296.014366
 51
0.0
  0
LINE
  5
C08
  8
1
 10
3830.089374
 20
552.674074
 30
0.0
 11
3830.089374
 21
563.286571
 31
0.0
  0
LINE
  5
C09
  8
1
 10
3830.089374
 20
563.286571
 30
0.0
 11
3150.089374
 21
563.286571
 31
0.0
  0
LINE
  5
C0A
  8
1
 10
3150.089374
 20
552.674074
 30
0.0
 11
3150.089374
 21
563.286571
 31
0.0
  0
ARC
  5
C0B
  8
1
 10
3151.589374
 20
552.674074
 30
0.0
 40
1.5
 50
180.0
 51
243.985634
  0
ARC
  5
C0C
  8
1
 10
3164.089374
 20
578.286571
 30
0.0
 40
30.0
 50
243.985634
 51
270.0
  0
LINE
  5
C0D
  8
1
 10
3497.089374
 20
645.786571
 30
0.0
 11
3479.089374
 21
645.786571
 31
0.0
  0
LINE
  5
C0E
  8
1
 10
3762.089374
 20
624.286571
 30
0.0
 11
3529.712219
 21
624.286571
 31
0.0
  0
ARC
  5
C0F
  8
1
 10
3218.089374
 20
623.286571
 30
0.0
 40
1.0
 50
90.0
 51
180.0
  0
ARC
  5
C10
  8
1
 10
3762.089374
 20
623.286571
 30
0.0
 40
1.0
 50
0.0
 51
90.0
  0
LINE
  5
C11
  8
1
 10
3763.089374
 20
563.286571
 30
0.0
 11
3763.089374
 21
623.286571
 31
0.0
  0
LINE
  5
C12
  8
1
 10
3446.466529
 20
624.286571
 30
0.0
 11
3218.089374
 21
624.286571
 31
0.0
  0
ARC
  5
C13
  8
1
 10
3479.089374
 20
610.286571
 30
0.0
 40
35.5
 50
90.0
 51
156.773549
  0
ARC
  5
C14
  8
1
 10
3497.089374
 20
610.286571
 30
0.0
 40
35.5
 50
23.226451
 51
90.0
  0
LINE
  5
C15
  8
1
 10
3497.089374
 20
645.786571
 30
0.0
 11
3479.089374
 21
645.786571
 31
0.0
  0
LINE
  5
C16
  8
1
  6
DOT
 10
3437.089374
 20
614.286571
 30
0.0
 11
3557.089374
 21
614.286571
 31
0.0
  0
LINE
  5
C17
  8
1
 10
3217.089374
 20
614.286571
 30
0.0
 11
3195.489374
 21
614.286571
 31
0.0
  0
CIRCLE
  5
C18
  8
1
 10
3545.089374
 20
738.286571
 30
0.0
 40
16.0
  0
LINE
  5
C19
  8
1
 10
3568.089874
 20
751.843071
 30
0.0
 11
3545.089874
 21
765.122171
 31
0.0
  0
LINE
  5
C1A
  8
1
 10
3545.089874
 20
765.122171
 30
0.0
 11
3522.089874
 21
751.843071
 31
0.0
  0
LINE
  5
C1B
  8
1
  6
DASHDOT
 10
3515.090874
 20
738.564071
 30
0.0
 11
3575.088674
 21
738.564071
 31
0.0
  0
LINE
  5
C1C
  8
1
  6
DASHDOT
 10
3545.089374
 20
768.286871
 30
0.0
 11
3545.089174
 21
708.286471
 31
0.0
  0
LINE
  5
C1D
  8
1
 10
3522.089874
 20
725.284971
 30
0.0
 11
3545.089874
 21
712.005971
 31
0.0
  0
LINE
  5
C1E
  8
1
 10
3522.089874
 20
751.843071
 30
0.0
 11
3522.089874
 21
725.284971
 31
0.0
  0
LINE
  5
C1F
  8
1
 10
3568.089874
 20
725.284971
 30
0.0
 11
3568.089874
 21
751.843071
 31
0.0
  0
LINE
  5
C20
  8
1
 10
3545.089874
 20
712.005971
 30
0.0
 11
3568.089874
 21
725.284971
 31
0.0
  0
CIRCLE
  5
C21
  8
1
 10
3445.089473
 20
738.008971
 30
0.0
 40
12.0
  0
LINE
  5
C22
  8
1
 10
3463.089473
 20
748.678871
 30
0.0
 11
3445.089473
 21
759.071271
 31
0.0
  0
LINE
  5
C23
  8
1
  6
DASHDOT
 10
3470.088473
 20
738.286571
 30
0.0
 11
3420.090973
 21
738.286571
 31
0.0
  0
LINE
  5
C24
  8
1
  6
DASHDOT
 10
3445.089473
 20
763.009071
 30
0.0
 11
3445.089273
 21
713.008871
 31
0.0
  0
LINE
  5
C25
  8
1
 10
3445.089473
 20
759.071271
 30
0.0
 11
3427.089473
 21
748.678871
 31
0.0
  0
LINE
  5
C26
  8
1
 10
3427.089473
 20
748.678871
 30
0.0
 11
3427.089473
 21
727.894271
 31
0.0
  0
LINE
  5
C27
  8
1
 10
3427.089473
 20
727.894271
 30
0.0
 11
3445.089473
 21
717.501871
 31
0.0
  0
LINE
  5
C28
  8
1
 10
3445.089473
 20
717.501871
 30
0.0
 11
3463.089473
 21
727.894271
 31
0.0
  0
LINE
  5
C29
  8
1
 10
3463.089649
 20
727.894372
 30
0.0
 11
3463.089473
 21
748.678871
 31
0.0
  0
CIRCLE
  5
C2A
  8
1
 10
3615.132574
 20
858.262042
 30
0.0
 40
16.0
  0
CIRCLE
  5
C2B
  8
1
 10
3675.089374
 20
655.088124
 30
0.0
 40
18.538375
  0
CIRCLE
  5
C2C
  8
1
 10
3346.089473
 20
789.28657
 30
0.0
 40
25.0
  0
LINE
  5
C2D
  8
1
 10
3557.089374
 20
624.286571
 30
0.0
 11
3557.089374
 21
639.286571
 31
0.0
  0
LINE
  5
C2E
  8
1
 10
3437.089374
 20
624.286571
 30
0.0
 11
3437.089374
 21
639.286571
 31
0.0
  0
LINE
  5
C2F
  8
1
 10
3458.613779
 20
639.286571
 30
0.0
 11
3437.089374
 21
639.286571
 31
0.0
  0
LINE
  5
C30
  8
1
  6
DOT
 10
3517.564969
 20
639.286571
 30
0.0
 11
3458.613779
 21
639.286571
 31
0.0
  0
LINE
  5
C31
  8
1
 10
3784.689374
 20
719.986571
 30
0.0
 11
3784.689374
 21
574.785738
 31
0.0
  0
LINE
  5
C32
  8
1
 10
3195.489374
 20
719.986571
 30
0.0
 11
3195.489374
 21
574.785738
 31
0.0
  0
CIRCLE
  5
C33
  8
1
 10
3346.089374
 20
789.28657
 30
0.0
 40
18.61604
  0
LINE
  5
C34
  8
1
 10
3327.716651
 20
792.28657
 30
0.0
 11
3364.462097
 21
792.28657
 31
0.0
  0
LINE
  5
C35
  8
1
 10
3327.716651
 20
786.28657
 30
0.0
 11
3364.462097
 21
786.28657
 31
0.0
  0
CIRCLE
  5
C36
  8
1
 10
3675.089374
 20
655.088124
 30
0.0
 40
11.910391
  0
LINE
  5
C37
  8
1
 10
542.132759
 20
1832.699778
 30
0.0
 11
542.132759
 21
2482.699778
 31
0.0
  0
LINE
  5
C38
  8
1
 10
1972.132759
 20
1832.699778
 30
0.0
 11
1972.132759
 21
2482.699778
 31
0.0
  0
LINE
  5
C39
  8
1
  6
DIVIDE
 10
1952.132759
 20
1837.699778
 30
0.0
 11
1952.132759
 21
2477.699778
 31
0.0
  0
LINE
  5
C3A
  8
1
  6
DIVIDE
 10
562.132759
 20
1837.699778
 30
0.0
 11
562.132759
 21
2477.699778
 31
0.0
  0
LINE
  5
C3B
  8
1
 10
1957.132759
 20
2497.699778
 30
0.0
 11
557.132759
 21
2497.699778
 31
0.0
  0
LINE
  5
C3C
  8
1
 10
1957.132759
 20
1817.699778
 30
0.0
 11
557.132759
 21
1817.699778
 31
0.0
  0
LINE
  5
C3D
  8
1
  6
DIVIDE
 10
1952.132759
 20
1837.699778
 30
0.0
 11
562.132759
 21
1837.699778
 31
0.0
  0
LINE
  5
C3E
  8
1
  6
DIVIDE
 10
1952.132759
 20
2477.699778
 30
0.0
 11
562.132759
 21
2477.699778
 31
0.0
  0
LINE
  5
C3F
  8
1
  6
DASHDOT
 10
1257.132759
 20
1744.360852
 30
0.0
 11
1257.132759
 21
2564.044814
 31
0.0
  0
LINE
  5
C40
  8
1
  6
DASHDOT
 10
2053.385338
 20
2157.699778
 30
0.0
 11
478.377371
 21
2157.699778
 31
0.0
  0
LINE
  5
C41
  8
1
 10
1841.732759
 20
1857.699778
 30
0.0
 11
672.532759
 21
1857.699778
 31
0.0
  0
LINE
  5
C42
  8
1
 10
1841.732759
 20
2452.699778
 30
0.0
 11
1841.732759
 21
2452.099778
 31
0.0
  0
LINE
  5
C43
  8
1
 10
1841.732759
 20
2457.699778
 30
0.0
 11
1841.732759
 21
1857.699778
 31
0.0
  0
LINE
  5
C44
  8
1
 10
1841.732759
 20
1864.099778
 30
0.0
 11
1841.732759
 21
1863.499778
 31
0.0
  0
LINE
  5
C45
  8
1
  6
DASHDOT
 10
607.533308
 20
2418.099778
 30
0.0
 11
692.12174
 21
2418.099778
 31
0.0
  0
LINE
  5
C46
  8
1
 10
644.603827
 20
2380.099778
 30
0.0
 11
657.532759
 21
2380.099778
 31
0.0
  0
LINE
  5
C47
  8
1
 10
644.603827
 20
2456.099778
 30
0.0
 11
657.532759
 21
2456.099778
 31
0.0
  0
LINE
  5
C48
  8
1
  6
DASHED
 10
670.232759
 20
2441.099778
 30
0.0
 11
670.232759
 21
2395.099778
 31
0.0
  0
LINE
  5
C49
  8
1
  6
DASHED
 10
627.532759
 20
2441.099778
 30
0.0
 11
627.532759
 21
2424.099778
 31
0.0
  0
LINE
  5
C4A
  8
1
 10
625.232759
 20
2441.099778
 30
0.0
 11
625.232759
 21
2424.099778
 31
0.0
  0
LINE
  5
C4B
  8
1
 10
625.232759
 20
2412.099778
 30
0.0
 11
638.532759
 21
2412.099778
 31
0.0
  0
LINE
  5
C4C
  8
1
 10
625.232759
 20
2424.099778
 30
0.0
 11
638.532759
 21
2424.099778
 31
0.0
  0
LINE
  5
C4D
  8
1
 10
625.232759
 20
2441.099778
 30
0.0
 11
627.532759
 21
2441.099778
 31
0.0
  0
LINE
  5
C4E
  8
1
 10
625.232759
 20
2395.099778
 30
0.0
 11
627.532759
 21
2395.099778
 31
0.0
  0
LINE
  5
C4F
  8
1
  6
DASHDOT
 10
647.532759
 20
2458.099778
 30
0.0
 11
647.532759
 21
2377.624621
 31
0.0
  0
LINE
  5
C50
  8
1
 10
653.532759
 20
2435.099778
 30
0.0
 11
653.532759
 21
2401.099778
 31
0.0
  0
LINE
  5
C51
  8
1
 10
641.532759
 20
2435.099778
 30
0.0
 11
641.532759
 21
2427.099778
 31
0.0
  0
LINE
  5
C52
  8
1
 10
627.532759
 20
2441.099778
 30
0.0
 11
641.068293
 21
2454.635312
 31
0.0
  0
LINE
  5
C53
  8
1
 10
627.532759
 20
2395.099778
 30
0.0
 11
641.068293
 21
2381.564244
 31
0.0
  0
LINE
  5
C54
  8
1
 10
662.532759
 20
2451.099778
 30
0.0
 11
662.532759
 21
2446.099778
 31
0.0
  0
ARC
  5
C55
  8
1
 10
667.532759
 20
2446.099778
 30
0.0
 40
5.0
 50
180.0
 51
270.0
  0
ARC
  5
C56
  8
1
 10
657.532759
 20
2451.099778
 30
0.0
 40
5.0
 50
0.0
 51
90.0
  0
ARC
  5
C57
  8
1
 10
667.532759
 20
2390.099778
 30
0.0
 40
5.0
 50
90.0
 51
180.0
  0
ARC
  5
C58
  8
1
 10
657.532759
 20
2385.099778
 30
0.0
 40
5.0
 50
270.0
 51
0.0
  0
ARC
  5
C59
  8
1
 10
644.603827
 20
2385.099778
 30
0.0
 40
5.0
 50
225.0
 51
270.0
  0
ARC
  5
C5A
  8
1
 10
644.603827
 20
2451.099778
 30
0.0
 40
5.0
 50
90.0
 51
135.0
  0
ARC
  5
C5B
  8
1
 10
638.532759
 20
2427.099778
 30
0.0
 40
3.0
 50
270.0
 51
0.0
  0
ARC
  5
C5C
  8
1
 10
638.532759
 20
2409.099778
 30
0.0
 40
3.0
 50
0.0
 51
90.0
  0
ARC
  5
C5D
  8
1
 10
647.532759
 20
2401.099778
 30
0.0
 40
6.0
 50
180.0
 51
270.0
  0
ARC
  5
C5E
  8
1
 10
647.532759
 20
2401.099778
 30
0.0
 40
6.0
 50
270.0
 51
0.0
  0
ARC
  5
C5F
  8
1
 10
647.532759
 20
2435.099778
 30
0.0
 40
6.0
 50
0.0
 51
90.0
  0
ARC
  5
C60
  8
1
 10
647.532759
 20
2435.099778
 30
0.0
 40
6.0
 50
90.0
 51
180.0
  0
LINE
  5
C61
  8
1
 10
625.232759
 20
2412.099778
 30
0.0
 11
625.232759
 21
2395.099778
 31
0.0
  0
LINE
  5
C62
  8
1
  6
DASHED
 10
627.532759
 20
2412.099778
 30
0.0
 11
627.532759
 21
2395.099778
 31
0.0
  0
LINE
  5
C63
  8
1
 10
667.532759
 20
2441.099778
 30
0.0
 11
672.532759
 21
2441.099778
 31
0.0
  0
LINE
  5
C64
  8
1
 10
667.532759
 20
2395.099778
 30
0.0
 11
672.532759
 21
2395.099778
 31
0.0
  0
LINE
  5
C65
  8
1
 10
662.532759
 20
2390.099778
 30
0.0
 11
662.532759
 21
2385.099778
 31
0.0
  0
LINE
  5
C66
  8
1
 10
641.532759
 20
2409.099778
 30
0.0
 11
641.532759
 21
2401.099778
 31
0.0
  0
LINE
  5
C67
  8
1
 10
672.532759
 20
2395.099778
 30
0.0
 11
672.532759
 21
2441.099778
 31
0.0
  0
LINE
  5
C68
  8
1
 10
1841.732759
 20
1875.099778
 30
0.0
 11
1841.732759
 21
1921.099778
 31
0.0
  0
LINE
  5
C69
  8
1
  6
DASHDOT
 10
1906.931426
 20
2418.099778
 30
0.0
 11
1824.242579
 21
2418.099778
 31
0.0
  0
LINE
  5
C6A
  8
1
 10
1869.661691
 20
2380.099778
 30
0.0
 11
1856.732759
 21
2380.099778
 31
0.0
  0
LINE
  5
C6B
  8
1
 10
1869.661691
 20
2456.099778
 30
0.0
 11
1856.732759
 21
2456.099778
 31
0.0
  0
LINE
  5
C6C
  8
1
  6
DASHED
 10
1844.032759
 20
2441.099778
 30
0.0
 11
1844.032759
 21
2395.099778
 31
0.0
  0
LINE
  5
C6D
  8
1
  6
DASHED
 10
1886.732759
 20
2441.099778
 30
0.0
 11
1886.732759
 21
2424.099778
 31
0.0
  0
LINE
  5
C6E
  8
1
 10
1889.032759
 20
2441.099778
 30
0.0
 11
1889.032759
 21
2424.099778
 31
0.0
  0
LINE
  5
C6F
  8
1
 10
1889.032759
 20
2412.099778
 30
0.0
 11
1875.732759
 21
2412.099778
 31
0.0
  0
LINE
  5
C70
  8
1
 10
1889.032759
 20
2424.099778
 30
0.0
 11
1875.732759
 21
2424.099778
 31
0.0
  0
LINE
  5
C71
  8
1
 10
1889.032759
 20
2441.099778
 30
0.0
 11
1886.732759
 21
2441.099778
 31
0.0
  0
LINE
  5
C72
  8
1
 10
1889.032759
 20
2395.099778
 30
0.0
 11
1886.732759
 21
2395.099778
 31
0.0
  0
LINE
  5
C73
  8
1
  6
DASHDOT
 10
1866.732759
 20
2458.099778
 30
0.0
 11
1866.732759
 21
2377.624621
 31
0.0
  0
LINE
  5
C74
  8
1
 10
1860.732759
 20
2435.099778
 30
0.0
 11
1860.732759
 21
2401.099778
 31
0.0
  0
LINE
  5
C75
  8
1
 10
1872.732759
 20
2435.099778
 30
0.0
 11
1872.732759
 21
2427.099778
 31
0.0
  0
LINE
  5
C76
  8
1
 10
1886.732759
 20
2441.099778
 30
0.0
 11
1873.197225
 21
2454.635312
 31
0.0
  0
LINE
  5
C77
  8
1
 10
1886.732759
 20
2395.099778
 30
0.0
 11
1873.197225
 21
2381.564244
 31
0.0
  0
LINE
  5
C78
  8
1
 10
1851.732759
 20
2451.099778
 30
0.0
 11
1851.732759
 21
2446.099778
 31
0.0
  0
ARC
  5
C79
  8
1
 10
1846.732759
 20
2446.099778
 30
0.0
 40
5.0
 50
270.0
 51
0.0
  0
ARC
  5
C7A
  8
1
 10
1856.732759
 20
2451.099778
 30
0.0
 40
5.0
 50
90.0
 51
180.0
  0
ARC
  5
C7B
  8
1
 10
1846.732759
 20
2390.099778
 30
0.0
 40
5.0
 50
0.0
 51
90.0
  0
ARC
  5
C7C
  8
1
 10
1856.732759
 20
2385.099778
 30
0.0
 40
5.0
 50
180.0
 51
270.0
  0
ARC
  5
C7D
  8
1
 10
1869.661691
 20
2385.099778
 30
0.0
 40
5.0
 50
270.0
 51
315.0
  0
ARC
  5
C7E
  8
1
 10
1869.661691
 20
2451.099778
 30
0.0
 40
5.0
 50
45.0
 51
90.0
  0
ARC
  5
C7F
  8
1
 10
1875.732759
 20
2427.099778
 30
0.0
 40
3.0
 50
180.0
 51
270.0
  0
ARC
  5
C80
  8
1
 10
1875.732759
 20
2409.099778
 30
0.0
 40
3.0
 50
90.0
 51
180.0
  0
ARC
  5
C81
  8
1
 10
1866.732759
 20
2401.099778
 30
0.0
 40
6.0
 50
270.0
 51
0.0
  0
ARC
  5
C82
  8
1
 10
1866.732759
 20
2401.099778
 30
0.0
 40
6.0
 50
180.0
 51
270.0
  0
ARC
  5
C83
  8
1
 10
1866.732759
 20
2435.099778
 30
0.0
 40
6.0
 50
90.0
 51
180.0
  0
ARC
  5
C84
  8
1
 10
1866.732759
 20
2435.099778
 30
0.0
 40
6.0
 50
0.0
 51
90.0
  0
LINE
  5
C85
  8
1
 10
1889.032759
 20
2412.099778
 30
0.0
 11
1889.032759
 21
2395.099778
 31
0.0
  0
LINE
  5
C86
  8
1
  6
DASHED
 10
1886.732759
 20
2412.099778
 30
0.0
 11
1886.732759
 21
2395.099778
 31
0.0
  0
LINE
  5
C87
  8
1
 10
1846.732759
 20
2441.099778
 30
0.0
 11
1841.732759
 21
2441.099778
 31
0.0
  0
LINE
  5
C88
  8
1
 10
1846.732759
 20
2395.099778
 30
0.0
 11
1841.732759
 21
2395.099778
 31
0.0
  0
LINE
  5
C89
  8
1
 10
1851.732759
 20
2390.099778
 30
0.0
 11
1851.732759
 21
2385.099778
 31
0.0
  0
LINE
  5
C8A
  8
1
 10
1872.732759
 20
2409.099778
 30
0.0
 11
1872.732759
 21
2401.099778
 31
0.0
  0
LINE
  5
C8B
  8
1
 10
1841.732759
 20
2395.099778
 30
0.0
 11
1841.732759
 21
2441.099778
 31
0.0
  0
LINE
  5
C8C
  8
1
 10
672.532759
 20
1864.099778
 30
0.0
 11
672.532759
 21
1863.499778
 31
0.0
  0
LINE
  5
C8D
  8
1
 10
672.532759
 20
2457.699778
 30
0.0
 11
672.532759
 21
1857.699778
 31
0.0
  0
LINE
  5
C8E
  8
1
 10
672.532759
 20
2452.699778
 30
0.0
 11
672.532759
 21
2452.099778
 31
0.0
  0
LINE
  5
C8F
  8
1
  6
DASHDOT
 10
1906.931426
 20
2272.299778
 30
0.0
 11
1824.544938
 21
2272.299778
 31
0.0
  0
LINE
  5
C90
  8
1
 10
1894.132759
 20
2256.299778
 30
0.0
 11
1894.132759
 21
2288.299778
 31
0.0
  0
LINE
  5
C91
  8
1
 10
1894.132759
 20
2288.299778
 30
0.0
 11
1841.732759
 21
2288.823778
 31
0.0
  0
LINE
  5
C92
  8
1
 10
1894.132759
 20
2256.299778
 30
0.0
 11
1841.732759
 21
2255.775778
 31
0.0
  0
LINE
  5
C93
  8
1
 10
1841.732759
 20
2076.099778
 30
0.0
 11
1841.732759
 21
2226.099778
 31
0.0
  0
LINE
  5
C94
  8
1
 10
1841.732759
 20
2220.299778
 30
0.0
 11
1865.832759
 21
2220.299778
 31
0.0
  0
LINE
  5
C95
  8
1
 10
1841.732759
 20
2204.299778
 30
0.0
 11
1865.832759
 21
2204.299778
 31
0.0
  0
LINE
  5
C96
  8
1
 10
1841.732759
 20
2117.124778
 30
0.0
 11
1876.332759
 21
2117.124778
 31
0.0
  0
LINE
  5
C97
  8
1
 10
1841.732759
 20
2107.474778
 30
0.0
 11
1876.332759
 21
2107.474778
 31
0.0
  0
LINE
  5
C98
  8
1
 10
1841.732759
 20
2457.699778
 30
0.0
 11
672.532759
 21
2457.699778
 31
0.0
  0
ARC
  5
C99
  8
1
 10
557.132759
 20
1832.699778
 30
0.0
 40
15.0
 50
180.0
 51
270.0
  0
ARC
  5
C9A
  8
1
 10
557.132759
 20
2482.699778
 30
0.0
 40
15.0
 50
90.0
 51
180.0
  0
ARC
  5
C9B
  8
1
 10
1957.132759
 20
2482.699778
 30
0.0
 40
15.0
 50
0.0
 51
90.0
  0
ARC
  5
C9C
  8
1
 10
1957.132759
 20
1832.699778
 30
0.0
 40
15.0
 50
270.0
 51
0.0
  0
LINE
  5
C9D
  8
1
 10
-646.108564
 20
912.286571
 30
0.0
 11
-1235.308564
 21
912.286571
 31
0.0
  0
LINE
  5
C9E
  8
1
 10
-646.108564
 20
912.286571
 30
0.0
 11
-646.108564
 21
574.785738
 31
0.0
  0
LINE
  5
C9F
  8
1
 10
-1235.308564
 20
912.286571
 30
0.0
 11
-1235.308564
 21
574.785738
 31
0.0
  0
LINE
  5
CA0
  8
1
 10
-718.708564
 20
723.286571
 30
0.0
 11
-642.708564
 21
723.286571
 31
0.0
  0
LINE
  5
CA1
  8
1
 10
-718.708564
 20
720.986571
 30
0.0
 11
-703.708564
 21
720.986571
 31
0.0
  0
LINE
  5
CA2
  8
1
 10
-642.708564
 20
720.986571
 30
0.0
 11
-642.708564
 21
723.286571
 31
0.0
  0
LINE
  5
CA3
  8
1
 10
-718.708564
 20
720.986571
 30
0.0
 11
-718.708564
 21
723.286571
 31
0.0
  0
LINE
  5
CA4
  8
1
 10
-703.708564
 20
714.286571
 30
0.0
 11
-703.708564
 21
723.286571
 31
0.0
  0
LINE
  5
CA5
  8
1
 10
-686.708564
 20
714.286571
 30
0.0
 11
-686.708564
 21
723.286571
 31
0.0
  0
LINE
  5
CA6
  8
1
 10
-674.708564
 20
714.286571
 30
0.0
 11
-674.708564
 21
723.286571
 31
0.0
  0
LINE
  5
CA7
  8
1
 10
-657.708564
 20
679.020415
 30
0.0
 11
-657.708564
 21
723.286571
 31
0.0
  0
LINE
  5
CA8
  8
1
 10
-700.708564
 20
711.286571
 30
0.0
 11
-689.708564
 21
711.286571
 31
0.0
  0
ARC
  5
CA9
  8
1
 10
-660.708564
 20
714.286571
 30
0.0
 40
3.0
 50
270.0
 51
0.0
  0
ARC
  5
CAA
  8
1
 10
-671.708564
 20
714.286571
 30
0.0
 40
3.0
 50
180.0
 51
270.0
  0
ARC
  5
CAB
  8
1
 10
-689.708564
 20
714.286571
 30
0.0
 40
3.0
 50
270.0
 51
0.0
  0
ARC
  5
CAC
  8
1
 10
-700.708564
 20
714.286571
 30
0.0
 40
3.0
 50
180.0
 51
270.0
  0
LINE
  5
CAD
  8
1
 10
-696.988411
 20
668.286571
 30
0.0
 11
-664.428717
 21
668.286571
 31
0.0
  0
CIRCLE
  5
CAE
  8
1
 10
-680.708564
 20
708.286571
 30
0.0
 40
3.5
  0
CIRCLE
  5
CAF
  8
1
 10
-680.708564
 20
678.286571
 30
0.0
 40
3.5
  0
LINE
  5
CB0
  8
1
 10
-659.639586
 20
671.849832
 30
0.0
 11
-657.919433
 21
677.583676
 31
0.0
  0
LINE
  5
CB1
  8
1
 10
-701.777542
 20
671.849832
 30
0.0
 11
-703.497696
 21
677.583676
 31
0.0
  0
ARC
  5
CB2
  8
1
 10
-664.428717
 20
673.286571
 30
0.0
 40
5.0
 50
270.0
 51
343.300756
  0
ARC
  5
CB3
  8
1
 10
-662.708564
 20
679.020415
 30
0.0
 40
5.0
 50
343.300756
 51
0.0
  0
ARC
  5
CB4
  8
1
 10
-696.988411
 20
673.286571
 30
0.0
 40
5.0
 50
196.699244
 51
270.0
  0
ARC
  5
CB5
  8
1
 10
-698.708564
 20
679.020415
 30
0.0
 40
5.0
 50
180.0
 51
196.699244
  0
LINE
  5
CB6
  8
1
 10
-671.708564
 20
711.286571
 30
0.0
 11
-660.708564
 21
711.286571
 31
0.0
  0
LINE
  5
CB7
  8
1
 10
-703.708564
 20
714.286571
 30
0.0
 11
-703.708564
 21
679.020415
 31
0.0
  0
LINE
  5
CB8
  8
1
 10
-657.708564
 20
720.986571
 30
0.0
 11
-642.708564
 21
720.986571
 31
0.0
  0
LINE
  5
CB9
  8
1
 10
-686.708564
 20
720.986571
 30
0.0
 11
-674.708564
 21
720.986571
 31
0.0
  0
ARC
  5
CBA
  8
1
 10
-1235.208564
 20
568.786571
 30
0.0
 40
6.0
 50
90.954974
 51
180.0
  0
LINE
  5
CBB
  8
1
 10
-1241.208564
 20
563.286571
 30
0.0
 11
-1241.208564
 21
568.786571
 31
0.0
  0
ARC
  5
CBC
  8
1
 10
-646.208564
 20
568.786571
 30
0.0
 40
6.0
 50
0.0
 51
89.045026
  0
LINE
  5
CBD
  8
1
 10
-640.208564
 20
563.286571
 30
0.0
 11
-640.208564
 21
568.786571
 31
0.0
  0
LINE
  5
CBE
  8
1
  6
DASHDOT
 10
-940.708564
 20
539.367441
 30
0.0
 11
-940.708564
 21
1013.008246
 31
0.0
  0
LINE
  5
CBF
  8
1
 10
-1266.708564
 20
548.286571
 30
0.0
 11
-614.708564
 21
548.286571
 31
0.0
  0
ARC
  5
CC0
  8
1
 10
-1266.708564
 20
578.286571
 30
0.0
 40
30.0
 50
243.985634
 51
270.0
  0
ARC
  5
CC1
  8
1
 10
-1279.208564
 20
552.674074
 30
0.0
 40
1.5
 50
180.0
 51
243.985634
  0
LINE
  5
CC2
  8
1
 10
-1280.708564
 20
552.674074
 30
0.0
 11
-1280.708564
 21
563.286571
 31
0.0
  0
LINE
  5
CC3
  8
1
 10
-1280.708564
 20
563.286571
 30
0.0
 11
-600.708564
 21
563.286571
 31
0.0
  0
LINE
  5
CC4
  8
1
 10
-600.708564
 20
552.674074
 30
0.0
 11
-600.708564
 21
563.286571
 31
0.0
  0
ARC
  5
CC5
  8
1
 10
-602.208564
 20
552.674074
 30
0.0
 40
1.5
 50
296.014366
 51
0.0
  0
ARC
  5
CC6
  8
1
 10
-614.708564
 20
578.286571
 30
0.0
 40
30.0
 50
270.0
 51
296.014366
  0
ARC
  5
CC7
  8
1
 10
-668.708564
 20
623.286571
 30
0.0
 40
1.0
 50
0.0
 51
90.0
  0
ARC
  5
CC8
  8
1
 10
-1212.708564
 20
623.286571
 30
0.0
 40
1.0
 50
90.0
 51
180.0
  0
LINE
  5
CC9
  8
1
 10
-1235.308564
 20
614.286571
 30
0.0
 11
-646.108564
 21
614.286571
 31
0.0
  0
CIRCLE
  5
CCA
  8
1
  6
DASHDOT
 10
-890.387682
 20
792.703118
 30
0.0
 40
80.0
  0
CIRCLE
  5
CCB
  8
1
 10
-890.387682
 20
792.703118
 30
0.0
 40
62.5
  0
LINE
  5
CCC
  8
1
  6
DASHDOT
 10
-890.387682
 20
893.671315
 30
0.0
 11
-890.387682
 21
691.73492
 31
0.0
  0
LINE
  5
CCD
  8
1
  6
DASHDOT
 10
-991.355879
 20
792.703118
 30
0.0
 11
-789.419484
 21
792.703118
 31
0.0
  0
CIRCLE
  5
CCE
  8
1
 10
-930.387682
 20
723.421085
 30
0.0
 40
3.534976
  0
CIRCLE
  5
CCF
  8
1
 10
-850.387682
 20
723.421085
 30
0.0
 40
3.534976
  0
CIRCLE
  5
CD0
  8
1
 10
-810.387682
 20
792.703118
 30
0.0
 40
3.534976
  0
CIRCLE
  5
CD1
  8
1
 10
-850.387682
 20
861.98515
 30
0.0
 40
3.534976
  0
CIRCLE
  5
CD2
  8
1
 10
-930.387682
 20
861.98515
 30
0.0
 40
3.534976
  0
CIRCLE
  5
CD3
  8
1
 10
-970.387682
 20
792.703118
 30
0.0
 40
3.534976
  0
LINE
  5
CD4
  8
1
 10
607.13269
 20
-331.430128
 30
0.0
 11
1907.13269
 21
-331.430128
 31
0.0
  0
LINE
  5
CD5
  8
1
 10
607.13269
 20
-287.930128
 30
0.0
 11
1907.13269
 21
-287.930128
 31
0.0
  0
LINE
  5
CD6
  8
1
  6
DASHDOT
 10
2022.13269
 20
-528.430128
 30
0.0
 11
492.13269
 21
-528.430128
 31
0.0
  0
LINE
  5
CD7
  8
1
 10
895.768913
 20
-658.430128
 30
0.0
 11
1155.768902
 21
-398.430128
 31
0.0
  0
LINE
  5
CD8
  8
1
 10
1283.633748
 20
-398.430128
 30
0.0
 11
639.53269
 21
-398.430128
 31
0.0
  0
LINE
  5
CD9
  8
1
 10
542.13269
 20
-203.430128
 30
0.0
 11
542.13269
 21
-853.430128
 31
0.0
  0
LINE
  5
CDA
  8
1
 10
557.13269
 20
-868.430128
 30
0.0
 11
607.13269
 21
-868.430128
 31
0.0
  0
ARC
  5
CDB
  8
1
 10
557.13269
 20
-853.430128
 30
0.0
 40
15.0
 50
180.0
 51
270.0
  0
LINE
  5
CDC
  8
1
 10
557.13269
 20
-188.430128
 30
0.0
 11
607.13269
 21
-188.430128
 31
0.0
  0
ARC
  5
CDD
  8
1
 10
557.13269
 20
-203.430128
 30
0.0
 40
15.0
 50
90.0
 51
180.0
  0
LINE
  5
CDE
  8
1
 10
607.13269
 20
-188.430128
 30
0.0
 11
607.13269
 21
-868.430128
 31
0.0
  0
LINE
  5
CDF
  8
1
 10
1972.13269
 20
-853.430128
 30
0.0
 11
1972.13269
 21
-203.430128
 31
0.0
  0
LINE
  5
CE0
  8
1
 10
1957.13269
 20
-188.430128
 30
0.0
 11
1907.13269
 21
-188.430128
 31
0.0
  0
ARC
  5
CE1
  8
1
 10
1957.13269
 20
-203.430128
 30
0.0
 40
15.0
 50
0.0
 51
90.0
  0
LINE
  5
CE2
  8
1
 10
1907.13269
 20
-868.430128
 30
0.0
 11
1907.13269
 21
-188.430128
 31
0.0
  0
LINE
  5
CE3
  8
1
 10
1957.13269
 20
-868.430128
 30
0.0
 11
1907.13269
 21
-868.430128
 31
0.0
  0
ARC
  5
CE4
  8
1
 10
1957.13269
 20
-853.430128
 30
0.0
 40
15.0
 50
270.0
 51
0.0
  0
LINE
  5
CE5
  8
1
 10
1907.13269
 20
-233.430128
 30
0.0
 11
1907.13269
 21
-232.930128
 31
0.0
  0
LINE
  5
CE6
  8
1
 10
607.13269
 20
-868.430128
 30
0.0
 11
1907.13269
 21
-868.430128
 31
0.0
  0
LINE
  5
CE7
  8
1
 10
607.13269
 20
-827.430128
 30
0.0
 11
1907.13269
 21
-827.430128
 31
0.0
  0
LINE
  5
CE8
  8
1
 10
607.13269
 20
-768.930128
 30
0.0
 11
1907.13269
 21
-768.930128
 31
0.0
  0
LINE
  5
CE9
  8
1
 10
607.13269
 20
-725.430128
 30
0.0
 11
1907.13269
 21
-725.430128
 31
0.0
  0
LINE
  5
CEA
  8
1
 10
1806.63269
 20
-725.430128
 30
0.0
 11
1792.13269
 21
-725.430128
 31
0.0
  0
LINE
  5
CEB
  8
1
 10
607.13269
 20
-188.430128
 30
0.0
 11
1907.13269
 21
-188.430128
 31
0.0
  0
LINE
  5
CEC
  8
1
 10
607.13269
 20
-229.430128
 30
0.0
 11
1907.13269
 21
-229.430128
 31
0.0
  0
LINE
  5
CED
  8
1
 10
607.13269
 20
-243.430128
 30
0.0
 11
1757.13269
 21
-243.430128
 31
0.0
  0
LINE
  5
CEE
  8
1
 10
1907.13269
 20
-287.430128
 30
0.0
 11
1907.13269
 21
-232.930128
 31
0.0
  0
LINE
  5
CEF
  8
1
 10
1757.13269
 20
-287.430128
 30
0.0
 11
1757.13269
 21
-232.930128
 31
0.0
  0
LINE
  5
CF0
  8
1
 10
1907.13269
 20
-232.930128
 30
0.0
 11
1757.13269
 21
-232.930128
 31
0.0
  0
LINE
  5
CF1
  8
1
 10
1757.13269
 20
-287.430128
 30
0.0
 11
1907.13269
 21
-287.430128
 31
0.0
  0
LINE
  5
CF2
  8
1
 10
1772.13269
 20
-287.430128
 30
0.0
 11
1772.13269
 21
-232.930128
 31
0.0
  0
LINE
  5
CF3
  8
1
 10
1773.13269
 20
-287.430128
 30
0.0
 11
1773.13269
 21
-232.930128
 31
0.0
  0
LINE
  5
CF4
  8
1
 10
1907.13269
 20
-282.930128
 30
0.0
 11
1907.13269
 21
-281.930128
 31
0.0
  0
LINE
  5
CF5
  8
1
 10
1907.13269
 20
-268.930128
 30
0.0
 11
1907.13269
 21
-269.930128
 31
0.0
  0
LINE
  5
CF6
  8
1
 10
1907.13269
 20
-812.30008
 30
0.0
 11
1892.13269
 21
-812.30008
 31
0.0
  0
LINE
  5
CF7
  8
1
 10
1907.13269
 20
-773.930128
 30
0.0
 11
1907.13269
 21
-774.930128
 31
0.0
  0
LINE
  5
CF8
  8
1
 10
1907.13269
 20
-787.930128
 30
0.0
 11
1907.13269
 21
-786.930128
 31
0.0
  0
LINE
  5
CF9
  8
1
 10
1907.13269
 20
-769.430128
 30
0.0
 11
1907.13269
 21
-812.30008
 31
0.0
  0
LINE
  5
CFA
  8
1
 10
1892.13269
 20
-769.430128
 30
0.0
 11
1892.13269
 21
-812.30008
 31
0.0
  0
LINE
  5
CFB
  8
1
 10
1892.13269
 20
-769.430128
 30
0.0
 11
1907.13269
 21
-769.430128
 31
0.0
  0
LINE
  5
CFC
  8
1
 10
607.13269
 20
-812.30008
 30
0.0
 11
622.13269
 21
-812.30008
 31
0.0
  0
LINE
  5
CFD
  8
1
 10
607.13269
 20
-773.930128
 30
0.0
 11
607.13269
 21
-774.930128
 31
0.0
  0
LINE
  5
CFE
  8
1
 10
607.13269
 20
-787.930128
 30
0.0
 11
607.13269
 21
-786.930128
 31
0.0
  0
LINE
  5
CFF
  8
1
 10
607.13269
 20
-769.430128
 30
0.0
 11
607.13269
 21
-812.30008
 31
0.0
  0
LINE
  5
D00
  8
1
 10
622.13269
 20
-769.430128
 30
0.0
 11
622.13269
 21
-812.30008
 31
0.0
  0
LINE
  5
D01
  8
1
 10
622.13269
 20
-769.430128
 30
0.0
 11
607.13269
 21
-769.430128
 31
0.0
  0
LINE
  5
D02
  8
1
 10
607.13269
 20
-244.560176
 30
0.0
 11
622.13269
 21
-244.560176
 31
0.0
  0
LINE
  5
D03
  8
1
 10
607.13269
 20
-282.930128
 30
0.0
 11
607.13269
 21
-281.930128
 31
0.0
  0
LINE
  5
D04
  8
1
 10
607.13269
 20
-268.930128
 30
0.0
 11
607.13269
 21
-269.930128
 31
0.0
  0
LINE
  5
D05
  8
1
 10
607.13269
 20
-287.430128
 30
0.0
 11
607.13269
 21
-244.560176
 31
0.0
  0
LINE
  5
D06
  8
1
 10
622.13269
 20
-287.430128
 30
0.0
 11
622.13269
 21
-244.560176
 31
0.0
  0
LINE
  5
D07
  8
1
 10
622.13269
 20
-287.430128
 30
0.0
 11
607.13269
 21
-287.430128
 31
0.0
  0
LINE
  5
D08
  8
1
 10
609.53269
 20
-367.930128
 30
0.0
 11
609.53269
 21
-688.930128
 31
0.0
  0
LINE
  5
D09
  8
1
 10
1904.73269
 20
-367.930128
 30
0.0
 11
1904.73269
 21
-688.930128
 31
0.0
  0
LINE
  5
D0A
  8
1
 10
1904.73269
 20
-367.930128
 30
0.0
 11
1309.920467
 21
-367.930128
 31
0.0
  0
LINE
  5
D0B
  8
1
 10
1904.73269
 20
-688.930128
 30
0.0
 11
1223.908777
 21
-688.930128
 31
0.0
  0
LINE
  5
D0C
  8
1
 10
639.53269
 20
-398.430128
 30
0.0
 11
639.53269
 21
-658.430128
 31
0.0
  0
LINE
  5
D0D
  8
1
  6
DIVIDE
 10
1205.794508
 20
-688.930128
 30
0.0
 11
1291.806198
 21
-367.930128
 31
0.0
  0
LINE
  5
D0E
  8
1
  6
DIVIDE
 10
1223.908777
 20
-688.930128
 30
0.0
 11
1309.920467
 21
-367.930128
 31
0.0
  0
LINE
  5
D0F
  8
1
 10
1213.966958
 20
-658.430128
 30
0.0
 11
639.53269
 21
-658.430128
 31
0.0
  0
LINE
  5
D10
  8
1
 10
1205.794508
 20
-688.930128
 30
0.0
 11
609.53269
 21
-688.930128
 31
0.0
  0
LINE
  5
D11
  8
1
 10
1291.806198
 20
-367.930128
 30
0.0
 11
609.53269
 21
-367.930128
 31
0.0
  0
LINE
  5
D12
  8
2
  6
CONTINUOUS
 10
639.53269
 20
-664.430128
 30
0.0
 11
639.53269
 21
-1039.144022
 31
0.0
  0
LINE
  5
D13
  8
2
  6
CONTINUOUS
 10
639.53269
 20
-1034.144022
 30
0.0
 11
1401.941583
 21
-1034.144022
 31
0.0
  0
LINE
  5
D14
  8
2
  6
CONTINUOUS
 10
667.599711
 20
-1029.195049
 30
0.0
 11
639.53269
 21
-1034.144022
 31
0.0
  0
LINE
  5
D15
  8
2
  6
CONTINUOUS
 10
667.599711
 20
-1039.092995
 30
0.0
 11
639.53269
 21
-1034.144022
 31
0.0
  0
LINE
  5
D16
  8
1
 10
607.13269
 20
-813.430128
 30
0.0
 11
1907.13269
 21
-813.430128
 31
0.0
  0
CIRCLE
  5
D17
  8
1
 10
1880.062227
 20
-699.305369
 30
0.0
 40
0.888911
  0
CIRCLE
  5
D18
  8
1
 10
1880.062227
 20
-714.076412
 30
0.0
 40
0.888911
  0
CIRCLE
  5
D19
  8
1
 10
1892.854326
 20
-691.919848
 30
0.0
 40
0.888911
  0
CIRCLE
  5
D1A
  8
1
 10
1892.854326
 20
-706.690891
 30
0.0
 40
0.888911
  0
CIRCLE
  5
D1B
  8
1
 10
1892.854326
 20
-721.461934
 30
0.0
 40
0.888911
  0
CIRCLE
  5
D1C
  8
1
 10
1074.160009
 20
-364.940408
 30
0.0
 40
0.888911
  0
CIRCLE
  5
D1D
  8
1
 10
1074.160009
 20
-335.398321
 30
0.0
 40
0.888911
  0
CIRCLE
  5
D1E
  8
1
 10
1086.952107
 20
-357.554886
 30
0.0
 40
0.888911
  0
CIRCLE
  5
D1F
  8
1
 10
1086.952107
 20
-342.783843
 30
0.0
 40
0.888911
  0
CIRCLE
  5
D20
  8
1
 10
1074.160009
 20
-350.169365
 30
0.0
 40
0.888911
  0
CIRCLE
  5
D21
  8
1
 10
1880.062227
 20
-357.554886
 30
0.0
 40
0.888911
  0
CIRCLE
  5
D22
  8
1
 10
1880.062227
 20
-342.783843
 30
0.0
 40
0.888911
  0
CIRCLE
  5
D23
  8
1
 10
1892.854326
 20
-364.940408
 30
0.0
 40
0.888911
  0
CIRCLE
  5
D24
  8
1
 10
1892.854326
 20
-350.169365
 30
0.0
 40
0.888911
  0
CIRCLE
  5
D25
  8
1
 10
1892.854326
 20
-335.398321
 30
0.0
 40
0.888911
  0
LINE
  5
D26
  8
1
 10
1192.753755
 20
-658.430128
 30
0.0
 11
1221.73153
 21
-629.452352
 31
0.0
  0
LINE
  5
D27
  8
1
 10
1150.327349
 20
-658.430128
 30
0.0
 11
1237.260673
 21
-571.4968
 31
0.0
  0
LINE
  5
D28
  8
1
 10
1107.900943
 20
-658.430128
 30
0.0
 11
1252.789816
 21
-513.541248
 31
0.0
  0
LINE
  5
D29
  8
1
 10
1065.474537
 20
-658.430128
 30
0.0
 11
1268.31896
 21
-455.585697
 31
0.0
  0
LINE
  5
D2A
  8
1
 10
1023.048131
 20
-658.430128
 30
0.0
 11
1283.04812
 21
-398.430128
 31
0.0
  0
LINE
  5
D2B
  8
1
 10
980.621725
 20
-658.430128
 30
0.0
 11
1240.621714
 21
-398.430128
 31
0.0
  0
LINE
  5
D2C
  8
1
 10
938.195319
 20
-658.430128
 30
0.0
 11
1198.195308
 21
-398.430128
 31
0.0
  0
LINE
  5
D2D
  8
1
 10
853.342507
 20
-658.430128
 30
0.0
 11
1113.342496
 21
-398.430128
 31
0.0
  0
LINE
  5
D2E
  8
1
 10
810.916102
 20
-658.430128
 30
0.0
 11
1070.91609
 21
-398.430128
 31
0.0
  0
LINE
  5
D2F
  8
1
 10
768.489696
 20
-658.430128
 30
0.0
 11
1028.489684
 21
-398.430128
 31
0.0
  0
LINE
  5
D30
  8
1
 10
726.06329
 20
-658.430128
 30
0.0
 11
986.063278
 21
-398.430128
 31
0.0
  0
LINE
  5
D31
  8
1
 10
683.636884
 20
-658.430128
 30
0.0
 11
943.636872
 21
-398.430128
 31
0.0
  0
LINE
  5
D32
  8
1
 10
641.210478
 20
-658.430128
 30
0.0
 11
901.210466
 21
-398.430128
 31
0.0
  0
LINE
  5
D33
  8
1
 10
639.53269
 20
-617.681507
 30
0.0
 11
858.78406
 21
-398.430128
 31
0.0
  0
LINE
  5
D34
  8
1
 10
639.53269
 20
-575.2551
 30
0.0
 11
816.357655
 21
-398.430128
 31
0.0
  0
LINE
  5
D35
  8
1
 10
639.53269
 20
-532.828692
 30
0.0
 11
773.931249
 21
-398.430128
 31
0.0
  0
LINE
  5
D36
  8
1
 10
639.53269
 20
-490.402284
 30
0.0
 11
731.504843
 21
-398.430128
 31
0.0
  0
LINE
  5
D37
  8
1
 10
639.53269
 20
-447.975876
 30
0.0
 11
689.078437
 21
-398.430128
 31
0.0
  0
LINE
  5
D38
  8
1
 10
639.53269
 20
-405.549468
 30
0.0
 11
646.652031
 21
-398.430128
 31
0.0
  0
TEXT
  5
D39
  8
2
  6
CONTINUOUS
 10
942.336609
 20
-1030.143677
 30
0.0
 40
52.0
  1
１２３５（天井材部）
 41
0.6
  7
MONOTXT
  0
TEXT
  8
3
  40
150
  5
E74
  72
0
  71
0
 10
3171.09
 20
-221.798
 30
0.000000
  1

  0
TEXT
  8
3
  40
150
  5
E75
  72
0
  71
0
 10
3171.09
 20
-416.798
 30
0.000000
  1

  0
TEXT
  8
3
  40
150
  5
E76
  72
0
  71
0
 10
3171.09
 20
-611.798
 30
0.000000
  1
GBC6_3
  0
TEXT
  8
3
  40
150
  5
E77
  72
0
  71
0
 10
3171.09
 20
-806.798
 30
0.000000
  1
FXYC63KVE
  0
ENDSEC
  0
EOF
